#TITLE:狂乱 Hey Kids!!;
#SUBTITLE:;
#ARTIST:THE ORAL CIGARETTES;
#TITLETRANSLIT:Kyouran Hey Kids!!;
#SUBTITLETRANSLIT:;
#ARTISTTRANSLIT:THE ORAL CIGARETTES;
#GENRE:POP;
#CREDIT:;
#MUSIC:Kyouran Hey Kids!!.ogg;
#BANNER:Kyouran Hey Kids!!.png;
#BACKGROUND:Kyouran Hey Kids!!-bg.png;
#CDTITLE:;
#SAMPLESTART:47.988;
#SAMPLELENGTH:13.521;
#SELECTABLE:YES;
#OFFSET:-0.030;
#BPMS:0.000=142.000;
#STOPS:;
#BGCHANGES:3.000=Kyouran Hey Kids!!.avi=1.000=0=0=0=StretchNoLoop====,
99999.000=-nosongbg-=1.000=0=0=0=StretchNoLoop====
;
#FGCHANGES:;

//--------------- dance-single - ----------------
#NOTES:
     dance-single:
     :
     Hard:
     12:
     0,0,0,0,0:
0000
0000
0000
0000
,
2000
0000
0000
0001
0000
0000
3100
0000
0010
0000
0010
0000
0001
0000
1000
0000
,
0002
0000
0000
1000
0000
0000
0103
0000
0010
0000
0010
0000
1000
0000
0001
0000
,
0200
0000
0000
1000
0000
0000
0301
0000
0010
0000
0010
0000
0100
0000
1000
0000
,
1001
0000
0000
0110
,
0001
0000
1000
0000
0010
0000
0100
0001
0000
1000
0001
0000
0010
0000
0100
0000
,
1000
0000
0001
0000
1000
0000
0010
0100
0000
0010
1000
0000
0100
0000
0010
0000
,
0001
0000
0100
0000
0010
0000
1000
0100
0000
1000
0001
0000
0010
0000
0100
0000
,
1000
0000
0001
0000
0100
0010
0000
1000
0000
0001
0010
0000
0100
0000
0100
0000
,
1000
0000
0010
0000
1000
0000
0100
0010
0000
0100
1000
0000
0001
0000
0010
0000
,
0100
0000
1000
0000
0010
0000
0100
0001
0000
1000
0001
0000
0010
0000
0100
0000
,
1000
0000
0001
0000
1000
0000
0010
0100
0000
0001
1000
0000
0010
0000
0100
0000
,
0001
0000
0001
0000
1000
0010
0000
0100
0000
0010
1000
0000
0010
0000
0100
0000
,
1002
0000
0000
0010
0000
0000
0010
0000
0000
0000
1003
0000
0100
0000
0001
0000
,
0200
0000
0000
0010
0000
0000
1000
0000
0000
0000
1300
0000
0001
0000
0100
0000
,
0020
0000
0000
1000
0000
0000
0100
0000
0000
0000
1030
0000
0001
0000
0100
0000
,
0002
0000
0000
0010
0000
0000
0100
0000
1003
0000
0001
0000
0010
0000
0100
0000
,
1020
0000
0000
1000
0000
0000
0100
0000
0000
0000
0130
0000
0001
0000
1000
0000
,
2100
0000
0000
0001
0000
0000
0100
0000
0000
0000
3001
0000
0010
0000
0100
0000
,
1100
0000
0000
1010
0000
0000
0101
0000
0000
0011
0000
0000
0110
0000
0000
1001
,
0000
0010
0010
1000
1000
0100
0020
0000
,
0031
0000
0100
0000
0010
0000
1000
0010
0000
1000
0001
0000
0010
0000
0100
0000
,
1000
0000
0001
0000
0010
0000
0100
1000
0000
0001
1000
0000
0010
0000
0100
0000
,
0001
0000
0010
0000
0100
0000
1000
0001
0000
0100
0001
0000
0010
0000
0100
0000
,
0010
0001
1000
0010
0100
0100
0010
0010
,
1000
0100
0000
1000
0001
0000
0010
0000
0110
0000
0000
0000
0110
0000
0000
0000
,
0001
0100
0000
0001
1000
0000
0010
0000
0110
0000
0000
0000
0110
0000
0000
0000
,
0200
0000
0000
0302
0000
0000
0023
0000
0000
0230
0000
0000
1300
0000
0010
0000
,
0100
0010
1001
0000
0000
0000
0000
0000
,
1000
0010
0100
0010
1000
0001
0010
0000
,
0100
1000
0001
0100
1000
0100
0010
0000
,
1000
0100
0010
0000
0001
0010
0100
0000
,
1000
0001
1000
0000
0010
0100
0010
0110
,
0000
1001
0000
0001
0100
1000
0100
0000
,
0001
0010
0100
1000
1000
0010
0100
0002
,
0000
0013
0100
0020
0000
0031
1000
0002
,
2000
3003
0100
0010
0100
0001
1000
1001
,
0000
1001
0000
1000
0100
0010
1000
0010
,
0001
0010
0001
0100
1000
0100
2000
0000
,
3100
0001
0010
0000
0100
1000
0010
0000
,
0100
0001
1000
0000
0001
0010
0001
0011
,
0000
1100
0000
1000
0001
1000
0001
0100
,
0010
0100
1000
0001
0010
1000
0100
0001
,
0200
0000
0000
1000
0000
0000
0301
0000
0000
0000
0001
0000
0100
0000
1000
0000
,
0020
0000
0000
0001
0000
0000
0130
0000
0010
0000
1000
0000
0100
0000
0010
0000
,
2000
0000
0000
0010
0000
0000
3010
0000
0000
0000
0010
0000
0001
0000
0100
0000
,
0020
0000
0000
1000
0000
0000
0031
0000
0010
0000
0100
0000
0001
0000
1000
0000
,
0100
0010
1000
0001
0100
1000
0001
0100
,
0010
1000
0010
1000
0001
0100
0001
0100
,
0020
0000
0000
0000
,
0000
0000
0000
0000
1000
0100
0100
0130
,
1001
0000
0001
0000
0010
0000
0100
1000
0000
0001
1000
0000
0010
0000
0100
0000
,
0001
0000
1000
0000
0001
0000
0010
0100
0000
0010
0001
0000
0100
0000
0010
0000
,
1000
0000
0100
0000
0010
0000
0001
0100
0000
0001
1000
0000
0010
0000
0100
0000
,
0001
0000
1000
0000
0100
0010
0000
0001
0000
1000
0010
0000
0100
0000
0100
0000
,
0001
0000
0010
0000
0001
0000
0100
0010
0000
0100
0001
0000
1000
0000
0010
0000
,
0100
0000
0001
0000
0010
0000
0100
1000
0000
0001
1000
0000
0010
0000
0100
0000
,
0001
0000
1000
0000
0001
0000
0010
0100
0000
1000
0001
0000
0010
0000
0100
0000
,
1000
0000
1000
0000
0001
0010
0000
0100
0000
0010
0001
0000
0010
0000
0110
0000
,
0100
1000
0000
1000
0001
0000
0100
0001
0000
0001
1000
0000
0010
0000
0220
0000
,
0000
0000
0330
0000
;

//--------------- dance-single - ----------------
#NOTES:
     dance-single:
     :
     Challenge:
     16:
     0.642746,0.485132,0,0,0,472,472,0,0,0,0,0.642746,0.485132,0,0,0,472,472,0,0,0,0:
0000
0000
0000
0000
,
0110
0000
0000
0010
1000
0000
0001
0000
1000
0100
1000
0000
0001
0010
0001
0000
,
1100
0000
0000
1000
0010
0000
0100
0000
0001
0100
0001
0000
1000
0010
1000
0000
,
0101
0000
0000
0001
0010
0000
0100
0000
1000
0010
0100
1000
0100
0010
1000
0100
,
0010
0000
0000
0000
1001
0000
0001
1000
0000
0100
0010
0000
0011
0000
0000
0000
,
0001
0010
0100
1000
0010
0000
0100
0010
0000
0100
0001
1000
0001
0010
0100
0000
,
1000
0100
0010
0001
0100
0000
0010
0100
0000
0010
1000
0100
1000
0000
1001
0000
,
0001
0100
0010
1000
0100
0000
0010
0100
0000
1000
0001
0100
0010
0100
0001
0000
,
0010
0100
1000
0000
0001
0010
0000
0100
0000
0010
0001
0100
0010
0001
0010
0100
,
0001
0010
0100
1000
0001
0000
0100
0001
0000
1000
0010
0100
0010
1000
0001
0000
,
1000
0100
0010
0001
1000
0000
0001
0100
0000
0010
1000
0001
0010
0000
0110
0000
,
0100
1000
0001
0100
0010
0000
0010
1000
0000
0001
0010
0100
0010
1000
0001
0000
,
0100
1000
0010
0000
0100
0001
0000
1000
0000
0100
1000
0001
0100
0010
0100
0010
,
1000
0000
0000
0001
0010
0000
0100
0000
1000
0010
1000
0000
0010
0000
0100
0001
,
1000
0000
0000
0001
0010
0000
0100
0000
1000
0010
1000
0000
0001
0100
0001
0000
,
1010
0000
0000
1000
0100
0000
1000
0000
0001
0000
0010
0001
0010
0000
0100
1000
,
0001
0000
1000
0000
0010
0100
0010
0000
1000
0000
0001
0010
0001
0000
1000
0001
,
1000
0000
0000
1000
0010
0000
0100
0000
0001
0010
0001
0000
0010
0000
0100
1000
,
0010
0000
0000
0010
0100
0000
0001
0000
0010
0001
0010
0000
0001
1000
0010
0000
,
1010
0000
0100
0001
0000
0000
0011
0000
0100
1000
0000
0000
1010
0000
0100
0001
,
1000
0000
0010
0100
0010
0100
0001
1000
0001
1000
0100
0010
0002
0000
0000
0000
,
1003
0100
0010
0001
0100
0000
0010
0100
0000
0010
1000
0001
1000
0100
0010
0000
,
0001
0010
0100
1000
0010
0000
0100
0010
0000
0100
0001
0010
0001
0000
1001
0000
,
1000
0010
0100
0001
0010
0000
0100
0010
0000
0001
1000
0010
0100
0010
0001
0000
,
1000
0100
1000
0100
0001
1000
0001
1000
0100
0000
1100
0000
0001
0000
0101
0000
,
0001
1000
0000
0100
0010
0000
0100
0000
0110
0000
0100
1000
0100
1000
0000
1000
,
0001
0100
0000
0100
0001
0000
0010
0000
0110
0000
0010
0001
0100
0010
0001
1000
,
0100
0010
0000
1000
0010
0000
0001
0010
0000
1000
0010
0000
1000
0100
0010
0001
,
0010
0100
1000
0001
1000
0000
0000
0000
0000
0000
0000
0000
0000
0000
0000
0000
,
0110
0000
0100
0000
1000
0010
0001
0000
0011
0000
0010
0000
1000
0100
0010
0000
,
0011
0000
0100
0000
1000
0001
0100
0000
1010
0000
1000
0000
0010
0100
0010
0000
,
0001
0000
1000
0001
1000
0000
0100
0010
0100
0000
0001
1000
0001
0000
0010
0100
,
0010
0000
1000
0000
0001
1000
0001
0000
0100
0000
1000
0000
0010
0100
0010
0100
,
0001
0000
1000
0000
0100
0010
0001
0000
0100
0000
1000
0000
0001
0010
0100
0000
,
0001
0000
0010
0000
0100
0001
0100
0000
1000
0000
0010
0000
0001
0010
0200
0001
,
0320
0000
0230
1000
0320
0000
0032
1000
0203
0000
0302
0010
0203
0000
0310
0001
,
2000
0000
3010
0000
0100
0010
0100
0000
0001
0000
1000
0000
0100
0010
0100
0010
,
0001
0010
1100
0010
0001
0010
1100
0010
,
1000
0010
0101
0010
1000
0010
0101
0010
,
1000
0000
0100
0000
0001
0100
0010
0100
1000
0000
0001
0000
1000
0010
0100
0010
,
0001
0000
1000
0000
0100
0001
1000
0001
0010
0000
0100
0000
0010
0001
1000
0001
,
0100
0000
0010
0000
1000
0100
1000
0000
0001
0000
1000
0000
0001
0100
0001
0000
,
1000
0000
0001
0000
0100
0010
0100
0000
1000
0000
0100
0000
0001
0010
0100
0010
,
0001
0000
0010
0100
0000
0100
1000
0000
0001
0100
0010
0100
0001
0010
0100
1000
,
0010
0000
1000
0010
0000
0010
0100
0010
0000
0010
1000
0001
0100
0001
0010
0100
,
1000
0000
0001
0100
0000
0100
0010
0000
1000
0100
0010
0001
1000
0001
0100
1000
,
0001
0000
0010
1000
0000
1000
0100
0000
0001
0000
0100
1000
0100
0010
1000
0010
,
0100
1000
0010
0100
1000
0100
0001
0010
0100
0001
0100
0010
0001
0100
0010
0001
,
0010
0100
1000
0100
0010
0100
1000
0001
0010
0100
0010
0001
0010
0100
1000
0100
,
0002
0000
0000
0000
,
0000
0000
0000
0000
0013
1100
0101
1001
,
0001
0010
0100
1000
0010
0000
0100
0010
0000
0100
0001
1000
0001
0010
0100
0000
,
1000
0100
0010
0001
0100
0000
0010
0100
0000
0010
1000
0100
1000
0000
1001
0000
,
0001
0100
0010
1000
0100
0000
0010
0100
0000
1000
0001
0100
0010
0100
0001
0000
,
0010
0100
1000
0000
0001
0010
0000
0100
0000
0010
0001
0100
0010
0001
0010
0100
,
0001
0010
0100
1000
0001
0000
0100
0001
0000
1000
0010
0100
0010
1000
0001
0000
,
1000
0100
0010
0001
1000
0000
0001
0100
0000
0010
1000
0001
0010
0000
0110
0000
,
0100
1000
0001
0100
0010
0000
0010
1000
0000
0001
0010
0100
0010
1000
0001
0000
,
0100
1000
0010
0000
0100
0001
0000
1000
0000
0100
1000
0001
0100
0010
0100
0010
,
1000
0010
0000
0001
0010
0000
1000
0100
0000
0001
0100
1000
0010
0000
0220
0000
,
0000
0000
0330
0000
;
