#TITLE:クモヒトデのうまる砂の上で;
#SUBTITLE:;
#ARTIST:海茶と琴葉茜・葵;
#TITLETRANSLIT:Kumohitode no Umaru Suna no Ue de;
#SUBTITLETRANSLIT:;
#ARTISTTRANSLIT:Umicha & Kotonoha Akane&Aoi;
#GENRE:POP;
#CREDIT:;
#MUSIC:Kumohitode no Umaru Suna no Ue de.ogg;
#BANNER:Kumohitode no Umaru Suna no Ue de.png;
#BACKGROUND:Kumohitode no Umaru Suna no Ue de-bg.png;
#CDTITLE:;
#SAMPLESTART:71.273;
#SAMPLELENGTH:13.333;
#SELECTABLE:YES;
#OFFSET:1.644;
#BPMS:0.000=144.000;
#STOPS:;
#LASTBEATHINT:1.527411;
#BGCHANGES:7.750=Kumohitode no Umaru Suna no Ue de.avi=1.000=0=0=0=StretchNoLoop====,
99999.000=-nosongbg-=1.000=0=0=0=StretchNoLoop====
;
#FGCHANGES:;

//--------------- dance-single - ----------------
#NOTES:
     dance-single:
     :
     Easy:
     9:
     0,0,0,0,0:
0000
0000
0000
0000
,
0000
0000
0000
0000
,
0000
0000
0000
0000
,
0000
0000
0000
0100
,
0100
0000
0000
0001
1000
0000
0010
0000
,
0100
0001
1000
0000
0100
0000
0010
0000
,
0010
0001
1000
0000
0010
1000
0001
0000
,
0010
0100
0010
0100
1000
0000
0010
0000
,
0110
0000
0000
1000
0001
0000
0010
0000
,
0100
1000
0100
1000
0002
0000
0203
0000
,
0320
2030
3002
0023
,
0130
0000
1100
0000
0101
0000
0001
1000
,
0001
0000
0010
0000
0100
1000
0001
0000
,
0100
0001
0100
0001
1000
0000
0100
0000
,
0010
0001
1000
0000
0010
1000
0001
0000
,
0010
0100
1000
0001
1000
0000
0010
0000
,
0110
0000
0000
0100
0001
0000
1000
0000
,
0001
0010
0001
0010
0200
0000
2300
0000
,
3002
0203
0320
1030
,
0101
0000
1100
0000
1000
0001
1000
0000
,
0001
1000
0100
1000
0001
0000
0100
0000
,
0010
1000
0001
0010
0100
0000
1000
0000
,
0001
0100
0001
0000
1000
0100
1000
0000
,
0001
0100
0001
1000
0100
0000
0110
0000
,
0010
0001
1000
0010
0100
0000
0010
0000
,
0100
0001
0010
0100
1000
0000
0001
0000
,
1000
0010
1000
0000
0001
0010
0001
0000
,
1000
0010
1000
0001
0020
0100
0130
1000
,
0002
0000
0023
0000
0230
0000
1300
0001
,
0200
0000
0320
0000
2030
0000
3001
0010
,
0200
0000
2300
0000
3002
0000
0103
0010
,
0200
0000
0302
0000
1003
0100
1000
0000
,
0002
0000
2003
0000
3200
0000
0310
0001
,
2000
0000
3001
0100
0002
0000
0013
0100
,
2000
0000
3002
0000
0103
0010
0100
0001
,
1000
0000
0001
0000
0010
0100
1000
0001
,
1000
0010
0100
0001
,
0010
0000
0100
0000
1000
0001
0100
0001
,
1000
0000
0010
0000
0100
0000
0001
0010
,
0100
0000
0000
0100
0000
0000
1000
0000
0002
0000
0000
0000
2003
0000
0000
0000
,
3010
0000
0100
0000
0001
1000
0001
0000
,
1000
0000
0010
0100
0010
0000
0100
0000
,
0002
0000
0100
0000
1000
0000
0103
0010
,
2000
0000
0000
0000
3002
0000
0013
0100
,
1000
0000
0010
0000
0100
0001
1000
0000
,
0001
1000
0100
1000
0001
0000
0010
0000
,
0100
1000
0001
0000
0100
0001
1000
0000
,
0100
1000
0001
0010
0100
0000
1000
0000
,
1001
0000
0000
0001
0100
0001
0010
0100
,
0010
0000
0001
0000
1000
0000
0010
0100
,
0010
0000
0100
0000
0001
1000
0001
0000
,
0011
0000
1100
0000
1001
0000
1000
0010
,
0100
0000
0001
0000
0010
0100
1000
0001
,
1000
0000
0010
0100
0001
0000
0010
0000
,
0100
1000
0001
0000
0100
0010
0100
0000
,
0010
1000
0100
0010
0001
0000
1000
0000
,
0101
0000
0000
0001
1000
0000
1000
0010
,
0110
1001
0110
0001
,
1000
0100
0010
0000
0100
1000
0001
0000
,
0101
0000
1100
0000
0001
1000
0001
0000
,
0001
0010
0100
1000
0001
0000
0100
0000
,
0010
1000
0010
0100
0001
0000
1000
0000
,
0001
0010
0100
0000
1000
0010
0100
0000
,
0010
1000
0001
1000
0100
0000
0110
0000
,
0001
1000
0100
0010
0001
0000
0010
0000
,
0100
1000
0010
0100
0001
0000
1000
0000
,
0001
0100
0010
0000
0100
0001
1000
0000
,
0100
0010
0001
1000
0001
0010
0100
1000
,
0001
0000
0000
0000
;

//--------------- dance-single - ----------------
#NOTES:
     dance-single:
     :
     Medium:
     12:
     0.591111,0.631645,0.185778,0.219556,0.101333,490,468,22,26,0,0,0.591111,0.631645,0.185778,0.219556,0.101333,490,468,22,26,0,0:
0000
0000
0000
0000
,
0000
0000
0000
0000
,
0000
0000
0000
0000
,
0000
0000
0000
0000
0000
0000
0001
0100
,
0001
0000
0000
1000
0010
0100
0010
1000
,
0001
0010
0100
1000
0001
0000
1000
0100
,
1000
0001
0100
0010
0100
0001
1000
0001
,
0010
1000
0001
0100
1000
0000
0001
0000
,
1001
0000
0000
0001
0100
1000
0100
0010
,
0100
0001
1000
0100
0002
0000
0103
1000
,
0010
0100
1000
0100
0010
1000
0001
0010
,
1100
0000
0101
0000
2001
0010
3010
0100
,
0001
0010
1000
0001
0100
0010
0100
1000
,
0001
0100
0010
1000
0001
0000
0001
1000
,
0100
0100
0010
1000
0001
0100
0100
0010
,
0001
1000
0010
0100
0001
0000
1000
0000
,
0110
0000
1000
0010
0100
0010
0100
0001
,
0010
0100
1000
0010
0002
0000
0013
1000
,
0100
0010
0100
1000
0001
1000
0010
0100
,
0101
0000
1100
0000
1002
0010
0013
0000
,
0001
0100
0001
0000
1000
0000
0100
0000
1000
0000
0010
0000
0100
0000
0010
0000
,
1000
0000
0001
0000
0010
0100
0010
0000
0001
0000
1000
0000
0010
0000
0100
0000
,
0001
1000
0001
0000
0010
0000
0100
0000
1000
0000
0001
0000
0010
0000
0100
0000
,
1000
0100
1000
0000
0001
0100
0001
0000
0010
0000
0100
0000
1000
0000
0001
0000
,
0100
0000
0010
1000
0010
0000
0100
0000
0001
0000
0010
0000
0100
0000
1000
0000
,
0100
0000
0010
0000
0100
1000
0100
0000
1000
0000
0001
0000
0100
0000
0010
0000
,
1000
0001
1000
0000
0100
0000
0010
0000
0001
0000
1000
0000
0100
0000
1000
0000
,
0010
0100
0010
0000
1000
0000
0001
0000
0020
0000
0100
0000
0130
0000
1000
0000
,
0002
0000
0023
0000
0230
0000
1300
0010
,
0001
0010
1000
0100
0010
0000
0010
0001
,
2000
0000
3020
0000
0230
0000
0301
0010
,
2000
0000
0000
0000
3020
0000
0000
0000
0031
0000
1000
0000
0010
0000
0010
1000
,
0002
0000
0203
0000
0320
0000
1030
0100
,
0001
0100
1000
0010
0002
0000
0013
0100
,
0010
0000
1000
0100
1000
0001
0100
0001
,
0010
0000
0100
0000
1000
0010
0000
0100
0001
0000
0010
0000
0100
0000
1000
0000
,
0001
0000
0001
0000
1000
0010
0100
0001
,
1000
0000
1000
0000
0001
0010
0100
1000
,
0001
0000
0001
0000
1000
0010
0001
1000
,
0100
0000
0000
0100
0000
0000
0001
0000
2000
0000
0000
0000
3002
0000
0000
0000
,
0023
0000
0100
0130
1000
0000
1100
0000
,
1000
0001
0000
0001
1000
0000
1000
0010
,
0200
0000
0001
0000
0301
0010
0100
1000
,
0002
0000
0000
0000
2000
0003
3010
0100
,
0010
0000
0100
0001
1000
0001
0010
1000
,
0001
1000
0010
0001
1000
0000
0001
1000
,
0100
0100
1000
0100
0001
0100
0100
0001
,
1000
0001
0100
1000
0001
0000
0011
0000
,
1100
0000
1000
0010
0100
0001
0010
0100
,
0010
0001
1000
0010
0200
0000
1300
0100
,
0001
0010
0100
0001
0100
1000
0010
0001
,
0011
0000
1010
0000
1001
0000
0001
0010
,
0100
0000
1000
0010
0001
1000
0001
0010
,
1000
0001
0010
0100
1000
0000
1000
0001
,
0100
0100
0001
0100
1000
0100
0100
1000
,
0001
1000
0100
0001
1000
0000
0100
0010
,
0120
0000
0000
0031
1000
0100
1000
0001
,
1001
0000
0110
0000
1001
0000
0001
0100
,
1000
0100
0010
1000
0100
0001
0100
1000
,
1100
0001
0101
1000
2001
0010
3010
0100
,
0001
0010
0100
0000
0010
0000
0001
0000
1000
0000
0010
0000
0001
0000
0010
0000
,
1000
0000
0001
0000
0010
0001
1000
0000
0100
0000
0010
0000
0001
0000
1000
0000
,
0010
0100
0001
0000
0010
0000
1000
0000
0010
0000
0001
0000
1000
0000
0010
0000
,
0100
0001
0010
0000
0100
1000
0010
0000
0100
0000
0001
0000
1000
0100
1000
0100
,
1000
0001
0010
0000
0100
0000
1000
0000
0010
0000
0001
0000
1000
0000
0100
0000
,
0001
0000
0010
0000
0100
1000
0001
0000
0100
0000
1000
0000
0100
0000
0010
0000
,
0100
0001
1000
0000
0100
0000
0001
0000
0100
0000
1000
0000
0001
0000
0100
0000
,
0010
1000
0001
0000
0010
0000
0100
0000
0010
0000
0001
0000
1000
0000
0010
0000
,
0110
0000
0000
0000
;

//--------------- dance-single - ----------------
#NOTES:
     dance-single:
     :
     Hard:
     15:
     0,0,0,0,0:
0000
0000
0000
0000
,
0000
0000
0000
0000
,
0000
0000
0000
0000
,
0000
0000
0000
0000
0000
0000
1000
0001
,
0200
0000
0310
1000
0001
1000
0100
0001
,
0100
0010
0001
0100
2000
0000
3100
0010
,
0100
0001
1000
0001
0010
1000
0010
0001
,
1000
0100
0010
0001
2000
0000
3010
0000
,
0110
0000
0000
0100
0001
1000
0100
0010
,
0100
1000
0010
0001
2000
0000
3001
0010
,
1000
0001
0010
1000
0010
0001
1000
0100
,
0001
0000
1000
0000
0010
0000
0001
0000
2000
0000
0001
0000
3001
0000
0100
0010
,
2000
0000
0000
0000
3001
0000
0100
0000
0001
0000
0010
0100
1000
0000
1000
0000
,
0010
0100
0100
0001
1001
0000
0001
1000
,
0010
0000
1000
0001
0100
0000
0010
0000
1000
0000
0001
1000
0100
0000
0010
0000
,
0001
0000
1000
0000
0010
0000
0100
0000
0110
0000
1000
0000
0001
0010
0001
0010
,
0200
0000
1300
0001
0010
0100
0010
0001
,
0100
1000
0100
0001
1001
0000
1000
0001
,
0101
0100
0001
1000
1100
0100
0010
0001
,
1000
0000
0001
0000
1000
0100
0000
1000
0002
0000
0100
0000
0103
0000
0010
1000
,
0001
0010
0100
0000
1000
0000
0001
0000
1000
0010
0100
0001
1000
0000
0100
0010
,
0100
0000
1000
0000
0001
1000
0001
0000
1000
0100
0010
0001
1000
0100
0010
0000
,
0001
0100
0010
0000
0100
0000
0001
1000
0001
0000
0010
0100
0010
0000
0001
0000
,
1000
0100
0010
0100
1000
0001
0010
0100
1000
0000
0010
0000
0100
0000
0010
1000
,
0001
0100
0010
0000
0100
0000
0001
0010
0100
0000
1000
0010
0100
0000
0010
0000
,
1000
0001
0010
0100
0010
0001
1000
0100
0010
0000
0001
1000
0001
0000
1000
0000
,
0010
0100
0010
0000
1000
0001
1000
0000
0001
0010
0100
0000
1000
0010
0100
0000
,
0001
0100
0010
0000
1000
0001
0000
0001
2000
0000
0001
0000
0001
0000
3001
0010
,
0100
0000
1000
0000
0100
0000
0001
0000
0100
0000
1000
0010
1000
0000
0001
0000
,
0100
1000
0100
0001
1000
0000
0001
0100
,
1000
0000
0100
0000
0001
0000
0010
0000
0100
0000
1000
0001
1000
0000
0010
0000
,
0101
0000
0000
0000
1100
0000
0000
0000
1002
0000
0100
0000
0103
0000
0010
1000
,
0001
0010
1000
0010
0001
0000
1000
0010
,
0100
0000
1000
0100
0010
0000
0100
0001
1000
0000
0000
0000
0001
0000
1000
0000
,
1100
0000
0100
1000
0001
0000
0100
0000
1000
0000
0100
0010
0100
0000
0001
0000
,
0010
0000
0000
0000
0000
0000
0100
0000
0000
0000
0000
0000
1000
0000
0000
0001
0000
0000
0000
0000
0000
0001
0000
0000
0100
0000
0000
0000
0000
0000
0010
0000
0000
0000
0000
0000
1000
0000
0000
0000
0001
0000
0000
0000
1000
0000
0000
0000
,
0001
0000
0010
0100
1000
0000
0001
0000
1000
0000
0100
0000
0010
0000
0001
1000
,
0200
0000
0310
0001
0100
0010
1000
0010
,
0100
0000
0001
0010
0000
0000
0100
0000
1000
0000
0001
0100
0001
0000
1000
0000
,
1100
0000
0000
0000
0000
0000
0000
0000
0000
1001
0000
0000
0000
0000
0000
0000
0000
0000
0101
0000
0000
0000
0000
0000
1000
0000
0000
0000
0100
0000
0000
0000
1000
0000
0000
0000
0001
0000
0000
0000
0100
0000
0000
0000
0001
0000
0000
0000
,
0010
0000
0100
1000
0000
0001
0100
0000
0010
0000
0100
0000
0001
0000
0000
0000
,
1000
0000
0100
0000
0000
0000
0100
0000
1000
0000
0010
0100
0001
0000
1000
0000
,
1100
0000
0000
0101
0000
0000
1001
0000
0001
0000
0010
0000
0100
0000
1000
0000
,
0002
0000
0000
0000
0000
0000
0000
0000
2003
0000
0010
0000
3010
0000
0100
0001
,
0010
0000
1000
0000
0010
0000
0001
0000
1000
0000
0010
0100
1000
0000
0100
0000
,
0001
0000
0010
0100
1000
0000
0001
0010
0200
0000
0000
0000
1300
0000
0001
0000
,
0100
0000
0010
0100
1000
0000
0100
0000
0001
0000
0010
0100
0001
0000
0100
0000
,
1000
0000
0001
0100
0001
0000
1000
0100
1000
0000
0100
0000
0010
0000
0100
1000
,
0010
0000
0000
0100
0001
0000
0010
0000
0100
0000
0000
1000
0001
0000
0100
0000
,
0010
0000
1000
0001
0010
0000
0100
1000
0002
0000
0000
0000
0103
0000
0001
0000
,
0101
1000
0100
1000
1100
0001
1000
0001
,
0110
0000
1000
0000
0001
0010
0000
0001
1000
0000
0001
0000
1000
0000
0001
0010
,
0100
0010
0001
1000
0010
0001
1000
0100
,
0001
0000
0010
0100
0001
0000
0100
1000
0002
0000
0100
0000
0103
0000
0010
0000
,
1000
0000
0100
0010
1000
0000
0010
0000
0001
0000
0100
0010
0001
0000
1000
0000
,
0100
0000
0001
0010
0100
0000
1000
0010
0100
0000
0001
0000
1000
0100
1000
0100
,
0020
0000
0031
1000
0001
0101
1000
0100
,
1100
0000
0101
0000
1001
0010
0100
0010
,
1001
1000
0001
1000
0110
0001
1000
0001
,
1001
0000
0100
0000
0010
0000
0100
0000
2001
0000
0001
0000
3001
0000
0010
0100
,
1000
0010
0100
0000
1000
0000
0100
0000
0010
1000
0100
0010
0001
0000
0010
0100
,
1000
0000
0001
0000
0100
0010
0100
0000
0001
0010
0100
1000
0100
0010
0001
0000
,
1000
0100
0010
0000
1000
0000
0010
0100
1000
0000
0001
0100
0010
0000
0100
0000
,
0010
1000
0100
0010
0100
1000
0001
0100
0010
0000
0100
0000
0100
0000
0010
1000
,
0100
0010
0001
0000
1000
0000
0010
0100
0010
0000
0100
0001
1000
0000
0100
0000
,
0010
0001
0010
0100
1000
0010
0100
0001
0010
0000
0100
1000
0001
0000
0100
0000
,
1000
0100
0010
0000
0100
0001
1000
0000
0100
1000
0010
0000
0100
0001
0010
0000
,
0001
0010
1000
0000
0010
0001
0000
0001
2000
0000
0010
0000
3010
0000
0100
0000
,
0110
0000
0000
0000
;

//--------------- dance-single - ----------------
#NOTES:
     dance-single:
     :
     Challenge:
     17:
     0.943366,1.119734,0.092889,0.228,1.211778,782,771,11,27,0,0,0.943366,1.119734,0.092889,0.228,1.211778,782,771,11,27,0,0:
0000
0000
0000
0000
,
0000
0000
0000
0000
,
0000
0000
0000
0000
,
0000
0000
0000
0000
,
0001
1000
0001
1000
0100
0000
0010
0001
,
1000
0000
0000
0010
0000
0000
0001
0000
0000
0010
0000
0000
1000
0000
0000
0001
0000
0000
1000
0100
1000
0100
1000
0100
,
1000
0000
0100
0000
1000
0000
0001
0000
0000
0010
0000
0000
0100
0000
0000
0000
0000
0000
1000
0000
0000
0000
0000
0000
0001
0000
0000
0000
0000
0000
1000
0000
0000
0000
0000
0000
0010
0000
0000
0000
0000
0000
0100
0000
0000
0000
0000
0000
,
0010
0000
1000
0000
0001
0000
0010
0000
0100
0000
0000
0000
1000
0001
0100
0001
,
1000
0000
0000
1000
0100
0000
0010
0000
0100
0000
1000
0001
0100
0000
0010
0000
,
0200
0000
0001
0000
0302
0000
0010
0100
2003
0000
0010
0100
3002
0000
1000
0000
,
2003
0000
0010
0100
3020
0000
1000
0000
2030
0000
0100
0010
3200
0000
0010
0000
,
0301
0000
1000
0000
0001
0010
0000
0001
2000
0000
0010
0000
3010
0100
0001
0100
,
0001
0000
0010
0001
1000
0000
0010
0000
0100
0000
0000
0100
0001
0000
0010
0000
,
0100
0000
0000
0000
0000
0000
1000
0000
0000
0010
0000
0000
0100
0000
0000
0000
0000
0000
0010
0000
0000
0000
0000
0000
1000
0000
0000
0000
0000
0000
0100
0000
0000
1000
0000
0000
0001
0000
0100
0000
0001
0000
0100
0000
0001
0000
0100
0000
,
0001
0000
0100
0000
0001
0000
1000
0000
0000
0100
0000
0000
0010
0000
0000
0000
0000
0000
0100
0000
0000
0000
0000
0000
1000
0000
0000
0000
0000
0000
0000
0000
0000
0010
0000
0000
0100
0000
0000
0000
0000
0000
0001
0000
0000
0000
0000
0000
,
0010
0000
1000
0000
0010
0000
0001
0000
0100
0000
0010
1000
0010
1000
0001
0010
,
0100
0000
0010
0001
1000
0000
0010
0000
0100
0000
0000
0100
0001
0000
1000
0000
,
0200
0000
0010
0001
2300
0000
0010
0100
3002
0000
0010
0100
0023
0000
0001
0000
,
0230
1000
0010
1000
0320
0001
0100
0001
,
0130
0000
1000
0010
0100
0010
0000
0010
1000
0000
0001
0000
0010
0000
0100
0010
,
0001
0000
1000
0100
1000
0000
0001
0000
0100
0000
0001
0000
0100
0000
0010
0000
1000
0000
0100
0000
0010
0000
0001
0000
1000
0000
0001
0000
0010
0000
0100
0000
,
1000
0000
0001
0000
0100
0000
0001
0000
1000
0100
1000
0000
0010
0000
0100
0000
0001
0000
0010
0000
0001
0000
1000
0000
0100
0000
0010
0000
0001
0000
0100
0000
,
0001
0000
1000
0010
1000
0000
0100
0000
0010
0000
0100
0000
1000
0000
0100
0000
1000
0000
0001
0000
0100
0000
0010
0000
1000
0000
0001
0000
1000
0000
0010
0000
,
0100
0000
0001
1000
0001
0000
0010
0000
0001
1000
0001
0000
0010
0000
0100
0000
1000
0000
0010
0000
0100
0000
0001
0000
1000
0000
0010
0000
0100
0001
0100
0000
,
0010
1000
0010
0000
0100
0000
0001
0000
0010
0000
0100
0000
0010
0000
0001
0000
0010
0000
0100
0000
1000
0000
0010
0000
0100
0000
0010
0000
1000
0000
0010
0000
,
0100
0000
0001
0000
0010
0000
0100
0000
1000
0001
1000
0000
0010
0000
0100
0000
0001
0000
0010
0000
0001
0000
0100
0000
0001
0000
1000
0000
0100
0000
0010
0000
,
0001
0000
0100
0001
0100
0000
0010
0000
1000
0000
0001
0000
0010
0000
0100
0000
0010
0000
0001
0000
1000
0000
0010
0000
0100
0000
0001
0000
0010
0000
0100
0000
,
1000
0000
0001
0100
0001
0000
1000
0000
0100
0000
0010
0000
0001
0000
0010
0000
0100
0000
1000
0000
0001
0000
0010
0000
0100
0000
1000
0000
0001
0000
0010
0000
,
0100
0000
1000
0000
0010
0000
0001
0000
0010
0000
0100
0001
1000
0000
0100
0000
,
0001
0000
0100
0000
0010
0000
0100
0000
1000
0000
0001
0100
0010
0000
1000
0000
,
0010
0000
0100
0000
1000
0000
0100
0000
0001
0000
0010
0100
1000
0000
0010
0000
,
0100
0000
0001
0000
1000
0000
0100
0010
0100
0000
1000
0010
0100
0010
1000
0001
,
0100
0000
0010
0100
1000
0000
0100
0000
0001
0000
0010
0100
0001
0000
0100
0000
,
1000
0000
0001
0100
1000
0000
0100
0010
1000
0000
0001
0010
1000
0000
0010
0000
,
0001
0000
0100
0010
0100
0000
1000
0000
0001
0000
0010
0100
0010
0000
1000
0000
,
0001
0000
0000
0000
0000
0000
0010
0000
0000
0000
0000
0000
0100
0000
0000
1000
0000
0000
0000
0000
0000
0001
0000
0000
1000
0000
0000
0000
0000
0000
0010
0000
0000
0000
0000
0000
0100
0000
0000
0000
0100
0000
0000
0000
0100
0000
0000
0000
,
0010
0000
0100
0001
0010
0000
0100
0000
0010
0000
0100
0000
0010
0000
0100
1000
,
0010
0000
0000
0100
0000
0000
0001
0010
0100
2000
0000
0000
3020
0000
0000
0230
0000
0000
0302
0000
0000
0023
0000
0000
,
0230
0000
1300
0001
0000
0000
0101
0000
0001
0000
0010
0100
1000
0000
0001
0000
,
1000
0000
0000
0000
0000
0000
0001
0000
0000
0100
0000
0000
0000
0000
0000
0100
0000
0000
0010
0000
0000
0000
0000
0000
1000
0000
0000
0000
0010
0000
0000
0000
0100
0000
0000
0000
0001
0000
0000
0000
0010
0000
0000
0000
0100
0000
0000
0000
,
1000
0000
0001
0100
0000
0001
0100
0000
0010
1000
0100
0000
0001
0000
0100
0000
,
1000
0000
0000
0000
0000
0000
0010
0000
0000
1000
0000
0000
0000
0000
0000
0010
0000
0000
1000
0000
0000
0000
0000
0000
0100
0000
0000
1000
0000
0000
0010
0000
0100
0000
0001
0000
1000
0000
0000
0000
0000
0000
0100
0000
0000
0000
0000
0000
,
0010
0000
0100
1000
0000
0000
1001
0000
0001
0010
0100
0000
1000
0000
0001
0000
,
0020
0000
0000
0000
0000
0000
0000
0000
0230
0000
1000
0000
1300
0010
0100
0001
,
1000
0000
1000
0100
0000
0100
0001
0000
1000
0000
0001
0100
0000
0100
1000
0000
,
0001
0000
0000
0000
0000
0000
1000
0000
0000
0010
0000
0000
0100
0000
0000
0000
0000
0000
0001
0000
0000
0010
0000
0000
0100
0000
0000
0000
0000
0000
1000
0000
0000
0001
0000
0000
0100
0000
0010
0000
0100
0000
0010
0000
0100
0000
0010
0000
,
0100
0000
0010
0000
0100
0000
0001
0000
0000
0010
0000
0000
1000
0000
0000
0000
0000
0000
0010
0000
0000
0000
0000
0000
0001
0000
0000
0000
0000
0000
1000
0000
0000
0010
0000
0000
0001
0000
0000
0000
0000
0000
0010
0000
0000
0000
0000
0000
,
1000
0000
0001
0010
0100
0000
0100
0010
0001
0000
0001
0010
0100
1000
0100
1000
,
0001
0000
0001
0100
0000
0100
1000
0000
0001
0000
1000
0100
0000
0100
0001
0000
,
1000
0000
0000
0000
0000
0000
0001
0000
0000
0010
0000
0000
0100
0000
0000
0000
0000
0000
1000
0000
0000
0010
0000
0000
0100
0000
0000
0000
0000
0000
0001
0000
0010
0000
0100
0000
1000
0000
0000
0000
0000
0000
0001
0000
0000
0000
0000
0000
,
0200
0010
1000
0010
0302
0010
2003
0010
,
3002
0000
0100
0000
1003
0010
0000
0010
0100
0000
0001
0000
1000
0100
1000
0100
,
0010
0001
0101
1000
0001
1000
1100
1000
,
0101
0000
0000
0000
0000
0000
0010
0000
0000
0000
0000
0000
1100
0000
0000
0000
0000
0000
0001
0000
0000
0000
0000
0000
1001
0000
0000
0000
0000
0000
1000
0000
0000
0001
0000
0000
0100
0000
0010
0000
0100
0000
0010
0000
0100
0000
0010
0000
,
0100
0000
0010
0000
0100
0000
0001
0000
0000
0010
0000
0000
1000
0000
0000
0000
0000
0000
0010
0000
0000
0000
0000
0000
0001
0000
0000
0000
0000
0000
1000
0000
0000
0010
0000
0000
0001
0000
0000
0000
0000
0000
0010
0000
0000
0000
0000
0000
,
1000
0000
0001
0010
0100
0000
1000
0010
0100
0000
0001
0010
0100
1000
0001
0010
,
1000
0000
0010
0000
0100
0000
1000
0001
0100
0000
0110
0000
0010
0000
1000
0000
,
1001
0000
0000
0000
0000
0000
0001
0000
0000
0000
0000
0000
0010
0000
0000
0000
0000
0000
0100
0000
0000
0000
0000
0000
1100
0000
0000
0000
0000
0000
1000
0000
0100
0000
0010
0000
0001
0000
0000
0100
0000
0000
0010
0000
0000
0100
0000
0000
,
0110
0000
0000
0000
1001
0000
0001
0010
,
0100
0000
1000
0000
0010
0000
0100
0001
1000
0000
0010
0000
0010
0000
0010
1000
,
0001
0000
0010
0100
1000
0000
0010
0000
0100
0000
0001
0000
1000
0000
0100
0000
0001
0000
0100
0000
1000
0000
0010
0000
0001
0000
0010
0000
1000
0000
0010
0000
,
0100
0000
0001
0000
0010
0000
0100
0000
1000
0001
0100
0000
0010
0000
0100
0000
0001
0000
0010
0000
1000
0000
0010
0000
0001
0000
0100
0000
1000
0000
0100
0000
,
0010
0000
1000
0001
0010
0000
0100
0000
1000
0000
0010
0000
1000
0000
0010
0000
0001
0000
0010
0000
1000
0000
0100
0000
0001
0000
0100
0000
1000
0000
0010
0000
,
0100
0000
0001
0010
0100
0000
1000
0000
0001
0010
0100
0000
1000
0000
0001
0000
1000
0000
0010
0000
0100
0000
0010
0000
1000
0100
1000
0000
0001
0100
0001
0000
,
1000
0100
1000
0000
0001
0000
0100
0000
0010
0000
0100
0000
0001
0000
0010
0000
1000
0000
0010
0000
0001
0000
0100
0000
1000
0000
0100
0000
0010
0000
1000
0000
,
0100
0000
0010
0000
0001
0000
1000
0000
0001
0010
0100
0000
1000
0000
0010
0000
0100
0000
0001
0000
0010
0000
0100
0000
1000
0000
0010
0000
0100
0000
0001
0000
,
1000
0000
0010
0100
0001
0000
0010
0000
1000
0000
0010
0000
0001
0000
1000
0000
0010
0000
0100
0000
0010
0000
0001
0000
0010
0000
0100
0000
1000
0000
0100
0000
,
0010
0000
1000
0001
0010
0000
0100
0000
1000
0000
0001
0000
0100
0000
1000
0000
0001
0000
0010
0000
1000
0000
0100
0000
0010
0000
0001
0000
1000
0000
0100
0000
,
0110
0000
0000
0000
;
