#TITLE:Kruel Kreator;
#SUBTITLE:;
#ARTIST:トップハムハット狂 (TOPHAMHAT-KYO);
#TITLETRANSLIT:Kruel Kreator;
#SUBTITLETRANSLIT:;
#ARTISTTRANSLIT:TOPHAMHAT-KYO;
#GENRE:POP;
#CREDIT:;
#MUSIC:Kruel Kreator.ogg;
#BANNER:Kruel Kreator.png;
#BACKGROUND:Kruel Kreator-bg.png;
#CDTITLE:;
#SAMPLESTART:13.964;
#SAMPLELENGTH:12.387;
#SELECTABLE:YES;
#OFFSET:1.520;
#BPMS:0.000=155.000
,36.000=310.000
,39.000=155.000
,40.000=77.500
,40.500=155.000
,46.500=77.500
,47.000=155.000
,53.500=77.500
,54.000=155.000
,54.500=310.000
,54.833=155.000
,55.500=310.000
,55.833=155.000
,56.500=310.000
,56.833=155.000
,57.500=310.000
,57.833=155.000
,58.500=310.000
,58.833=155.000
,59.500=310.000
,59.833=155.000
,70.500=310.000
,71.500=155.000
,72.500=310.000
,73.500=155.000
,75.500=310.000
,76.500=155.000
,77.500=310.000
,78.500=155.000
,79.500=310.000
,80.500=155.000
,81.500=310.000
,82.500=155.000
,83.500=310.000
,84.500=155.000
,92.000=77.500
,93.000=155.000
,95.000=77.500
,96.000=155.000
,103.000=310.000
,105.000=155.000
,137.000=77.500
,139.000=155.000
,141.000=77.500
,141.500=155.000
,142.500=77.500
,143.000=155.000
,144.000=77.500
,144.500=155.000
,147.500=77.500
,148.000=155.000
,155.000=77.500
,155.500=155.000
,156.500=77.500
,157.000=155.000
,158.000=77.500
,158.500=155.000
,194.500=77.500
,195.000=310.000
,197.000=77.500
,198.000=155.000
,213.000=310.000
,215.000=155.000
,229.500=77.500
,230.000=155.000
,232.000=310.000
,233.000=155.000
,236.000=310.000
,237.000=155.000
,240.000=310.000
,241.000=155.000
,244.000=310.000
,245.000=155.000
,262.000=77.500
,264.000=155.000
,271.000=77.500
,271.500=155.000
,278.500=77.500
,279.000=155.000
,327.000=77.500
;
#STOPS:39.000=0.194
,47.000=0.194
,54.000=0.194
,54.500=0.065
,55.500=0.065
,56.500=0.065
,57.500=0.065
,58.500=0.065
,59.500=0.065
,195.000=0.065
,195.333=0.065
,195.667=0.065
,196.000=0.065
,196.333=0.065
,196.667=0.065
,222.000=0.194
,232.000=0.097
,232.500=0.097
,236.000=0.097
,236.500=0.097
,240.000=0.097
,240.500=0.097
,244.000=0.097
,244.500=0.097
;
#LASTBEATHINT:1.343333;
#BGCHANGES:6.500=Kruel Kreator.avi=1.000=0=0=0=StretchNoLoop====,
99999.000=-nosongbg-=1.000=0=0=0=StretchNoLoop====
;
#FGCHANGES:;

//--------------- dance-single - ----------------
#NOTES:
     dance-single:
     :
     Medium:
     11:
     0,0,0,0,0:
0000
0000
0000
0000
,
0000
0000
0000
0000
,
0000
0000
0000
0000
,
0000
0000
0000
0000
,
0000
0000
0000
0000
,
0000
0000
0000
0000
,
0001
0000
1000
0100
2000
0000
3001
0000
,
1000
0000
0001
0100
0002
0000
0013
0100
,
0010
0000
0000
0000
0000
0000
0001
0000
1000
0000
0000
0010
0000
0000
0100
0000
,
0102
0000
0000
0000
0000
0000
0000
1000
,
1003
0010
0000
0100
0001
1000
0000
0100
,
0000
0100
0000
1000
0001
0200
0310
1000
,
0000
0001
1000
0010
0000
0100
0000
0100
,
0000
0001
1000
0020
0130
1010
0000
1010
,
0000
1100
0000
1100
0000
0011
0000
0011
,
0000
0001
0010
0200
0000
1300
0001
0100
,
0010
1000
0000
0001
1000
0001
0000
0010
,
0000
0100
0000
1000
0100
2000
0000
3001
,
0100
0002
0000
1003
0100
1000
0001
2000
,
0000
3001
0100
0002
0000
1003
0100
2000
,
0000
3001
0100
0002
0000
1003
0100
2000
,
0000
3001
0100
0000
0010
1000
0100
0000
,
0010
0001
0100
0000
0010
0000
1000
0010
,
2000
3002
0013
0000
0100
1000
0002
2003
,
3010
0100
0001
1000
,
0100
0000
0010
0000
0001
1000
0200
0000
,
0000
0310
0110
0001
,
1001
1000
0001
1001
,
0001
0100
0020
0000
2030
0000
3002
0000
,
0023
0000
0130
1000
0001
1000
0020
0000
,
0130
0000
0100
0010
0010
0000
0010
0100
,
0100
0000
0100
0001
1000
0001
1000
0000
,
0001
1100
1001
0101
,
1001
0000
0001
0100
0010
1000
0001
0010
,
0100
1000
0002
0023
0230
2300
3001
0000
,
1000
0000
2100
3010
0000
0102
0013
0000
,
2100
3010
0000
1000
0000
0001
0000
0102
,
0013
0011
1100
1010
,
0101
0000
0001
0000
1000
0000
2100
3010
,
0000
0102
0013
0000
2100
3010
0000
0110
,
0000
0001
1000
0000
0100
0010
0000
0001
,
0000
1000
0010
0000
0100
0000
0001
1000
,
0000
1000
0100
0001
0000
0100
0000
1000
,
0000
0001
0100
2000
0000
3100
0000
0001
,
0000
0001
0010
1000
0000
0010
0000
0001
,
0000
1000
0010
0002
0000
0013
0000
1000
,
0000
0100
0010
0001
0000
1000
0000
0001
,
0000
0100
0010
1000
0000
1100
0000
1010
,
0000
0101
0000
0011
0000
1001
0002
0000
,
2003
0000
3020
0100
0130
0000
0101
0000
,
1010
0000
0010
1000
0100
0000
0100
1000
,
0001
1000
1100
0110
,
0011
0000
0001
0000
1000
0010
0100
0001
,
0010
0100
2000
0000
0000
0000
3001
0000
,
0011
0000
0000
0000
1000
0000
0000
0000
1010
0000
0000
0000
0010
0000
0000
1000
,
0000
0000
0001
0000
0000
1000
0000
0000
0002
0000
0103
0000
0000
0000
0101
0000
,
0000
0000
1000
0000
0000
0000
1100
0000
0000
0000
1000
0000
0000
0010
0000
0000
,
0100
0000
0000
0010
0000
0000
2000
0000
3001
0000
0000
0000
1000
0000
0000
0000
,
0002
0003
0000
0000
0000
0000
0000
0000
0000
0000
0000
0000
0000
0000
0000
0000
0000
0000
0000
0000
0000
0000
0000
0000
2000
3000
0000
0000
0000
0000
0000
0000
0000
0000
0000
0000
0000
0000
0000
0000
0000
0000
0000
0000
0000
0000
0000
0000
0002
0003
0000
0000
0000
0000
0000
0000
0000
0000
0000
0000
0000
0000
0000
0000
0000
0000
0000
0000
0000
0000
0000
0000
0000
0000
0000
0000
0000
0000
0000
0000
0000
0000
0000
0000
0000
0000
0000
0000
0000
0000
0000
0000
0000
0000
0000
0000
0010
0000
0000
0000
0000
0000
0000
0000
0000
0000
0000
0000
0000
0000
0000
0000
0000
0000
0000
0000
0000
0000
0000
0000
0000
0000
0000
0000
0000
0000
0000
0000
0000
0000
0000
0000
0000
0000
0000
0000
0000
0000
0000
0000
0000
0000
0000
0000
0100
0000
0000
0000
0000
0000
0000
0000
0000
0000
0000
0000
0000
0000
0000
0000
0000
0000
0000
0000
0000
0000
0000
0000
0000
0000
0000
0000
0000
0000
0000
0000
0000
0000
0000
0000
0000
0000
0000
0000
0000
0000
0000
0000
0000
0000
0000
0000
,
0020
0030
0000
0000
0000
0000
0000
0000
0000
0000
0000
0000
0000
0000
0000
0000
0000
0000
0000
0000
0000
0000
0000
0000
0200
0300
0000
0000
0000
0000
0000
0000
0000
0000
0000
0000
0000
0000
0000
0000
0000
0000
0000
0000
0000
0000
0000
0000
0020
0030
0000
0000
0000
0000
0000
0000
0000
0000
0000
0000
0000
0000
0000
0000
0000
0000
0000
0000
0000
0000
0000
0000
0000
0000
0000
0000
0000
0000
0000
0000
0000
0000
0000
0000
0000
0000
0000
0000
0000
0000
0000
0000
0000
0000
0000
0000
0001
0000
0000
0000
0000
0000
0000
0000
0000
0000
0000
0000
0000
0000
0000
0000
0000
0000
0000
0000
0000
0000
0000
0000
0000
0000
0000
0000
0000
0000
0000
0000
0000
0000
0000
0000
0000
0000
0000
0000
0000
0000
0000
0000
0000
0000
0000
0000
1000
0000
0000
0000
0000
0000
0000
0000
0000
0000
0000
0000
0000
0000
0000
0000
0000
0000
0000
0000
0000
0000
0000
0000
0000
0000
0000
0000
0000
0000
0000
0000
0000
0000
0000
0000
0000
0000
0000
0000
0000
0000
0000
0000
0000
0000
0000
0000
,
0002
0003
0000
0000
0000
0000
0000
0000
0000
0000
0000
0000
0000
0000
0000
0000
0000
0000
0000
0000
0000
0000
0000
0000
2000
3000
0000
0000
0000
0000
0000
0000
0000
0000
0000
0000
0000
0000
0000
0000
0000
0000
0000
0000
0000
0000
0000
0000
0002
0003
0000
0000
0000
0000
0000
0000
0000
0000
0000
0000
0000
0000
0000
0000
0000
0000
0000
0000
0000
0000
0000
0000
0000
0000
0000
0000
0000
0000
0000
0000
0000
0000
0000
0000
0000
0000
0000
0000
0000
0000
0000
0000
0000
0000
0000
0000
0100
0000
0000
0000
0000
0000
0000
0000
0000
0000
0000
0000
0000
0000
0000
0000
0000
0000
0000
0000
0000
0000
0000
0000
0000
0000
0000
0000
0000
0000
0000
0000
0000
0000
0000
0000
0000
0000
0000
0000
0000
0000
0000
0000
0000
0000
0000
0000
0010
0000
0000
0000
0000
0000
0000
0000
0000
0000
0000
0000
0000
0000
0000
0000
0000
0000
0000
0000
0000
0000
0000
0000
0000
0000
0000
0000
0000
0000
0000
0000
0000
0000
0000
0000
0000
0000
0000
0000
0000
0000
0000
0000
0000
0000
0000
0000
,
0200
0300
0000
0000
0000
0000
0000
0000
0000
0000
0000
0000
0000
0000
0000
0000
0000
0000
0000
0000
0000
0000
0000
0000
0020
0030
0000
0000
0000
0000
0000
0000
0000
0000
0000
0000
0000
0000
0000
0000
0000
0000
0000
0000
0000
0000
0000
0000
0200
0300
0000
0000
0000
0000
0000
0000
0000
0000
0000
0000
0000
0000
0000
0000
0000
0000
0000
0000
0000
0000
0000
0000
0000
0000
0000
0000
0000
0000
0000
0000
0000
0000
0000
0000
0000
0000
0000
0000
0000
0000
0000
0000
0000
0000
0000
0000
0001
0000
0000
0000
0000
0000
0000
0000
0000
0000
0000
0000
0000
0000
0000
0000
0000
0000
0000
0000
0000
0000
0000
0000
0000
0000
0000
0000
0000
0000
0000
0000
0000
0000
0000
0000
0000
0000
0000
0000
0000
0000
0000
0000
0000
0000
0000
0000
1000
0000
0000
0000
0000
0000
0000
0000
0000
0000
0000
0000
0000
0000
0000
0000
0000
0000
0000
0000
0000
0000
0000
0000
0001
0000
0000
0000
0000
0000
0000
0000
0000
0000
0000
0000
0000
0000
0000
0000
0000
0000
0000
0000
0000
0000
0000
0000
,
1000
0010
0100
0000
0001
0000
1000
0000
,
0001
0010
0100
0000
2000
0000
3001
0100
,
0001
0000
0010
0000
0100
0000
1000
0001
,
1000
0000
0010
0000
0200
0301
1001
0000
,
0011
1100
1010
0101
,
0001
0000
0010
0000
0100
1000
0200
1300
,
0000
0101
0000
0011
0000
1100
0000
1000
,
0000
0010
0000
0100
0001
0200
0320
0000
,
0000
1030
0001
0000
0001
0000
0010
0000
,
0100
1000
0100
0000
0010
0000
0001
0000
,
0001
1000
1000
0010
,
0100
0001
2000
0000
0100
0000
3020
0000
,
0130
0001
0200
0000
0310
1000
0020
0000
,
0100
1030
0001
0020
,
0130
1000
0200
0000
0310
0001
0020
0000
,
0100
0000
0031
1000
0001
0000
0100
0000
,
0100
0000
0010
1000
0001
0000
0010
0000
,
0010
0100
2000
0000
3001
0000
1000
0000
,
1010
0001
0011
1000
,
1100
0000
0001
0000
0101
0000
0002
1003
,
1001
0000
0000
0000
;

//--------------- dance-single - ----------------
#NOTES:
     dance-single:
     :
     Hard:
     15:
     0,0,0,0,0:
0000
0000
0000
0000
,
0000
0000
0000
0000
,
0000
0000
0000
0000
,
0000
0000
0000
0000
,
0000
0000
0000
0000
,
0000
0000
0000
0000
,
0001
0010
0100
1000
0002
1003
1000
0001
,
1000
0010
0100
0001
2000
3001
0001
0010
,
0200
0000
0000
0000
0310
0000
0001
0000
1000
0000
0000
0010
0000
0000
0100
0000
,
0220
0000
0000
0000
0000
0000
0330
0110
,
1001
0000
0001
0000
1000
0100
1000
0000
0001
0000
0100
0000
0000
0000
0100
0000
,
0010
1000
0001
0000
0010
0100
1000
0000
0010
0000
0200
0000
0301
0000
1000
0000
,
0001
0100
0001
0000
1000
0000
0010
0000
0000
0000
0100
0001
0100
0001
0010
0000
,
0100
0000
0000
1000
0000
0000
0001
0000
0000
2000
0000
0000
3010
0000
0000
1000
0000
0100
0000
1000
0000
0001
0000
0100
,
0000
0001
0000
0010
0000
0100
0000
0010
0000
0001
0000
1000
0000
0001
0000
0010
0000
0001
0000
1000
0000
0010
0000
1000
,
0000
0001
0000
0100
0000
0000
0010
0000
0000
0200
0000
0000
0000
0000
0000
0000
0000
0000
0301
0000
0000
0010
0000
0000
,
0100
1000
0010
0000
0100
0000
0001
0000
1000
0000
0010
0000
0100
0000
0001
0000
,
1000
0100
0000
1000
0100
0020
0000
0031
,
0100
0020
0000
0130
0001
1000
0100
0020
,
0000
0130
1000
0020
0000
0130
0001
0020
,
0000
0130
1000
0020
0000
0130
0001
0020
,
0000
0130
1000
0001
0100
0010
0100
0000
,
0001
0000
1000
0000
0001
0000
0000
0000
1000
0000
0001
0100
0001
0000
1000
0100
,
2000
0000
3002
0000
0103
0000
0010
0100
0010
0000
1000
0001
2000
0000
3002
0000
,
0013
0000
0100
1000
0000
0100
1000
0000
0010
0000
0100
0001
0000
0100
0001
0000
,
1000
0000
0010
0000
0100
0000
0001
1000
0001
0000
0010
0000
0200
0000
0000
0000
,
0000
0000
1300
0100
0001
0000
0001
0100
,
1000
0000
1000
0100
0001
0100
1000
0000
,
1000
0100
0020
0000
0032
0000
2003
0000
,
3010
0000
0100
0000
0010
0000
1000
0100
1000
0000
0001
0000
0020
0000
0000
0000
,
0130
0000
0000
0000
1000
0020
0100
0000
0130
0000
0000
0000
0001
0020
0100
0000
,
0130
0000
0000
0000
1000
0000
0010
0100
0010
0000
1000
0000
0001
0000
0000
0000
,
1000
0010
0100
0001
0100
0001
1000
0100
,
1000
0000
0100
0000
0010
0000
0001
0100
0001
0000
1000
0100
1000
0000
0010
0100
,
0010
1000
0002
0023
0230
2300
3001
0100
,
0001
1000
2100
3010
0000
0102
0013
0000
,
2100
3010
0000
0001
1000
0001
1000
2100
,
3010
0011
1010
1100
,
0101
0000
0001
0100
0001
1000
2100
3010
,
0000
0102
0013
0000
2100
3010
0000
0110
,
0000
0001
0100
0000
0100
0010
1000
0001
,
0000
0001
0010
0000
0010
0100
0010
0001
,
1000
0001
1000
0000
0010
0000
0100
0000
0000
0000
0100
0000
0001
0000
1000
0000
,
0100
0010
0100
0000
1000
0000
0002
0000
0000
0000
1003
0000
0000
0000
1000
0000
,
0001
0100
0001
0000
0010
0000
0001
0000
0000
0000
0010
0000
0100
0000
1000
0000
,
0010
0100
0010
0000
1000
0000
0002
0000
0000
0000
1003
0000
0000
0000
1000
0000
,
0010
0100
0001
1000
0000
1000
0010
0100
,
0001
1000
0001
0000
0010
0000
0100
0000
0000
0000
1000
0100
1000
0000
0010
1000
,
0010
0000
0000
0000
0000
0000
0100
0000
0000
0001
0000
0000
0100
0000
0000
0000
0000
0000
0001
0000
0000
0010
0000
0000
0001
0000
0000
0000
0000
0000
1001
0000
0000
0000
0000
0000
0001
0000
0000
0000
0100
0000
0000
0000
0001
0000
0000
0000
,
1000
0100
1000
0020
0000
0000
0130
0000
0000
0101
0000
0000
,
1010
0000
0100
0001
0010
0000
0100
0000
1000
0000
1000
0000
0100
0000
0100
0000
,
1000
0000
0001
0100
0001
0000
1000
0000
1100
0000
0000
0000
0110
0000
0000
0000
,
0011
0000
0100
1000
0010
0000
0100
0000
0001
0000
0100
0000
1000
0000
0001
0000
,
0010
0000
1000
0100
0020
0000
0000
0000
0000
0000
0000
0000
0130
0000
1000
0000
,
0100
0000
1000
0000
0001
0000
0100
0000
0001
0000
0100
0000
0010
0000
1000
0100
,
0000
0010
0001
0000
1000
0010
0000
0100
0002
0000
1003
0000
0100
0000
1000
0000
,
0100
0000
0010
0000
0001
0000
0010
0000
0001
0000
1000
0000
0001
0100
0000
0010
,
1000
0000
0001
0000
0010
0100
0020
0000
0031
0000
1000
0000
0010
0000
0100
0000
,
0002
0003
0000
0000
0000
0000
0000
0000
0000
0000
0000
0000
0000
0000
0000
0000
0000
0000
0000
0000
0000
0000
0000
0000
2000
3000
0000
0000
0000
0000
0000
0000
0000
0000
0000
0000
0000
0000
0000
0000
0000
0000
0000
0000
0000
0000
0000
0000
0002
0003
0000
0000
0000
0000
0000
0000
0000
0000
0000
0000
0000
0000
0000
0000
0000
0000
0000
0000
0000
0000
0000
0000
0000
0000
0000
0000
0000
0000
0000
0000
0000
0000
0000
0000
0000
0000
0000
0000
0000
0000
0000
0000
0000
0000
0000
0000
1000
0000
0000
0000
0000
0000
0000
0000
0000
0000
0000
0000
0000
0000
0000
0000
0000
0000
0000
0000
0000
0000
0000
0000
0001
0000
0000
0000
0000
0000
0000
0000
0000
0000
0000
0000
0000
0000
0000
0000
0000
0000
0000
0000
0000
0000
0000
0000
1000
0000
0000
0000
0000
0000
0000
0000
0000
0000
0000
0000
0000
0000
0000
0000
0000
0000
0000
0000
0000
0000
0000
0000
0001
0000
0000
0000
0000
0000
0000
0000
0000
0000
0000
0000
0000
0000
0000
0000
0000
0000
0000
0000
0000
0000
0000
0000
,
0200
0300
0000
0000
0000
0000
0000
0000
0000
0000
0000
0000
0000
0000
0000
0000
0000
0000
0000
0000
0000
0000
0000
0000
0020
0030
0000
0000
0000
0000
0000
0000
0000
0000
0000
0000
0000
0000
0000
0000
0000
0000
0000
0000
0000
0000
0000
0000
0200
0300
0000
0000
0000
0000
0000
0000
0000
0000
0000
0000
0000
0000
0000
0000
0000
0000
0000
0000
0000
0000
0000
0000
0000
0000
0000
0000
0000
0000
0000
0000
0000
0000
0000
0000
0000
0000
0000
0000
0000
0000
0000
0000
0000
0000
0000
0000
0001
0000
0000
0000
0000
0000
0000
0000
0000
0000
0000
0000
0000
0000
0000
0000
0000
0000
0000
0000
0000
0000
0000
0000
0001
0000
0000
0000
0000
0000
0000
0000
0000
0000
0000
0000
0000
0000
0000
0000
0000
0000
0000
0000
0000
0000
0000
0000
0100
0000
0000
0000
0000
0000
0000
0000
0000
0000
0000
0000
0000
0000
0000
0000
0000
0000
0000
0000
0000
0000
0000
0000
0100
0000
0000
0000
0000
0000
0000
0000
0000
0000
0000
0000
0000
0000
0000
0000
0000
0000
0000
0000
0000
0000
0000
0000
,
0002
0003
0000
0000
0000
0000
0000
0000
0000
0000
0000
0000
0000
0000
0000
0000
0000
0000
0000
0000
0000
0000
0000
0000
2000
3000
0000
0000
0000
0000
0000
0000
0000
0000
0000
0000
0000
0000
0000
0000
0000
0000
0000
0000
0000
0000
0000
0000
0002
0003
0000
0000
0000
0000
0000
0000
0000
0000
0000
0000
0000
0000
0000
0000
0000
0000
0000
0000
0000
0000
0000
0000
1000
0000
0000
0000
0000
0000
0000
0000
0000
0000
0000
0000
0000
0000
0000
0000
0000
0000
0000
0000
0000
0000
0000
0000
0100
0000
0000
0000
0000
0000
0000
0000
0000
0000
0000
0000
0000
0000
0000
0000
0000
0000
0000
0000
0000
0000
0000
0000
0001
0000
0000
0000
0000
0000
0000
0000
0000
0000
0000
0000
0000
0000
0000
0000
0000
0000
0000
0000
0000
0000
0000
0000
1000
0000
0000
0000
0000
0000
0000
0000
0000
0000
0000
0000
0000
0000
0000
0000
0000
0000
0000
0000
0000
0000
0000
0000
0010
0000
0000
0000
0000
0000
0000
0000
0000
0000
0000
0000
0000
0000
0000
0000
0000
0000
0000
0000
0000
0000
0000
0000
,
0002
0003
0000
0000
0000
0000
0000
0000
0000
0000
0000
0000
0000
0000
0000
0000
0000
0000
0000
0000
0000
0000
0000
0000
2000
3000
0000
0000
0000
0000
0000
0000
0000
0000
0000
0000
0000
0000
0000
0000
0000
0000
0000
0000
0000
0000
0000
0000
2002
3003
0000
0000
0000
0000
0000
0000
0000
0000
0000
0000
0000
0000
0000
0000
0000
0000
0000
0000
0000
0000
0000
0000
0000
0000
0000
0000
0000
0000
0000
0000
0000
0000
0000
0000
0000
0000
0000
0000
0000
0000
0000
0000
0000
0000
0000
0000
0001
0000
0000
0000
0000
0000
0000
0000
0000
0000
0000
0000
0000
0000
0000
0000
0000
0000
0000
0000
0000
0000
0000
0000
1000
0000
0000
0000
0000
0000
0000
0000
0000
0000
0000
0000
0000
0000
0000
0000
0000
0000
0000
0000
0000
0000
0000
0000
0010
0000
0000
0000
0000
0000
0000
0000
0000
0000
0000
0000
0000
0000
0000
0000
0000
0000
0000
0000
0000
0000
0000
0000
1000
0000
0000
0000
0000
0000
0000
0000
0000
0000
0000
0000
0000
0000
0000
0000
0000
0000
0000
0000
0000
0000
0000
0000
,
0001
0100
0001
0100
0001
0000
0010
0000
0100
0000
1000
0000
0001
0000
0010
0000
,
0100
0000
1000
0100
1000
0000
0010
0000
0200
0000
0000
0000
0301
0000
1000
0000
,
0001
1000
0010
0000
0100
0001
0010
0100
,
1000
0000
0000
0000
0001
0000
0000
0000
2000
0000
3001
0100
0001
0000
0000
0000
,
0011
1100
1010
0101
,
0001
0000
0100
0000
1000
0000
0100
0000
0001
0000
1000
0100
1000
0000
1010
0000
,
0000
0101
0000
0011
0000
1100
0000
1000
,
0001
0000
0100
0010
0000
0010
1000
0000
1000
0001
0020
0000
0230
0000
0000
0000
,
0000
1300
0010
0000
0010
0100
0010
1000
,
0001
1000
0001
0000
0010
0100
1000
0001
,
0100
0010
1000
0001
0010
0001
1000
0010
,
0100
0001
0020
0000
0100
0000
0230
0000
,
1300
0001
0200
0000
0310
1000
0002
0000
,
0010
0103
1001
1020
,
0130
0001
2000
0000
3100
0010
0002
0000
,
1000
0000
0103
0010
1000
0000
0001
0010
,
0100
1000
0001
0100
0010
0100
0001
1000
,
0100
0001
0200
0000
1300
0010
0100
0010
,
1000
0000
0000
0001
0000
0000
1000
0000
0100
0000
0010
0000
0100
0000
1000
0000
0010
0000
0100
0000
0010
0000
1000
0000
,
0001
0000
0000
0000
0100
0000
0000
0000
0010
0000
0000
0000
0100
0000
0000
0000
0001
0000
0000
0000
0010
0000
0000
0000
0100
0000
0000
0000
1000
0000
0000
0000
0001
0000
0000
0000
0020
0000
0000
0000
0000
0000
0130
0000
0000
1000
0000
0000
,
0001
0000
0000
0000
;

//--------------- dance-single - ----------------
#NOTES:
     dance-single:
     :
     Challenge:
     17:
     0.682271,0.545356,0,0,0,629,629,0,0,0,0,0.682271,0.545356,0,0,0,629,629,0,0,0,0:
0000
0000
0000
0000
,
0000
0000
0000
0000
,
0000
0000
0000
0000
,
0000
0000
0000
0000
,
0000
0000
0000
0000
,
0000
0000
0000
0000
,
0001
0000
0100
0000
1000
0000
0100
0000
0002
0000
0013
0100
0010
0000
0110
0000
,
1000
0000
0100
0000
0001
0000
0100
0000
2000
0000
3001
0100
0001
1000
0100
0010
,
0002
0000
0000
0000
1003
0010
1000
0000
0110
0000
0000
0100
0001
0000
1000
0000
,
1002
0000
0000
0000
0000
0000
0003
0110
,
1001
0000
0001
0000
0100
0010
0100
0001
1000
0100
0010
0000
0000
0000
0110
0000
,
0010
0100
1000
0000
0001
0100
0010
0100
0001
0010
0200
0000
0310
0000
0010
0001
,
1000
0100
0010
0100
1000
0001
0010
0000
0000
0000
0100
1000
0100
1000
0010
0000
,
0100
0000
0000
0001
0000
0000
0100
0000
0000
0001
0000
0000
0010
0000
0000
0100
0000
0000
2000
0000
0000
0000
0000
0000
3001
0000
0000
0000
0000
0000
0011
0000
0000
0000
0001
0000
0000
0000
0010
0000
0000
0000
0110
0000
0000
0000
0100
0000
,
0000
1000
0000
1010
0000
0010
0000
0100
0000
0101
0000
0001
0000
0010
0000
0110
0000
0100
0000
1000
0000
1001
0000
0001
,
0000
0000
0010
0000
0000
0000
0100
0000
0000
1000
0000
0000
0001
0000
0000
0100
0000
0000
0010
0000
0000
0000
0000
0000
0100
0000
0000
1000
0000
0000
0100
0000
0000
0000
0000
0000
0010
0000
0000
1000
0000
0000
0010
0000
0000
0000
0000
0000
,
1000
0100
0001
0100
1000
0010
0100
0000
0001
0000
0110
0000
1000
0000
0001
0000
,
0010
0000
0100
0000
0000
0000
0100
1000
0100
1000
0020
0000
0000
0000
0130
0001
,
0100
0001
0020
0000
0000
0000
0130
1000
0100
1000
0001
0100
0001
0100
0020
0000
,
0000
0000
0130
0001
0100
0001
0020
0000
0000
0000
0130
1000
0100
1000
0020
0000
,
0000
0000
0130
0001
0100
0001
0020
0000
0000
0000
0130
1000
0100
1000
0020
0000
,
0000
0000
0130
0001
0100
0001
1000
0000
0001
0000
0010
0000
1100
0000
0000
0000
,
1000
0000
0010
0000
0101
0000
0000
0000
0001
0100
0010
0100
0010
1000
0100
0010
,
0002
0000
2003
0000
3010
0100
0010
0100
0001
0100
1000
0001
0020
0000
0230
0000
,
0310
1000
0100
0010
0000
0010
0100
1000
0010
0100
0010
1000
0000
1000
0010
0100
,
0001
0010
1000
0001
0100
1000
0100
0010
0001
0000
0100
0000
0120
0000
0000
0000
,
0000
0000
0000
0000
0130
0001
0100
0000
0101
0000
0000
0000
1000
0100
1000
0000
,
1100
0000
0000
0000
0001
0100
0010
0100
0010
1000
0001
0000
0011
0000
0000
0000
,
1100
1000
0002
0000
0023
0000
0230
0000
,
1300
0000
0001
0000
1000
0000
0010
0100
0010
0000
1000
0000
1001
0000
0001
0100
,
0010
0000
0100
0000
0001
0010
0100
0000
0010
0000
0100
0000
1000
0010
0100
0000
,
0010
0000
0100
0000
0001
0000
1000
0100
0010
0000
0011
0000
1100
0000
1000
0010
,
0100
0001
0101
0010
1100
0001
1010
0100
,
0011
0000
0001
0000
1000
0100
0010
0001
1000
0100
0010
0001
1000
0001
0010
0100
,
1000
0000
0010
0000
0100
0000
0010
0000
0100
0000
0010
0000
2000
0000
0000
0000
0000
0000
3001
0000
0010
0000
0100
0000
2000
0000
0000
0000
0000
0000
3020
0000
0000
0000
0000
0000
1030
0000
0000
0001
0000
0000
1000
0000
0000
0001
0000
0000
,
0010
0100
2100
3010
0000
0102
0013
0000
,
2100
0000
3010
0000
0000
0000
1000
0001
1000
0001
0100
0000
0010
0000
0102
0000
,
0013
0000
0000
0000
0001
0010
0100
0000
0001
0100
0010
0000
0001
0100
1000
0000
,
0100
0010
1000
0000
0001
0010
0001
0010
0100
0000
1000
0000
1002
0000
0013
0000
,
0000
2001
3010
0000
1002
0013
0000
0110
,
0000
0000
0001
0000
0101
0000
0000
0000
1000
0001
0010
0000
0100
0000
1100
0000
,
0000
1000
1001
0000
0001
0100
0001
0010
,
0100
1000
0100
0000
1000
0000
0010
0000
0000
0000
0100
0000
0001
0000
1000
0000
,
0010
0100
0010
0000
1000
0000
1100
0000
0000
0000
0011
0000
0001
0000
1000
0100
,
1000
0010
0100
0000
0100
0001
0010
0000
0000
0000
0110
0000
0100
0000
1000
0001
,
0100
0001
0100
0000
0010
0000
0110
0000
0100
0001
1000
0000
0000
0000
0011
0000
,
0010
0100
0010
0000
0100
0000
1000
0000
0000
0000
0001
0000
0100
0000
0010
0000
,
1000
0000
0000
0100
0000
0000
0001
0000
0000
0000
0000
0000
0100
0000
0000
0000
0000
0000
1000
0000
0000
0000
0000
0000
0000
0000
0000
0001
0000
0000
0100
0000
0000
0001
0000
0000
0100
0000
0000
0000
0000
0000
0010
0000
1000
0000
0010
0000
,
1000
0000
0000
0001
0010
0001
0010
0000
0000
0100
1000
0100
1000
0000
0000
1001
0000
0000
0101
0000
1010
0000
0101
0000
,
0011
0000
1100
0000
0011
0000
2001
0000
0000
0001
0000
0000
3020
0000
0000
0130
0000
0000
0002
0000
0000
0103
0000
0000
,
2000
0000
3100
0010
0100
0000
0001
0000
1000
0100
1000
0000
1100
0000
0100
0000
,
0101
0000
0001
0100
0001
0000
0100
0000
2000
0000
3010
0000
0200
0000
0310
0000
,
2000
0000
0000
0000
0000
0000
3001
0000
0000
0100
0000
0000
0001
0000
0000
0000
0000
0000
0100
0000
0000
0000
0000
0000
1000
0000
0000
0000
0000
0000
0100
0000
0000
0001
0000
0000
0010
0000
0000
0000
0100
0000
0000
1000
0000
0000
0000
0000
,
0100
0000
0010
0001
2000
0000
0000
0000
0000
0000
0000
0000
3010
0100
0010
0100
,
0001
1000
0100
0000
0010
0001
0100
0000
0010
1000
0000
1000
0010
0100
0010
1000
,
0000
0001
0010
0000
0100
0010
0000
1000
0020
0000
0031
0100
1000
0100
0010
1000
,
0000
0000
1000
0100
0001
0100
0010
0001
0000
0001
0100
1000
0100
0010
0000
0001
,
0010
0000
1010
0000
0010
0100
0020
0000
0130
0001
1000
0100
0010
0000
0001
0000
,
0022
0033
0000
0000
0000
0000
0000
0000
0000
0000
0000
0000
0000
0000
0000
0000
0000
0000
0000
0000
0000
0000
0000
0000
2200
3300
0000
0000
0000
0000
0000
0000
0000
0000
0000
0000
0000
0000
0000
0000
0000
0000
0000
0000
0000
0000
0000
0000
0022
0033
0000
0000
0000
0000
0000
0000
0000
0000
0000
0000
0000
0000
0000
0000
0000
0000
0000
0000
0000
0000
0000
0000
0000
0000
0000
0000
0000
0000
0000
0000
0000
0000
0000
0000
0010
0000
0000
0000
0000
0000
0000
0000
0000
0000
0000
0000
0001
0000
0000
0000
0000
0000
0000
0000
0000
0000
0000
0000
1000
0000
0000
0000
0000
0000
0000
0000
0000
0000
0000
0000
0010
0000
0000
0000
0000
0000
0000
0000
0000
0000
0000
0000
0100
0000
0000
0000
0000
0000
0000
0000
0000
0000
0000
0000
0001
0000
0000
0000
0000
0000
0000
0000
0000
0000
0000
0000
0010
0000
0000
0000
0000
0000
0000
0000
0000
0000
0000
0000
0100
0000
0000
0000
0000
0000
0000
0000
0000
0000
0000
0000
1000
0000
0000
0000
0000
0000
0000
0000
0000
0000
0000
0000
,
0020
0030
0000
0000
0000
0000
0000
0000
0000
0000
0000
0000
0000
0000
0000
0000
0000
0000
0000
0000
0000
0000
0000
0000
0220
0330
0000
0000
0000
0000
0000
0000
0000
0000
0000
0000
0000
0000
0000
0000
0000
0000
0000
0000
0000
0000
0000
0000
2002
3003
0000
0000
0000
0000
0000
0000
0000
0000
0000
0000
0000
0000
0000
0000
0000
0000
0000
0000
0000
0000
0000
0000
0000
0000
0000
0000
0000
0000
0000
0000
0000
0000
0000
0000
0000
0000
0000
0000
0000
0000
0000
0000
0000
0000
0000
0000
1100
0000
0000
0000
0000
0000
0000
0000
0000
0000
0000
0000
0000
0000
0000
0000
0000
0000
0000
0000
0000
0000
0000
0000
1000
0000
0000
0000
0000
0000
0000
0000
0000
0000
0000
0000
0010
0000
0000
0000
0000
0000
0000
0000
0000
0000
0000
0000
1000
0000
0000
0000
0000
0000
0000
0000
0000
0000
0000
0000
0000
0000
0000
0000
0000
0000
0000
0000
0000
0000
0000
0000
0001
0000
0000
0000
0000
0000
0000
0000
0000
0000
0000
0000
0100
0000
0000
0000
0000
0000
0000
0000
0000
0000
0000
0000
,
0002
0003
0000
0000
0000
0000
0000
0000
0000
0000
0000
0000
0000
0000
0000
0000
0000
0000
0000
0000
0000
0000
0000
0000
2000
3000
0000
0000
0000
0000
0000
0000
0000
0000
0000
0000
0000
0000
0000
0000
0000
0000
0000
0000
0000
0000
0000
0000
2002
3003
0000
0000
0000
0000
0000
0000
0000
0000
0000
0000
0000
0000
0000
0000
0000
0000
0000
0000
0000
0000
0000
0000
0001
0000
0000
0000
0000
0000
0000
0000
0000
0000
0000
0000
0010
0000
0000
0000
0000
0000
0000
0000
0000
0000
0000
0000
0100
0000
0000
0000
0000
0000
0000
0000
0000
0000
0000
0000
0010
0000
0000
0000
0000
0000
0000
0000
0000
0000
0000
0000
0001
0000
0000
0000
0000
0000
0000
0000
0000
0000
0000
0000
1000
0000
0000
0000
0000
0000
0000
0000
0000
0000
0000
0000
0010
0000
0000
0000
0000
0000
0000
0000
0000
0000
0000
0000
0000
0000
0000
0000
0000
0000
0000
0000
0000
0000
0000
0000
0001
0000
0000
0000
0000
0000
0000
0000
0000
0000
0000
0000
0010
0000
0000
0000
0000
0000
0000
0000
0000
0000
0000
0000
,
2000
3000
0000
0000
0000
0000
0000
0000
0000
0000
0000
0000
0000
0000
0000
0000
0000
0000
0000
0000
0000
0000
0000
0000
0002
0003
0000
0000
0000
0000
0000
0000
0000
0000
0000
0000
0000
0000
0000
0000
0000
0000
0000
0000
0000
0000
0000
0000
2002
3003
0000
0000
0000
0000
0000
0000
0000
0000
0000
0000
0000
0000
0000
0000
0000
0000
0000
0000
0000
0000
0000
0000
0000
0000
0000
0000
0000
0000
0000
0000
0000
0000
0000
0000
0000
0000
0000
0000
0000
0000
0000
0000
0000
0000
0000
0000
1000
0000
0000
0000
0000
0000
0000
0000
0000
0000
0000
0000
0000
0000
0000
0000
0000
0000
0000
0000
0000
0000
0000
0000
0001
0000
0000
0000
0000
0000
0000
0000
0000
0000
0000
0000
0010
0000
0000
0000
0000
0000
0000
0000
0000
0000
0000
0000
0100
0000
0000
0000
0000
0000
0000
0000
0000
0000
0000
0000
0000
0000
0000
0000
0000
0000
0000
0000
0000
0000
0000
0000
0010
0000
0000
0000
0000
0000
0000
0000
0000
0000
0000
0000
0100
0000
0000
0000
0000
0000
0000
0000
0000
0000
0000
0000
,
0010
0001
0010
0100
1000
0000
0010
0000
0110
0000
0100
0001
1000
0000
0100
1000
,
0001
0000
0100
0001
1000
0000
0010
0000
0101
0000
0001
0000
1100
0000
0100
0010
,
0100
0000
0010
0100
0010
0000
0001
0000
1001
0000
1000
0010
0100
0001
0100
0010
,
1000
0000
0000
0000
0000
0000
0001
0000
0000
0000
0000
0000
1000
0000
0100
0000
1000
0000
0100
0000
0010
0000
0001
0000
2000
0000
0000
0000
0000
0000
3010
0000
0000
0100
0000
0000
0020
0000
0000
0000
0000
0000
0000
0000
0000
0000
0000
0000
,
1030
0100
0000
0000
0001
0100
0000
0000
1000
0010
0000
0000
0001
0010
0000
0000
,
0100
0001
0100
0010
1000
0100
0010
0100
0001
0100
1000
0010
0200
0000
0301
0010
,
0000
0000
1000
0010
0000
0000
0001
0100
0000
0000
1000
0100
0000
0000
0001
0010
,
0100
1000
0010
0001
0000
1000
0100
0010
1000
0100
0020
0000
0032
0000
0000
0000
,
0000
0100
0010
0000
0010
1003
1100
1000
,
1010
0010
0110
0000
1010
0100
0001
0011
,
0100
0000
1000
0000
0110
0000
0001
0000
0001
0000
1000
0000
1000
0010
0100
0000
,
0100
0001
2001
0000
0100
0100
3002
0000
,
0010
0013
2000
0000
0010
0010
3200
0000
,
0001
1300
1001
0210
,
1000
1000
0320
0000
0100
0100
2030
0000
,
0001
0000
3100
0110
1001
0000
0001
0010
,
0100
0000
1000
0000
0001
0000
1000
0010
1000
0000
0001
0100
0001
0000
0100
0000
,
1000
0000
0100
0000
0002
0000
0000
0000
0013
0000
0100
1000
0100
0000
0010
0100
,
0010
0000
0000
0000
0000
0000
0001
0000
0000
1000
0000
0000
0001
0000
0000
0000
0100
0000
0000
0000
1000
0000
0000
0000
0100
0000
0000
0000
0010
0000
0000
0000
1000
0000
0000
0000
0100
0000
0000
0000
0010
0000
0000
0000
1000
0000
0000
0000
,
0010
0000
0000
0000
0100
0000
0000
0000
0001
0000
0000
0000
0100
0000
0000
0000
1000
0000
0000
0000
0001
0000
0000
0000
0010
0000
0000
0000
0100
0000
0000
0000
1000
0000
0000
0000
0020
0000
0000
0000
0000
0000
1030
0000
0000
0001
0000
0000
,
1001
0000
0000
0000
;
