#TITLE:この世の果てで恋を唄う少女;
#SUBTITLE:;
#ARTIST:亜咲花;
#TITLETRANSLIT:Konoyo No Hate De Koi Wo Utau Shoujo;
#SUBTITLETRANSLIT:;
#ARTISTTRANSLIT:Asaka;
#GENRE:ANIME;
#CREDIT:;
#MUSIC:Konoyo No Hate De Koi Wo Utau Shoujo.ogg;
#BANNER:Konoyo No Hate De Koi Wo Utau Shoujo.png;
#BACKGROUND:Konoyo No Hate De Koi Wo Utau Shoujo-bg.png;
#CDTITLE:;
#SAMPLESTART:51.144;
#SAMPLELENGTH:11.964;
#SELECTABLE:YES;
#OFFSET:0.942;
#BPMS:0.000=161.000;
#STOPS:;
#BGCHANGES:3.000=Konoyo No Hate De Koi Wo Utau Shoujo.avi=1.000=0=0=0=StretchNoLoop====,
99999.000=-nosongbg-=1.000=0=0=0=StretchNoLoop====
;
#FGCHANGES:;

//--------------- dance-single - ----------------
#NOTES:
     dance-single:
     :
     Hard:
     13:
     0.745479,0.909064,0.50609,0.371133,0.17432,464,419,45,33,0,0,0.745479,0.909064,0.50609,0.371133,0.17432,464,419,45,33,0,0:
0000
0000
0000
0000
,
1000
0010
0000
0110
0001
1000
0010
0100
,
0001
0010
1000
0001
1000
0010
0100
0010
,
0001
0011
0000
0110
1000
0001
0010
0100
,
1000
0010
0001
1000
0001
0010
0100
0010
,
1000
0101
0000
1100
0001
0010
0100
1000
,
0100
1000
0010
0010
0001
0100
0100
1000
,
0010
0110
0000
0110
1000
0100
0010
0001
,
0010
0010
0010
0001
0100
0100
0100
0100
,
1000
0000
1100
0000
0000
0000
0010
0000
0110
0000
0000
0001
0000
0000
0001
0000
,
0110
0000
0000
1000
0000
0000
1000
0000
0000
0000
0110
0000
0001
0000
1000
0000
,
0001
0000
0001
1000
0100
0020
0000
0100
,
0000
0001
0000
0130
0000
1000
0100
1000
,
0011
0000
0011
0010
0100
2000
0000
0020
,
0000
0000
3030
0010
0100
0010
0100
0000
,
0101
0000
0100
0001
0100
0010
2000
0100
,
0000
0010
0000
3001
0100
0010
1000
0001
,
0010
0100
1000
1100
0000
0011
0000
1100
,
0001
1000
0010
0100
0001
0000
1000
0000
,
0001
0000
0000
0100
0000
0000
0100
0000
1000
0000
0000
0010
0000
0000
0010
0000
,
0001
1000
0000
1000
0010
1000
0010
0100
,
0101
0000
1100
0000
1000
0010
1001
0000
,
0002
0023
0230
0320
0230
2300
3020
0000
,
0230
0302
2003
3002
,
0203
0000
0000
0010
0000
0000
0010
0000
0000
0010
0000
0000
0310
0000
1000
0000
,
0200
2300
3002
0203
,
0320
0000
0000
0100
0000
0000
0100
0000
0000
0100
0000
0000
0130
0000
0001
0000
,
1000
0100
0010
0001
0010
0100
1000
0001
,
0100
0010
0110
0000
1001
0000
0110
0000
,
0001
0100
0010
1000
0010
0100
0001
0010
,
0100
0010
0110
0000
1001
0000
0110
0000
,
1001
0000
1000
0100
0000
0010
0001
0000
0001
0100
0000
0010
1000
0000
1010
0000
,
0101
0000
0001
0100
0000
0010
1000
0000
1000
0100
0000
0010
0001
0000
0011
0000
,
1001
0000
1000
0010
0000
0001
0010
0000
1000
0100
0000
0001
0100
0000
1001
0000
,
1000
0100
0010
0000
0110
0000
0100
0010
0001
0000
0101
0000
1001
0000
0000
0000
,
0001
0100
1000
0100
0001
0100
1000
0100
,
0001
0001
0010
0010
0100
0100
1000
1000
,
0001
0010
1000
0010
0001
0010
1000
0010
,
0001
0001
0100
0100
0010
0010
1000
1000
,
0001
0000
1000
0100
1000
0000
0010
0000
0100
0000
0001
0000
0100
0000
0010
0000
,
1000
0000
0001
0100
0001
0000
1000
0000
0100
0000
0010
0000
0001
0000
1000
0000
,
0001
0000
0010
0100
0010
0000
0001
0000
1000
0000
0010
0100
0010
0000
1000
0000
,
0001
0000
1000
0000
0002
0000
0023
0000
0230
0000
2300
3000
0011
0000
0010
0000
,
0001
0100
0100
1000
0001
0100
0100
1000
,
0001
0010
0010
0100
0100
1000
0100
0100
,
0100
1000
0001
0100
1000
0100
0001
1000
,
0001
0010
1000
0020
0000
0001
0001
0031
,
0100
1000
0100
0002
0000
1000
1000
1003
,
0100
0001
0100
2000
0000
3001
0010
0100
,
1000
0002
0010
0013
0000
1000
0010
0100
,
0001
2000
0010
3010
1000
0100
0010
0001
,
1000
0100
0100
0100
1000
0000
0001
0001
,
1000
1001
0000
0002
0000
0013
0100
1100
,
0000
0000
0101
0001
1000
0010
0100
0002
,
0000
0000
0010
0013
0001
0010
0100
1000
,
0001
1001
1001
1001
1001
0000
0001
1000
,
0000
0000
0010
1000
0010
0000
0100
0010
0100
0000
0001
0100
0001
0100
0001
0100
,
0002
0000
0000
0103
0010
1001
0000
0000
,
0001
0010
0001
0010
0100
1000
0100
1000
,
0010
0100
0000
0100
0001
0010
0100
1001
;

//--------------- dance-single - ----------------
#NOTES:
     dance-single:
     :
     Challenge:
     16:
     0.965587,1.077409,0.686033,0.461104,0.83786,601,540,61,41,0,0,0.965587,1.077409,0.686033,0.461104,0.83786,601,540,61,41,0,0:
0000
0000
0000
0000
,
0011
0000
0000
1100
0000
0000
0011
0000
0000
1100
0000
0000
0011
0000
0001
0010
,
0100
0000
0000
2100
0000
0000
0010
0000
3001
0000
1000
0010
0100
0000
0010
1000
,
0001
0000
0000
1010
0000
0000
0101
0000
0001
0000
0010
0000
0100
0000
1000
0100
,
0010
0000
0001
0010
0000
1000
0010
0000
0001
0100
0000
1000
0100
0000
0001
0000
,
0010
0000
0000
0110
0000
0000
1001
0000
0000
0110
0000
0000
0010
0000
1000
0100
,
0010
0000
1000
0000
0010
0100
1000
0000
1100
0000
1000
0000
0001
0100
0010
0000
,
2000
0000
0000
3020
0000
0000
0230
0000
0000
0302
0000
0000
2003
0000
0100
0000
,
3010
0000
0010
0100
0001
0000
0001
0010
0100
0000
0100
1000
0100
0010
0100
1000
,
0001
0000
0102
0000
0000
0000
0013
0000
0011
0000
0000
0110
0000
0000
0001
0000
,
0110
0000
0000
1100
0000
0000
0012
0000
0000
0000
1003
0000
0010
0000
0100
0000
,
0001
0000
0001
0010
0100
0000
1000
0000
0100
0010
0002
0000
0000
0000
1000
0000
,
0000
0000
0100
0000
0000
0000
1000
0000
0000
0000
0013
0000
0010
0100
1000
0000
,
0011
0000
0000
0000
0101
0000
0001
0010
0100
0000
2000
0000
0000
0000
0002
0000
,
0000
0000
3003
0011
1100
1010
0101
0000
,
2001
0000
0000
0000
3100
0000
0100
1000
0010
0000
0100
0000
0002
0000
0100
0000
,
0000
0100
0000
1000
1003
0001
0011
0011
,
0001
0010
0100
1000
0001
0000
1100
0000
0000
0000
0101
0000
0000
0000
0011
0000
,
0010
0000
0100
0000
1000
0100
0010
0001
0010
0100
1000
0001
0010
0100
1000
0010
,
0100
0000
0100
0001
0000
0000
0001
0000
0010
0000
0010
0100
0000
0000
1000
0000
,
0010
0100
0000
0001
1000
0001
1000
0001
,
0101
0000
1100
0000
0101
0001
1001
0000
,
0002
0203
0320
2030
3002
0203
2300
3000
,
0200
0001
0320
0001
2030
0100
3002
0100
,
0203
0000
0000
1000
0000
0000
0010
0000
0000
0001
0000
0000
0310
0000
1000
0000
,
0200
0010
2300
0001
3020
1000
0230
0001
,
0320
0000
0000
0001
0000
0000
0100
0000
0000
1000
0000
0000
0130
0000
0001
0000
,
0001
0010
0000
0010
0100
0000
0001
0000
0100
1000
0000
1000
0010
0000
0001
0000
,
0010
1000
0010
0000
0110
0000
1001
0000
,
1000
0010
0000
0010
0100
0000
1000
0000
0100
0001
0000
0001
0010
0000
1000
0000
,
0010
0001
0100
0010
1001
0000
0110
0000
,
1000
0100
0010
0001
1000
0100
0010
0001
1000
0100
0010
0001
1000
0000
1001
0000
,
0001
0100
0010
1000
0001
0100
0010
1000
0001
0100
0010
1000
0001
0000
1001
0000
,
0010
0100
1000
0010
0100
0001
0010
0100
1000
0010
0100
0001
0010
0100
1000
0010
,
1000
0100
0010
0001
1000
0000
0001
0100
0010
1000
0001
0000
0011
0000
0000
0000
,
0001
0100
1000
0100
0001
0100
1000
0100
,
0001
0100
0001
0000
0100
1000
0100
0000
0001
0010
0001
0000
0010
1000
0010
0000
,
0001
0010
1000
0010
0001
0010
1000
0010
,
0001
0010
0001
0000
0010
1000
0010
0000
0001
0100
0001
0000
0100
1000
0100
0000
,
0001
0000
0010
0000
0100
1000
0010
0000
0100
0000
0001
0010
0100
0000
0010
0000
,
1000
0010
0001
0000
0100
0001
1000
0000
0010
0000
0001
0010
1000
0000
0100
0000
,
0010
0001
0100
0010
1000
0000
0001
0010
0100
0001
0100
0000
1000
0010
0100
1000
,
0100
0000
0001
0000
0020
0000
0032
0000
0023
0000
0230
0300
1100
0000
0100
0000
,
0011
0000
0010
0001
0100
0000
1000
0000
0001
0010
0000
0010
1000
0000
0100
0000
,
0010
0100
1000
0010
0100
0000
1000
0100
0001
0000
0020
0000
0230
0000
2300
0000
,
3002
0000
0010
0000
0013
0000
0100
1000
0001
0000
0010
0000
0100
0000
1000
0000
,
0001
0010
0100
1000
0100
0010
0001
0100
0010
1000
0010
0100
0001
0010
0001
0010
,
0100
1000
0000
1000
0100
0000
0100
0010
0001
0000
0100
0000
0010
0000
1000
0001
,
0100
0001
0000
1000
0100
0000
0010
0000
0100
1000
0010
0100
0001
0000
0001
0010
,
0100
1000
0000
1000
0010
0000
0010
0100
0001
0000
0010
0000
0100
1000
0001
0100
,
0010
0100
0000
0100
0001
0000
0001
1000
0100
0000
0010
0001
0100
0000
0010
0000
,
2010
0001
0001
0001
3100
0000
0110
0010
,
0110
0000
1001
0000
0000
0000
0001
0010
0100
1000
0100
0000
0010
0000
0011
0000
,
0000
0000
0000
0000
0011
0000
0100
0000
1000
0010
0100
0010
1000
0000
0001
0000
,
0010
0100
1000
0100
0010
0000
0001
0010
0000
0100
1000
0000
0010
0100
0010
0100
,
0010
0101
1100
0101
2100
0000
0001
3001
,
0000
0000
0001
0010
0100
0000
0100
1000
0010
0100
0001
0010
1000
0001
0100
1000
,
0020
0000
0000
0000
0000
0000
0000
0000
0000
0130
0010
0100
0010
0000
0000
1001
0000
0000
0000
0000
0000
0000
0000
0000
,
0011
0001
1001
0001
1010
1000
1001
1000
,
0101
0000
1100
0000
0000
0000
1000
0100
0010
0000
0001
0100
0010
0000
0110
0000
;
