#TITLE:恋ノ行方;
#SUBTITLE:;
#ARTIST:あかせあかり;
#TITLETRANSLIT:Koi No Yukue;
#SUBTITLETRANSLIT:;
#ARTISTTRANSLIT:Akase Akari;
#GENRE:ANIME;
#CREDIT:;
#MUSIC:Koi No Yukue.ogg;
#BANNER:Koi No Yukue.png;
#BACKGROUND:Koi No Yukue-bg.png;
#CDTITLE:;
#SAMPLESTART:41.681;
#SAMPLELENGTH:13.714;
#SELECTABLE:YES;
#OFFSET:2.248;
#BPMS:0.000=140.000;
#STOPS:;
#LASTBEATHINT:2.912000;
#BGCHANGES:4.000=Koi No Yukue.avi=1.000=0=0=0=StretchNoLoop====,
99999.000=-nosongbg-=1.000=0=0=0=StretchNoLoop====
;
#FGCHANGES:;

//--------------- dance-single - ----------------
#NOTES:
     dance-single:
     :
     Hard:
     11:
     0,0,0,0,0:
0000
0000
0000
0000
,
0000
0000
0000
0000
,
1001
0000
1001
0000
0001
0010
0100
1000
,
0000
0000
1000
0010
0110
0000
0101
0000
,
1001
1000
0100
0001
0100
1000
0000
0010
,
0000
0100
0001
0010
0000
0100
1000
0000
,
1100
0000
1100
0000
1000
0010
0100
0001
,
0000
0000
0001
0010
0110
0000
0011
0000
,
1100
0000
0000
1010
0000
0000
0102
0000
,
0000
1000
1000
2003
0000
3010
0000
0000
,
1001
0000
0002
0000
1003
0100
1000
0010
,
0000
0100
0001
1000
0000
0001
0010
0000
,
0010
0100
0100
1000
0001
0100
0100
0000
,
0000
0110
0000
0010
1000
0100
0002
0000
,
0103
0000
1100
0000
0011
0000
1000
0010
,
0000
0100
0001
0010
0000
0100
2000
0000
,
3001
0100
0001
0100
1000
0100
0001
0000
,
0000
1000
0100
1000
0100
0001
0100
0000
,
1100
0000
0011
0000
1001
0000
0001
0200
,
0000
0320
0000
2030
0000
3001
0010
0000
,
0110
0000
0100
1000
0002
0000
0103
0020
,
0000
2030
0000
3002
0000
0013
0100
0010
,
0100
0000
0100
1000
0000
1000
0001
0000
,
0001
0100
0001
1000
0000
1000
0010
0001
,
0010
1000
0100
0001
0100
1000
0001
0100
,
0000
0001
1000
0001
1001
0100
0010
0100
,
0010
0000
0000
0100
0001
1000
0001
0000
,
0000
0001
0010
0100
2000
0010
3010
0000
,
0200
0000
0301
0200
0000
0310
0200
0000
,
1300
0200
0000
0310
0000
1000
0001
1000
,
0001
0000
0000
0001
0000
0010
0100
0000
,
0000
1000
0100
1000
0200
0001
0301
0100
,
1000
0001
0100
1000
0200
0000
0310
2000
,
0000
3002
0000
0023
0000
0130
1000
0001
,
0101
0000
1010
0000
0101
0000
0001
1000
,
0000
1100
0000
0021
0000
0100
0130
0000
,
0000
0000
1000
0100
0010
0100
0000
1100
,
0000
0011
0000
1001
0000
0001
0100
0001
,
0101
0000
1010
0000
0101
0000
0001
1000
,
0000
1010
0000
0102
0000
1000
1003
0000
,
0000
0001
0100
0001
1000
0100
1000
0002
,
0000
0010
0013
0200
1000
1300
0001
0200
,
0000
0310
1000
0002
0000
0013
0100
0010
,
0200
0000
0000
2300
0000
0000
3001
0200
,
0000
0001
0001
0302
0000
1000
1003
0000
,
1001
0000
1001
0000
1000
0010
0100
0001
,
0000
0000
0001
0010
0110
0000
1100
0000
,
1001
0001
0100
1000
0100
0001
0000
0010
,
0000
0100
1000
0010
0000
0100
0001
0000
,
0101
0000
0101
0000
0001
0010
0100
1000
,
0000
0000
1000
0010
0110
0000
1010
0000
,
0101
0000
0000
0011
0000
0000
2100
0000
,
0000
0001
0001
3002
0000
0023
0000
0000
,
0230
0300
0000
0000
;

//--------------- dance-single - ----------------
#NOTES:
     dance-single:
     :
     Challenge:
     16:
     0.648205,0.499784,0,0,0,409,409,0,0,0,0,0.648205,0.499784,0,0,0,409,409,0,0,0,0:
0000
0000
0000
0000
,
0000
0000
0000
0000
,
0101
0000
0101
0000
0001
1100
1000
0101
,
0000
0000
0000
0000
0000
0000
0101
0000
0000
0000
0000
0000
0010
0000
0000
0000
0000
0000
1000
0000
0000
0100
0000
0000
0110
0000
0000
0000
0000
0000
0001
0000
0000
0000
0000
0000
1001
0000
0000
0000
0000
0000
0001
0000
0010
0000
0100
0000
,
1000
0000
0000
0010
0000
0000
0100
0000
0000
0001
0000
0000
1000
0010
0000
0101
0000
0000
0001
0000
0000
1001
0000
0000
,
0000
0000
0110
0000
1000
0000
0001
0000
0000
0000
0011
0000
1010
0000
1000
0100
,
0011
0000
0011
0000
1000
0101
0001
1100
,
0000
0000
0000
0000
0000
0000
1010
0000
0000
0000
0000
0000
0001
0000
0000
0000
0000
0000
1000
0000
0000
0010
0000
0000
0110
0000
0000
0000
0000
0000
0001
0000
0000
0000
0000
0000
1001
0000
0000
0000
0000
0000
1000
0000
0010
0000
0100
0000
,
0001
0000
0000
1000
0100
1000
0100
0000
0000
0011
0000
0000
0000
0000
0000
0110
0000
0000
1100
0000
0000
0000
0000
0000
,
0000
0101
1100
0101
0000
0110
0000
0000
,
1001
0000
0000
0000
0000
0000
0002
0000
0000
0000
0000
0000
0023
0000
0000
0130
1000
0100
0010
0000
0000
0110
0000
0000
,
0000
0110
0001
1001
0000
0101
1020
0000
,
0130
0000
0000
0001
0000
0000
0001
0000
0000
1000
0010
0100
0010
0000
0000
1010
0000
0000
0001
0000
0000
0011
0000
0000
,
0000
0000
0000
1001
0000
0000
0001
0000
0000
1000
0000
0000
0001
0100
0001
1000
0000
0000
1200
0000
0000
0000
0000
0000
,
0310
0000
0000
0000
0000
0000
0012
0000
0000
0000
0000
0000
1003
0000
0000
0010
0100
0010
1000
0000
0000
0101
0000
0000
,
0000
0100
0001
0110
0000
0100
1020
0000
,
0130
0000
0000
0000
0000
0000
0001
0000
0000
0100
0010
1000
0001
0000
0000
0010
0000
0000
0001
0000
0000
2100
0000
0000
,
3001
0000
0000
0210
0000
0000
0301
0000
0000
1000
0100
0010
0100
1000
0100
0010
0001
0010
0100
0010
0001
1000
0100
0010
,
0001
1000
0101
0001
1000
1020
0130
0010
,
0100
0201
0301
0010
0100
1100
1001
0000
,
0110
1000
0001
0010
0001
2100
3010
0100
,
0001
0201
0310
0110
0000
1020
0130
0001
,
0011
0000
1000
1100
0000
0210
1300
0000
,
0001
0000
0210
0000
0301
0000
1001
0000
0000
0000
1200
0000
0310
0000
0001
0100
,
0010
1000
1010
1100
0010
0011
0101
0001
,
1000
0100
0010
1001
0000
0000
1001
0000
0000
1001
0000
0000
1001
0000
0000
0001
0000
0000
1000
0000
0000
0001
0000
0000
,
1000
0100
0010
0001
1000
0100
1000
0001
0010
0100
1000
0001
0010
0000
0000
0100
0010
0100
0010
0000
0000
0110
0000
0000
,
0001
0101
1000
1010
0002
0010
0013
0000
,
2100
0000
3010
0210
0000
0301
0021
0000
,
0130
2100
0001
0100
3001
0011
0110
0100
,
1000
0100
0010
0001
1000
0100
1000
0001
0010
0100
1000
0001
0010
0000
0000
0100
1000
0100
1000
0000
0000
0011
0000
0000
,
0000
0101
0101
0100
2010
0001
3001
0010
,
0110
1000
1100
0001
0100
0110
1010
0001
,
0000
0012
1000
0203
0000
0310
1000
0001
,
0101
0000
1010
0000
1000
1100
0011
0001
,
0000
0100
1001
0020
0000
0100
0130
0000
,
0110
0000
1010
0100
0001
0011
1000
1100
,
0000
1010
0010
0101
0000
0010
1001
0100
,
0110
0000
1010
0000
0001
0011
1100
1000
,
0000
1000
0110
0002
0000
0100
0103
0000
,
0011
0001
0101
0100
0001
0011
1100
0010
,
0000
1010
1100
0001
0010
0110
1100
0020
,
0000
0130
0001
0110
0000
1100
0101
1000
,
0001
1000
0100
1000
0001
0100
0001
0010
0100
1000
0100
0010
0100
1000
0001
0100
0010
0100
0001
1000
0100
0020
0000
0000
,
0000
0000
0000
0001
0000
0000
0031
0000
0000
0001
0010
0100
1000
0000
0000
1001
0000
0000
0001
0100
0010
1000
0001
0010
,
0200
0000
1300
0000
0001
1010
0100
0101
,
0000
0000
0000
0000
0000
0000
0101
0000
0000
0000
0000
0000
0011
0000
0000
0000
0000
0000
0001
0000
0000
0010
0000
0000
0110
0000
0000
0000
0000
0000
1000
0000
0000
0000
0000
0000
1001
0000
0000
0000
0000
0000
0010
0000
0100
0000
0010
0000
,
0100
0000
0000
0001
0000
0000
0011
0000
0000
1000
0000
0000
0001
0010
0000
1100
0000
0000
1000
0000
0000
1010
0000
0000
,
0000
0000
0110
0000
0001
0000
1000
0000
0000
0000
0011
0000
1010
0000
0100
0001
,
0011
0000
0011
0000
1000
0110
0001
0110
,
0000
0000
0000
0000
0000
0000
1010
0000
0000
0000
0000
0000
0100
0000
0000
0000
0000
0000
0001
0000
0000
1000
0000
0000
0110
0000
0000
0000
0000
0000
0001
0000
0000
0000
0000
0000
1001
0000
0000
0000
0000
0000
1000
0000
0001
0000
1000
0000
,
0100
0000
0000
0010
0001
0010
0100
0000
0000
1100
0000
0000
0000
0000
0000
0110
0000
0000
0011
0000
0000
0000
0000
0000
,
0000
1010
0011
1010
0000
2001
0000
0000
,
3200
0300
0000
0000
;
