#TITLE:孤独毒毒;
#SUBTITLE:;
#ARTIST:syudou;
#TITLETRANSLIT:Kodokudokudoku;
#SUBTITLETRANSLIT:;
#ARTISTTRANSLIT:syudou;
#GENRE:POP;
#CREDIT:;
#MUSIC:Kodokudokudoku.ogg;
#BANNER:Kodokudokudoku.png;
#BACKGROUND:Kodokudokudoku-bg.png;
#CDTITLE:;
#SAMPLESTART:49.574;
#SAMPLELENGTH:11.613;
#SELECTABLE:YES;
#OFFSET:1.535;
#BPMS:0.000=155.000
,58.000=310.000
,58.500=155.000
,128.000=77.500
,130.000=155.000
,144.000=310.000
,144.500=155.000
,184.000=310.000
,184.500=155.000
,200.000=310.000
,200.500=155.000
,254.000=77.500
,258.000=155.000
,275.000=310.000
,275.500=155.000
,307.000=310.000
,307.500=155.000
;
#STOPS:58.000=0.097
,144.000=0.097
,184.000=0.097
,200.000=0.097
,258.000=0.387
,275.000=0.097
,307.000=0.097
;
#DISPLAYBPM:78.000:155.000;
#LASTBEATHINT:1.278729;
#BGCHANGES:8.000=Kodokudokudoku.avi=1.000=0=0=0=StretchNoLoop====,
99999.000=-nosongbg-=1.000=0=0=0=StretchNoLoop====
;
#FGCHANGES:;

//--------------- dance-single - ----------------
#NOTES:
     dance-single:
     :
     Medium:
     12:
     0,0,0,0,0:
0000
0000
0000
0000
,
0000
0000
0000
0000
,
0000
0000
0000
0000
,
0001
0000
0000
1000
0000
0000
0100
0000
1000
0000
0010
0000
1000
0000
0010
0000
,
0100
0000
0000
0001
0000
0000
0100
0000
0001
0000
0010
0000
0001
0000
1000
0000
,
0100
0000
0000
0010
0000
0000
0100
0000
1000
0000
0100
0000
1000
0000
0001
0000
,
0100
0000
0000
0010
0000
0000
0100
0000
0001
0000
0010
0000
0100
0000
1000
0000
,
0001
0000
0000
1000
0000
0000
0001
0000
0100
0000
0010
0000
0100
0000
0010
0000
,
1000
0000
0000
0100
0000
0000
1000
0000
0010
0000
0100
0000
0002
0000
1000
0000
,
2003
0010
3020
0100
0230
0001
0301
1000
,
0100
0100
0100
0100
0010
0100
0010
0100
,
0010
0000
0001
1000
0001
0000
0001
0000
,
1000
0000
0010
0100
0010
1000
0001
0010
,
0100
0000
0010
0100
0010
0000
0100
0000
,
1000
0000
0000
0000
0000
0000
0000
0000
0000
0000
0000
0000
0000
0000
0000
0000
0000
0000
0000
0000
0000
0000
0000
0000
0000
0000
0000
0000
0000
0000
0000
0000
0000
0000
0000
0000
0000
0000
0000
0000
0000
0000
0000
0000
0000
0000
0000
0000
0001
0000
0000
0000
0000
0000
0000
0000
0000
0000
0000
0000
0000
0000
0000
0000
0000
0000
0000
0000
0000
0000
0000
0000
0200
0300
0000
0000
0000
0000
0000
0000
0000
0000
0000
0000
0000
0000
0000
0000
0000
0000
0000
0000
0000
0000
0000
0000
0000
0000
0000
0000
0000
0000
0000
0000
0000
0000
0000
0000
0000
0000
0000
0000
0000
0000
0000
0000
0000
0000
0000
0000
0010
0000
0000
0000
0000
0000
0000
0000
0000
0000
0000
0000
0000
0000
0000
0000
0000
0000
0000
0000
0000
0000
0000
0000
0010
0000
0000
0000
0000
0000
0000
0000
0000
0000
0000
0000
0000
0000
0000
0000
0000
0000
0000
0000
0000
0000
0000
0000
0010
0000
0000
0000
0000
0000
0000
0000
0000
0000
0000
0000
0000
0000
0000
0000
0000
0000
0000
0000
0000
0000
0000
0000
,
1000
0000
0000
1000
0000
0000
0001
0000
0100
0000
1000
0000
0100
0000
0010
0000
,
1000
0000
0000
0001
0000
0000
1000
0000
0100
0000
0010
0000
0100
0000
1000
0000
,
0001
0000
0000
0001
0000
0000
1000
0000
0100
0000
0010
0000
1000
0000
0010
0000
,
0001
0000
0000
0100
0000
0000
0010
0000
0100
0000
0001
0000
1000
0000
0000
0000
,
0010
0000
0000
0010
0000
0000
0100
0000
0001
0000
1000
0000
0100
0000
0010
0000
,
0001
0000
0000
1000
0000
0000
0001
0000
0010
0000
0100
0000
0020
0000
0001
0000
,
0032
1000
2003
0010
3020
0100
0130
0001
,
1000
0000
0001
0100
0000
0001
0010
0000
0000
0100
0000
0000
,
1100
0101
1100
0101
,
0001
0010
0100
1000
0010
0000
0100
0000
,
0001
1000
0001
0000
1000
0001
1000
0000
,
0010
0100
0010
0100
0001
0000
0010
0000
,
0011
1010
0011
1010
,
1000
0010
0100
0001
0010
0000
0200
0000
,
2300
3020
0230
0302
,
0023
0230
2300
3020
,
0130
0001
0100
0001
1000
0100
1000
0100
,
0020
0030
0000
0000
0000
0000
0000
0000
0000
0000
0000
0000
0000
0000
0000
0000
0000
0000
0000
0000
0000
0000
0000
0000
0000
0000
0000
0000
0000
0000
0000
0000
0000
0000
0000
0000
0000
0000
0000
0000
0000
0000
0000
0000
0000
0000
0000
0000
0100
0000
0000
0000
0000
0000
0000
0000
0000
0000
0000
0000
0000
0000
0000
0000
0000
0000
0000
0000
0000
0000
0000
0000
0000
0000
0000
0000
0000
0000
0000
0000
0000
0000
0000
0000
0000
0000
0000
0000
0000
0000
0000
0000
0000
0000
0000
0000
2001
0000
0000
0000
0000
0000
0000
0000
0000
0000
0000
0000
0000
0000
0000
0000
0000
0000
0000
0000
0000
0000
0000
0000
0000
0000
0000
0000
0000
0000
0000
0000
0000
0000
0000
0000
0000
0000
0000
0000
0000
0000
0000
0000
0000
0000
0000
0000
3001
0000
0000
0000
0000
0000
0000
0000
0000
0000
0000
0000
0000
0000
0000
0000
0000
0000
0000
0000
0000
0000
0000
0000
0100
0000
0000
0000
0000
0000
0000
0000
0000
0000
0000
0000
0000
0000
0000
0000
0000
0000
0000
0000
0000
0000
0000
0000
,
1000
0000
0100
0000
0010
1000
0100
0010
,
0001
0000
0011
0000
0020
0100
0130
0000
,
2000
0000
0000
0000
0000
0000
0000
0000
0000
0000
0000
0000
0000
0000
0000
0000
0000
0000
0000
0000
0000
0000
0000
0000
0001
0000
0000
0000
0000
0000
0000
0000
0000
0000
0000
0000
0000
0000
0000
0000
0000
0000
0000
0000
0000
0000
0000
0000
3001
0000
0000
0000
0000
0000
0000
0000
0000
0000
0000
0000
0000
0000
0000
0000
0000
0000
0000
0000
0000
0000
0000
0000
0000
0000
0000
0000
0000
0000
0000
0000
0000
0000
0000
0000
0000
0000
0000
0000
0000
0000
0000
0000
0000
0000
0000
0000
0002
0000
0000
0000
0000
0000
0000
0000
0000
0000
0000
0000
0000
0000
0000
0000
0000
0000
0000
0000
0000
0000
0000
0000
1000
0000
0000
0000
0000
0000
0000
0000
0000
0000
0000
0000
0000
0000
0000
0000
0000
0000
0000
0000
0000
0000
0000
0000
1003
0000
0000
0000
0000
0000
0000
0000
0000
0000
0000
0000
0000
0000
0000
0000
0000
0000
0000
0000
0000
0000
0000
0000
2200
3300
0000
0000
0000
0000
0000
0000
0000
0000
0000
0000
0000
0000
0000
0000
0000
0000
0000
0000
0000
0000
0000
0000
,
0000
0010
0010
0010
0200
0000
0310
0100
,
0001
1000
0100
0010
0011
0000
1001
0000
,
1100
0000
1000
0010
0200
0000
0001
0000
,
0301
0010
0200
0000
1300
0010
0001
0010
,
2000
0000
3001
0000
0001
0010
0100
1000
,
0010
0100
0010
1000
0001
0000
0011
0000
,
1100
0000
0110
0000
1001
0000
1000
0010
,
0100
0000
0110
0000
1001
0000
0001
0010
,
0100
0010
0001
1000
0010
0000
0100
0001
,
0010
0000
0000
0000
0000
0000
0000
0000
0000
0000
0000
0000
0000
0000
0000
0000
0000
0000
0000
0000
0000
0000
0000
0000
0000
0000
0000
0000
0000
0000
0000
0000
0000
0000
0000
0000
0000
0000
0000
0000
0000
0000
0000
0000
0000
0000
0000
0000
0110
0000
0000
0000
0000
0000
0000
0000
0000
0000
0000
0000
0000
0000
0000
0000
0000
0000
0000
0000
0000
0000
0000
0000
0000
0000
0000
0000
0000
0000
0000
0000
0000
0000
0000
0000
0000
0000
0000
0000
0000
0000
0000
0000
0000
0000
0000
0000
1001
0000
0000
0000
0000
0000
0000
0000
0000
0000
0000
0000
0000
0000
0000
0000
0000
0000
0000
0000
0000
0000
0000
0000
0000
0000
0000
0000
0000
0000
0000
0000
0000
0000
0000
0000
0000
0000
0000
0000
0000
0000
0000
0000
0000
0000
0000
0000
0001
0000
0000
0000
0000
0000
0000
0000
0000
0000
0000
0000
0000
0000
0000
0000
0000
0000
0000
0000
0000
0000
0000
0000
2000
3000
0000
0000
0000
0000
0000
0000
0000
0000
0000
0000
0000
0000
0000
0000
0000
0000
0000
0000
0000
0000
0000
0000
,
0000
0100
0100
0100
0010
0000
0010
0000
,
0001
0100
1000
0100
0001
1000
0010
0100
,
0001
0000
0000
0010
0000
0000
0100
0000
0000
0000
0100
0000
1000
0000
0100
0000
,
0001
0000
0000
0000
0000
0000
0000
0000
0000
0000
0000
0000
0000
0000
0000
0000
0000
0000
0000
0000
0000
0000
0000
0000
1000
0000
0000
0000
0000
0000
0000
0000
0000
0000
0000
0000
0000
0000
0000
0000
0000
0000
0000
0000
0000
0000
0000
0000
0001
0000
0000
0000
0000
0000
0000
0000
0000
0000
0000
0000
0000
0000
0000
0000
0000
0000
0000
0000
0000
0000
0000
0000
0100
0000
0000
0000
0000
0000
0000
0000
0000
0000
0000
0000
0000
0000
0000
0000
0000
0000
0000
0000
0000
0000
0000
0000
1000
0000
0000
0000
0000
0000
0000
0000
0000
0000
0000
0000
0000
0000
0000
0000
0000
0000
0000
0000
0000
0000
0000
0000
0010
0000
0000
0000
0000
0000
0000
0000
0000
0000
0000
0000
0000
0000
0000
0000
0000
0000
0000
0000
0000
0000
0000
0000
0100
0000
0000
0000
0000
0000
0000
0000
0000
0000
0000
0000
0000
0000
0000
0000
0000
0000
0000
0000
0000
0000
0000
0000
2000
3000
0000
0000
0000
0000
0000
0000
0000
0000
0000
0000
0000
0000
0000
0000
0000
0000
0000
0000
0000
0000
0000
0000
,
0000
0100
0100
0100
0001
0000
1001
0000
,
0001
0100
0010
0001
1000
0100
0010
0100
,
0001
0000
0000
0010
0000
0000
0100
0000
0000
0000
1000
0000
0100
0000
0001
0000
,
0100
1000
0010
1000
0100
1000
0010
0001
,
0010
1000
1010
0101
,
0011
0000
1100
0000
1000
0010
0100
0001
,
2000
0000
3010
0000
0010
0100
0001
0000
,
0001
0010
0100
0000
0100
1000
0001
0010
,
1000
0010
0011
1100
,
1010
0000
0101
0000
0001
0100
0010
1000
,
0001
0020
0230
2300
,
3020
0230
0302
0023
,
0230
0000
2300
0000
3010
0100
0010
0100
,
0001
0010
0001
0010
2000
0000
3020
0000
,
0032
2003
0000
3002
,
0000
0000
0203
0000
0000
0310
1000
0100
,
1000
0010
0001
0000
0110
0000
1001
0000
,
0001
0000
0020
0100
0130
0000
2000
0010
,
3010
0000
0000
0000
0000
0000
0000
0000
0000
0000
0000
0000
0000
0000
0000
0000
0000
0000
0000
0000
0000
0000
0000
0000
0000
0000
0000
0000
0000
0000
0000
0000
0000
0000
0000
0000
0000
0000
0000
0000
0000
0000
0000
0000
0000
0000
0000
0000
0200
0000
0000
0000
0000
0000
0000
0000
0000
0000
0000
0000
0000
0000
0000
0000
0000
0000
0000
0000
0000
0000
0000
0000
0001
0000
0000
0000
0000
0000
0000
0000
0000
0000
0000
0000
0000
0000
0000
0000
0000
0000
0000
0000
0000
0000
0000
0000
0301
0000
0000
0000
0000
0000
0000
0000
0000
0000
0000
0000
0000
0000
0000
0000
0000
0000
0000
0000
0000
0000
0000
0000
0202
0303
0000
0000
0000
0000
0000
0000
0000
0000
0000
0000
0000
0000
0000
0000
0000
0000
0000
0000
0000
0000
0000
0000
0000
0000
0000
0000
0000
0000
0000
0000
0000
0000
0000
0000
0000
0000
0000
0000
0000
0000
0000
0000
0000
0000
0000
0000
0010
0000
0000
0000
0000
0000
0000
0000
0000
0000
0000
0000
0000
0000
0000
0000
0000
0000
0000
0000
0000
0000
0000
0000
,
0010
0010
2000
0000
3001
0010
0100
1000
,
0010
0100
0101
0000
1001
0000
1100
0000
,
1000
0100
0002
0000
0100
0000
0103
1000
,
0020
0000
0130
0001
0010
0100
2000
0001
,
0100
3001
0102
0000
1003
0100
1000
0010
,
0100
0010
1010
0000
1001
0000
0101
0000
,
1000
0001
0020
0100
0130
1000
0002
0100
,
0103
0000
0000
0000
0000
0000
0000
0000
0000
0000
0000
0000
0000
0000
0000
0000
0000
0000
0000
0000
0000
0000
0000
0000
0010
0000
0000
0000
0000
0000
0000
0000
0000
0000
0000
0000
0000
0000
0000
0000
0000
0000
0000
0000
0000
0000
0000
0000
2000
0000
0000
0000
0000
0000
0000
0000
0000
0000
0000
0000
0000
0000
0000
0000
0000
0000
0000
0000
0000
0000
0000
0000
0010
0000
0000
0000
0000
0000
0000
0000
0000
0000
0000
0000
0000
0000
0000
0000
0000
0000
0000
0000
0000
0000
0000
0000
3010
0000
0000
0000
0000
0000
0000
0000
0000
0000
0000
0000
0000
0000
0000
0000
0000
0000
0000
0000
0000
0000
0000
0000
0200
0300
0000
0000
0000
0000
0000
0000
0000
0000
0000
0000
0000
0000
0000
0000
0000
0000
0000
0000
0000
0000
0000
0000
0000
0000
0000
0000
0000
0000
0000
0000
0000
0000
0000
0000
0000
0000
0000
0000
0000
0000
0000
0000
0000
0000
0000
0000
0001
0000
0000
0000
0000
0000
0000
0000
0000
0000
0000
0000
0000
0000
0000
0000
0000
0000
0000
0000
0000
0000
0000
0000
,
0001
0001
1000
0000
1000
0100
0001
0100
,
1000
0010
0001
0010
0100
0001
2000
0000
,
3010
0100
0001
0010
0001
0100
0010
0001
,
0010
0100
0001
0010
0100
1000
0002
0000
,
0100
0000
0103
0010
1000
0010
0100
1000
,
0100
0001
0010
0000
0011
0000
0110
0000
,
1100
1001
1010
0110
,
0101
1001
0011
1001
,
1100
0000
0000
1001
0000
0001
0100
0000
1000
0100
0000
0001
,
0010
0000
1000
0010
0000
0000
0110
0000
0000
1001
0000
0000
;

//--------------- dance-single - ----------------
#NOTES:
     dance-single:
     :
     Hard:
     15:
     0,0,0,0,0:
0000
0000
0000
0000
,
0000
0000
0000
0000
,
0000
0000
0000
0000
,
1000
0000
0000
0001
0100
0000
0010
0000
0100
0000
0001
1000
0001
0000
0010
0000
,
0100
0000
0000
1000
0010
0000
0100
0000
0010
0000
1000
0000
0001
0000
0010
0100
,
0010
0000
0001
1000
0000
0000
0001
0000
0100
0000
0001
0000
0010
0000
0100
0000
,
1000
0000
0001
0100
0000
0100
0001
0000
0011
0000
0010
0000
1100
0000
1000
0010
,
1000
0000
0000
0010
0100
0000
0001
0000
1000
0000
0001
0100
0001
0000
0010
0000
,
0100
0000
0000
0010
0001
0000
1000
0000
0010
0000
0100
0010
1000
0000
0001
0000
,
0101
1000
1100
0001
0101
1000
1100
0010
,
1001
1001
1001
1001
0001
0010
0100
1000
,
0010
0000
0010
0100
0101
0000
1001
0000
,
0110
0000
0000
0000
1000
0000
0001
0000
0010
0000
0100
1000
0001
0000
0100
0000
,
0110
0000
1000
0001
0101
0000
1010
0000
,
0110
0000
0001
1000
0000
1100
1100
1100
,
1100
0000
0000
0001
0100
0000
0001
0000
1000
0000
0100
0000
0001
0000
0100
0000
,
1000
0000
0000
0010
0100
0000
0001
0000
1000
0000
0001
0000
0100
0000
0001
0010
,
0100
0000
0000
0010
0000
0000
0010
0000
0001
0000
1000
0000
0010
0000
0001
0000
,
0010
0000
1000
0100
1000
0000
0010
0000
0100
0000
0001
0000
1000
0000
0000
0000
,
0011
0000
0000
0010
0100
0000
0010
0000
0001
0000
1000
0100
1000
0000
0010
0000
,
0100
0000
0001
1000
0000
0000
0001
0000
0010
0000
0100
0000
1000
0000
0002
0000
,
0100
2003
0010
3002
0100
2003
0010
3001
,
1000
0100
1000
0001
0100
0001
1000
0000
0000
2001
0000
0000
,
3001
0010
0000
0000
0010
0100
0000
0000
1000
0010
0000
0000
0010
0100
0000
0000
,
0001
1000
0000
0000
1000
0100
0000
0000
0120
0000
0000
0000
0230
0000
0000
0000
,
1300
0010
1000
0100
1000
0001
0100
0001
,
0010
0001
0010
0100
1000
0000
1100
0000
,
1000
0010
0000
0000
0010
0100
0000
0000
0001
0010
0000
0000
0010
0100
0000
0000
,
1000
0001
0000
0000
0100
0010
0000
0000
0210
0000
0000
0000
0302
0000
0000
0000
,
2003
0100
3020
0100
2030
0001
3200
1000
,
0302
0010
2003
0001
3020
1000
0032
0100
,
1003
0001
1000
0001
0100
0010
0100
0010
,
2000
3000
0000
0000
0000
0000
0000
0000
0000
0000
0000
0000
0000
0000
0000
0000
0100
0000
0000
0000
0000
0000
0000
0000
0000
0000
0000
0000
0000
0000
0000
0000
1000
0000
0000
0000
0000
0000
0000
0000
0000
0000
0000
0000
0000
0000
0000
0000
0001
0000
0000
0000
0000
0000
0000
0000
0000
0000
0000
0000
0000
0000
0000
0000
0100
0000
0000
0000
0000
0000
0000
0000
0000
0000
0000
0000
0000
0000
0000
0000
0001
0000
0000
0000
0000
0000
0000
0000
0000
0000
0000
0000
0000
0000
0000
0000
0020
0000
0000
0000
0000
0000
0000
0000
0000
0000
0000
0000
0000
0000
0000
0000
0000
0000
0000
0000
0000
0000
0000
0000
0000
0000
0000
0000
0000
0000
0000
0000
0000
0000
0000
0000
0000
0000
0000
0000
0000
0000
0000
0000
0000
0000
0000
0000
0130
0000
0000
0000
0000
0000
0000
0000
0000
0000
0000
0000
0000
0000
0000
0000
0000
0000
0000
0000
0000
0000
0000
0000
1000
0000
0000
0000
0000
0000
0000
0000
0000
0000
0000
0000
0000
0000
0000
0000
0000
0000
0000
0000
0000
0000
0000
0000
,
0100
0000
1000
0100
0010
0000
0100
0000
1100
0000
0001
0000
0101
0000
1000
0000
,
1100
0000
1001
0000
0002
0100
0103
0010
,
2000
0100
3100
0010
0002
0100
0103
0020
,
0000
0000
0100
0000
0130
0000
0010
0000
1001
0000
0000
0000
1000
0000
0001
0100
,
0010
0100
0001
1000
1010
0001
0011
1000
,
1010
0000
0000
0000
0001
0000
1000
0100
1000
0000
0010
0000
0100
0000
0001
0100
,
0001
0000
0010
0000
0100
0000
1000
0100
1000
0000
0001
0100
0001
0000
0010
0000
,
0110
0000
0000
0000
1001
0000
1000
0000
0010
0000
1000
0100
0010
0000
0100
1000
,
0001
0000
1000
0010
0100
0000
0001
0000
0101
0000
0000
0000
0011
0000
0000
0000
,
1100
0000
0110
0000
1001
0000
0001
0010
,
0011
0000
1100
0000
1001
0000
1000
0010
,
0100
0000
0001
1000
0100
0000
1000
0000
1100
0000
0000
0000
1000
0000
0010
0000
,
1010
0000
0101
0000
1001
0000
0001
0010
,
0000
0110
0110
0110
1001
0000
1001
0000
,
0001
0000
0100
0000
1000
0000
0100
0000
0001
0000
1000
0100
0010
0000
0100
0000
,
1000
0000
0000
1000
0000
0000
0100
0000
0000
0000
1000
0000
0001
0100
0000
0001
,
0010
0000
0100
1000
0001
0000
0100
0000
0010
0000
0100
0001
1000
0000
0100
0000
,
0000
1100
1100
1100
1001
0000
1001
0000
,
0001
0000
1000
0000
0010
0000
0100
0010
0100
0000
0001
1000
0001
0000
0010
0000
,
0100
0000
1000
0010
0000
0100
0001
0000
1000
0000
0001
0010
0100
0000
0010
0000
,
0001
0000
1000
0010
0100
0000
0010
0000
1000
0000
0001
0010
0100
0000
1000
0000
,
0002
0000
0000
0000
0203
0000
0000
0000
0310
1000
0000
0000
1000
0100
0000
0000
,
0010
0001
0000
0000
0001
0100
0000
0000
0010
1000
0000
0000
0001
0100
0000
0000
,
0101
0000
2010
0000
3001
0010
1000
0010
,
0001
0100
1000
0100
0001
0010
1000
0001
,
0200
0000
0000
0000
2300
0000
0000
0000
3010
0100
0000
0000
0100
0001
0000
0000
,
0010
0100
0000
0000
0100
1000
0000
0000
0001
0100
0000
0000
0010
0100
0000
0000
,
0001
0000
0020
0000
0230
1000
0320
0100
,
0032
0010
2003
0001
3200
1000
0320
0100
,
0032
0100
2003
0001
3010
0100
0010
0100
,
0001
0000
0000
0000
0000
0000
0000
0000
0000
0000
0000
0000
0000
0000
0000
0000
0000
0000
0000
0000
0000
0000
0000
0000
1000
0000
0000
0000
0000
0000
0000
0000
0000
0000
0000
0000
0000
0000
0000
0000
0000
0000
0000
0000
0000
0000
0000
0000
0001
0000
0000
0000
0000
0000
0000
0000
0000
0000
0000
0000
0000
0000
0000
0000
0000
0000
0000
0000
0000
0000
0000
0000
1000
0000
0000
0000
0000
0000
0000
0000
0000
0000
0000
0000
0000
0000
0000
0000
0000
0000
0000
0000
0000
0000
0000
0000
0200
0300
0000
0000
0000
0000
0000
0000
0000
0000
0000
0000
0000
0000
0000
0000
1000
0000
0000
0000
0000
0000
0000
0000
0000
0000
0000
0000
0000
0000
0000
0000
0001
0000
0000
0000
0000
0000
0000
0000
0000
0000
0000
0000
0000
0000
0000
0000
0010
0000
0000
0000
0000
0000
0000
0000
0000
0000
0000
0000
0000
0000
0000
0000
0100
0000
0000
0000
0000
0000
0000
0000
0000
0000
0000
0000
0000
0000
0000
0000
1000
0000
0000
0000
0000
0000
0000
0000
0000
0000
0000
0000
0000
0000
0000
0000
,
0001
0000
0000
0000
0100
0000
0000
0000
0020
0000
0000
0000
0200
0000
0000
0000
0000
0000
0000
0000
0000
0000
0000
0000
0030
0000
0000
0000
0000
0000
0000
0000
0000
0000
0000
0000
0301
0000
0000
1000
0000
0000
0001
0000
0000
1000
0000
0000
,
0001
1000
0001
1000
0020
0000
0000
0000
1030
0000
0100
0000
1000
0000
0001
1000
,
0100
0000
1000
0000
1100
0000
0100
1000
0001
0000
0100
0001
0010
0000
0100
0000
,
1000
0001
0102
1000
1003
0100
2100
0001
,
3001
0100
0210
0001
0301
1100
0000
1001
,
1001
0000
1001
0000
0110
0000
0000
0000
0001
0000
0100
0000
0010
0000
1000
0001
,
0010
0000
0100
0000
1100
0000
1000
0001
0100
0000
0010
1000
0001
0000
0010
0000
,
0100
0000
1000
0000
0001
0000
0100
0010
0100
0000
0001
0000
1000
0000
0100
0010
,
0100
0000
1000
0000
0001
0000
1000
0010
0100
0000
0010
1000
0001
0000
0011
0000
,
0110
0000
1100
0000
2001
0000
0000
0000
3001
0000
0100
0000
1000
0000
0100
0010
,
0100
0000
0001
0000
0010
0000
1000
0010
0100
0000
1000
0010
0100
0000
1000
0000
,
0100
0001
0012
0100
0103
0010
2010
0100
,
3100
0010
1002
0100
0103
0110
0000
1001
,
1001
0000
1001
0000
0210
0000
0000
0000
0301
0000
1000
0100
0010
0000
0100
0000
,
1000
0000
0001
0000
1000
0010
1000
0010
0100
0001
0100
0001
0020
0000
0000
0000
,
0130
0000
1000
0000
0001
0000
0100
1000
0100
0000
0001
0000
1000
0000
0100
0001
,
0100
0000
1000
0000
0001
0000
0100
0010
0100
0000
0001
1000
0001
0000
0010
0000
,
0100
0000
1000
0000
0001
0000
1000
0100
1000
0000
0010
0100
0010
0000
0100
0001
,
0100
0000
0001
0010
0100
0000
0000
0000
1100
0000
0000
0000
0011
0000
0000
0000
,
1001
0010
0110
0000
1010
0000
0101
0000
,
1010
0100
0011
0000
1001
0000
0110
0000
,
1001
0000
0000
0001
0100
1000
0100
0010
0100
0001
1000
0100
,
0001
0100
1000
0010
0000
0000
0110
0000
0000
1001
0000
0000
;

//--------------- dance-single - ----------------
#NOTES:
     dance-single:
     :
     Challenge:
     17:
     0.727341,0.817921,0.253844,0,0.137801,702,667,35,0,0,0,0.727341,0.817921,0.253844,0,0.137801,702,667,35,0,0,0:
0000
0000
0000
0000
,
0000
0000
0000
0000
,
0000
0000
0000
0000
,
0101
0000
0001
0010
0100
0000
0100
0010
0001
0010
0100
1000
0001
0100
0010
0100
,
0010
0000
0010
1000
0000
1000
0100
0010
0001
0010
0100
1000
0001
0000
1000
0010
,
0100
0000
0100
0010
0000
0010
1000
0000
1001
0000
0001
0010
0100
0000
1000
0000
,
0101
0000
0100
0001
1000
0000
1000
0100
0010
0100
1000
0010
0001
0000
0010
1000
,
0100
0000
0100
0010
0000
0010
0001
0000
0001
1000
0010
1000
0001
0010
0100
1000
,
0010
0000
0010
1000
0010
0100
0010
0001
0010
1000
0100
0010
0001
0000
0011
0000
,
2100
0001
3100
1010
0102
1000
0103
0010
,
0110
0000
0000
0110
0000
0000
0110
0000
0000
0110
0000
0000
1001
0000
0000
1000
0000
0000
0001
0010
0100
1000
0001
0010
,
0200
0000
0000
0000
1300
0000
0001
0000
0110
0000
0000
0000
1001
0000
1000
0010
,
0200
0000
0000
0000
0000
0000
0301
0000
0000
0010
0000
0000
0100
0000
0000
1000
0010
1000
0010
0000
0000
0100
0000
0000
,
0101
0000
0000
0000
0001
0000
0010
0000
1100
0000
0000
0000
1001
0000
0001
0100
,
0010
0000
1000
0000
0001
0000
0110
0000
0000
0000
1001
0000
1001
0000
0001
0010
,
0100
0000
0000
0100
1000
0000
0100
0000
0010
0000
0100
1000
0010
0000
0100
0001
,
0010
0000
0000
0100
1000
0000
0010
0000
0100
0000
0100
0001
1000
0000
0100
0010
,
0100
0000
0000
1000
0001
0000
0100
0000
0010
0000
1000
0001
0010
0000
0100
0000
,
0010
0000
0001
0100
0010
1000
0100
1000
0010
0100
0001
0010
1000
0000
0001
0100
,
0010
0000
0001
0100
0000
0100
0010
0000
1000
0000
0001
0100
0010
0000
0100
0000
,
1000
0000
0100
0001
0010
0000
1000
0000
0001
0000
0100
0000
1000
0000
1100
0000
,
0012
1000
0013
0101
2010
0001
3010
0100
,
0001
0000
0000
0000
0010
0000
0000
0000
0100
0000
0000
0000
0001
0000
0000
0000
0100
0000
0000
0000
1000
0000
0000
0000
0010
0000
0000
0001
0000
0000
0010
0000
0000
1000
0000
0000
0100
0000
0010
0000
0001
0000
1000
0000
0100
0000
0010
0000
,
0001
1000
0000
0000
1000
0010
0000
0000
0010
0100
0000
0000
0100
0001
0000
0000
,
0001
1000
0000
0000
1000
0000
0100
0000
0020
0000
0000
0000
0130
0000
0000
0000
,
1100
1000
0010
0100
0101
0001
0010
0100
,
1100
0000
1000
0000
1001
0000
0001
0000
0101
0000
0000
0000
0001
1000
0001
1000
,
0001
0010
0000
0000
0010
0100
0000
0000
0100
1000
0000
0000
1000
0010
0000
0000
,
0010
0100
0000
0000
0100
0001
0000
0000
0001
0010
0100
1000
0010
0000
0100
0000
,
0101
0000
0001
0100
0001
0000
0001
1000
0001
0000
0001
0010
0001
0000
0010
0000
,
1100
0000
1000
0100
1000
0000
1000
0001
1000
0000
1000
0010
1000
0000
0100
0000
,
0110
0100
0101
0100
1100
0100
0110
0100
,
2002
3003
0000
0000
0000
0000
0000
0000
0000
0000
0000
0000
0000
0000
0000
0000
0100
0000
0000
0000
0000
0000
0000
0000
0000
0000
0000
0000
0000
0000
0000
0000
0010
0000
0000
0000
0000
0000
0000
0000
0000
0000
0000
0000
0000
0000
0000
0000
0100
0000
0000
0000
0000
0000
0000
0000
0000
0000
0000
0000
0000
0000
0000
0000
0001
0000
0000
0000
0000
0000
0000
0000
0000
0000
0000
0000
0000
0000
0000
0000
1000
0000
0000
0000
0000
0000
0000
0000
0000
0000
0000
0000
0000
0000
0000
0000
0100
0000
0000
0000
0000
0000
0000
0000
0000
0000
0000
0000
0000
0000
0000
0000
0000
0000
0000
0000
0000
0000
0000
0000
0100
0000
0000
0000
0000
0000
0000
0000
0000
0000
0000
0000
1000
0000
0000
0000
0000
0000
0000
0000
0000
0000
0000
0000
0001
0000
0000
0000
0000
0000
0000
0000
0000
0000
0000
0000
0000
0000
0000
0000
0000
0000
0000
0000
0000
0000
0000
0000
0100
0000
0000
0000
0000
0000
0000
0000
0000
0000
0000
0000
0000
0000
0000
0000
0000
0000
0000
0000
0000
0000
0000
0000
,
1000
0000
0100
0001
0010
0000
0100
0000
1000
0010
0100
1000
0001
0010
0100
0001
,
0010
0000
0000
0100
0000
0000
1000
0100
0010
0001
1000
0100
0010
0000
0000
0011
0000
0000
0011
0000
0000
0010
0000
0000
,
0100
1100
1100
0100
0010
1001
1001
0110
,
0000
0000
0110
0000
0110
0000
0110
0000
1001
0000
0000
0000
0101
0000
0001
0100
,
0010
0000
0001
0000
0010
0000
1000
0100
0010
0000
1000
0010
0100
0000
1000
0010
,
0001
0000
0010
0000
0100
0000
0001
0000
1000
0000
0100
0000
0010
0000
1000
0001
,
0100
0000
1000
0000
0010
0000
0001
1000
0100
0000
0010
0000
0101
0000
0010
0000
,
1100
0000
0000
0000
0000
0000
1000
0000
0000
0000
0000
0000
0001
0000
0010
0000
0100
0000
1000
0000
0001
0000
0010
0000
0100
0000
0000
1000
0000
0000
0001
0000
0000
0010
0000
0000
0001
0000
0000
1000
0000
0000
0100
0000
0000
0010
0000
0000
,
0001
1000
0100
1000
0001
0010
0100
1000
0010
0000
0000
0000
0110
0000
0000
0000
,
0101
0000
0000
0000
0000
0000
0001
0010
0100
1000
0001
0010
0200
0000
0000
0000
0000
0000
1300
0000
0000
0001
0000
0000
,
1100
0000
0000
0000
1001
0000
1000
0010
0200
0000
0000
0000
0301
0000
1000
0000
,
0010
0000
0000
0100
0001
0100
0001
0000
0000
1000
0000
0000
1100
0000
0000
0000
0000
0000
0001
0000
0000
1000
0000
0000
,
0101
0000
0000
0000
1001
0000
0001
0010
0100
0000
0010
0000
0001
0000
0110
0000
,
0000
1001
1001
1001
0110
0000
0110
0000
,
0101
0000
0010
0000
1000
0000
0100
0000
0001
0000
0100
0010
0001
0100
0000
0100
,
0020
0000
0000
1000
0000
0000
0130
0000
0001
0000
0010
0100
0001
0100
0010
0001
,
1000
0000
0010
0000
0100
0000
0001
0010
0100
0000
1000
0000
0001
0000
0100
0000
,
0000
0000
0110
0000
0110
0000
0110
0000
1001
0000
0000
0001
0100
0000
0000
1000
,
0100
0000
0010
0000
1000
0100
0010
0100
1000
0000
1000
0010
0100
0000
0010
0000
,
0100
0001
0100
0001
0010
0000
0100
0000
1000
0000
0001
0100
1000
0000
0100
0000
,
0010
0000
1000
0100
0001
0000
0100
0000
1000
0010
0100
0010
1000
0100
0010
0000
,
0100
0000
0000
0000
0000
0000
1000
0000
0000
0000
0000
0000
0001
0000
0010
0000
0100
0000
1000
0000
0001
0000
0010
0000
0100
0000
0000
1000
0000
0000
0000
0000
0000
0000
0000
0000
1000
0000
0000
0010
0000
0000
0000
0000
0000
0000
0000
0000
,
0010
0100
0000
0000
0100
0001
0000
0000
0001
1000
0000
0000
1000
0100
0000
0000
,
0110
0000
1001
0010
0101
0100
0001
0010
,
1100
0100
1000
0010
0101
0001
1100
1000
,
1002
0000
0000
0000
0103
0010
0100
0010
1000
0001
0000
0000
0001
0010
0000
0000
,
0010
0100
0000
0000
0100
1000
0000
0000
1000
0010
0000
0000
0010
0001
0000
0000
,
0001
0000
0010
0000
1000
0000
0000
0000
1010
0000
1000
0010
1000
0000
1000
0001
,
1000
0000
1000
0100
1000
0000
0100
0000
0011
0000
0001
0010
0001
0000
0001
1000
,
0001
0000
0001
0100
0001
0000
0100
0000
1010
0000
0010
0000
0110
0000
0010
0000
,
0011
0000
0000
0000
0000
0000
0000
0000
0000
0000
0000
0000
0000
0000
0000
0000
0000
0000
0000
0000
0000
0000
0000
0000
0010
0000
0000
0000
0000
0000
0000
0000
0000
0000
0000
0000
0000
0000
0000
0000
0000
0000
0000
0000
0000
0000
0000
0000
0110
0000
0000
0000
0000
0000
0000
0000
0000
0000
0000
0000
0000
0000
0000
0000
0000
0000
0000
0000
0000
0000
0000
0000
0010
0000
0000
0000
0000
0000
0000
0000
0000
0000
0000
0000
0000
0000
0000
0000
0000
0000
0000
0000
0000
0000
0000
0000
2002
3003
0000
0000
0000
0000
0000
0000
0000
0000
0000
0000
0000
0000
0000
0000
1000
0000
0000
0000
0000
0000
0000
0000
0000
0000
0000
0000
0000
0000
0000
0000
0001
0000
0000
0000
0000
0000
0000
0000
0000
0000
0000
0000
0000
0000
0000
0000
0100
0000
0000
0000
0000
0000
0000
0000
0000
0000
0000
0000
0000
0000
0000
0000
0010
0000
0000
0000
0000
0000
0000
0000
0000
0000
0000
0000
0000
0000
0000
0000
1000
0000
0000
0000
0000
0000
0000
0000
0000
0000
0000
0000
0000
0000
0000
0000
,
0001
0000
0000
0000
0010
0000
0000
0000
0002
0000
0000
0000
2000
0000
0000
0000
0000
0000
0000
0000
0000
0000
0000
0000
0003
0000
0000
0000
0000
0000
0000
0000
0000
0000
0000
0000
3010
0000
0000
0100
0000
0000
0010
0000
0000
0100
0000
0000
,
0010
0100
0010
0100
0001
0000
1000
0100
0001
0000
0100
0000
1000
0001
0100
1000
,
0100
0010
1000
0010
0100
0010
1000
0001
1000
0100
0001
0100
1000
0000
0001
0000
,
0010
0100
1000
0001
0010
0100
1000
0000
0000
1100
0000
0000
1100
0000
0000
1000
0000
0000
0001
0000
0000
0101
0000
0000
,
0101
0100
0010
0110
0110
1001
0000
1001
,
1001
0000
1001
0000
0110
0000
0000
0000
1000
0000
0001
0010
1000
0000
0010
0100
,
0010
0001
0010
0100
0001
0100
0010
0100
1000
0010
0100
1000
0100
0010
0100
0001
,
1000
0000
0100
0000
1100
0000
1000
0010
0100
0000
0010
1000
0001
0000
0010
0100
,
1000
0000
0001
0000
0100
0001
0010
0100
0010
1000
0010
0001
0100
0000
0010
0000
,
1000
0000
0100
0000
0010
0000
0001
0000
1000
0000
0100
0000
0010
0000
0000
0000
0000
0000
0001
0000
0000
1000
0000
0000
0001
0000
0000
0000
0000
0000
0100
0000
0000
0000
0000
0000
0001
0000
0000
0100
0000
0000
0010
0000
0000
1000
0000
0000
,
0010
0100
0001
0010
1000
0010
0001
0100
0010
1000
0001
0010
0100
0000
1100
0000
,
1000
0010
0100
0001
0010
0100
1000
0000
0000
1100
0000
0000
0101
0000
0000
0001
0000
0000
1000
0000
0000
1010
0000
0000
,
0011
0001
0100
0110
1001
0110
0000
1001
,
1001
0000
1001
0000
0110
0000
0000
0000
0010
0000
1000
0010
0100
0010
1000
0010
,
0001
0010
0100
0001
0010
1000
0010
0100
0001
0100
1000
0010
0001
0000
1000
0100
,
0010
0000
1000
0000
0001
0010
0100
1000
0001
0000
0110
0000
1000
0010
0100
0001
,
1000
0000
0110
0000
0001
0010
0100
1000
0010
0100
0001
0010
0100
0000
1000
0000
,
0001
0000
0010
0000
0100
0000
1000
0000
0001
0000
0010
0000
0100
0000
0000
1000
0000
0000
0001
0000
0000
0010
0000
0000
0100
0000
0000
1000
0000
0000
0001
0000
0000
0010
0000
0000
0001
0000
0000
1000
0000
0000
0100
0000
0000
0010
0000
0000
,
0001
1000
0100
1000
0010
0000
0000
0000
0110
0000
0000
0000
1001
0000
0000
0000
,
0001
0010
0100
1000
0100
0010
0001
0000
0000
0000
0000
0000
0011
0000
0000
0000
0000
0000
1100
0000
0000
0000
0000
0000
,
0110
0001
1000
0001
0110
0000
0000
0000
1001
0000
0000
0000
0110
0000
0000
0000
,
1001
0000
0000
0101
1000
0001
1100
0001
1000
0011
1000
0001
,
1010
0001
0100
0110
0000
0000
1001
0000
0000
0110
0000
0000
;
