#TITLE:コンココンコンココンコンコン;
#SUBTITLE:;
#ARTIST:轟はじめ/ReGLOSS;
#TITLETRANSLIT:Knock knock knock;
#SUBTITLETRANSLIT:;
#ARTISTTRANSLIT:Todoroki Hajime;
#GENRE:POP;
#CREDIT:;
#MUSIC:Knock knock knock.ogg;
#BANNER:Knock knock knock.png;
#BACKGROUND:Knock knock knock-bg.png;
#CDTITLE:;
#SAMPLESTART:28.073;
#SAMPLELENGTH:13.913;
#SELECTABLE:YES;
#OFFSET:1.492;
#BPMS:0.000=138.000;
#STOPS:;
#BGCHANGES:3.250=Knock knock knock.avi=1.000=0=0=0=StretchNoLoop====,
99999.000=-nosongbg-=1.000=0=0=0=StretchNoLoop====
#FGCHANGES:;

//--------------- dance-single - ----------------
#NOTES:
     dance-single:
     :
     Medium:
     12:
     0,0,0,0,0:
0000
0000
0000
0000
,
0001
0000
1000
0010
0100
0000
0001
0010
,
0100
0000
1000
0001
2000
3020
0230
0302
,
0013
0000
0100
1000
0001
0000
0010
0001
,
1000
0000
0010
1000
0020
0230
0302
2003
,
3100
0000
0010
0001
1000
0000
0010
1000
,
0001
0000
0010
0100
0020
0032
2003
3020
,
0130
0000
0001
0010
0100
0000
1000
0100
,
0010
0000
0100
1000
0020
0230
0302
2003
,
3010
0100
0010
1000
0001
0100
0001
0010
,
0100
1000
0001
0100
0200
0000
0000
0000
,
0310
1000
0001
0010
0020
0000
0000
0000
,
0130
1000
0001
0100
0200
0000
0000
0000
,
0301
1000
0100
1000
0001
0100
0010
0100
,
0001
0010
0100
1000
0010
0000
0010
0000
,
1010
0000
0000
1001
0000
0000
0101
0000
,
0001
1000
0100
1000
0001
0000
0001
0000
,
1000
0010
0100
0010
1000
1000
1000
0000
,
0001
0010
0100
0010
0001
0001
0001
0000
,
1000
0001
0100
0001
0010
0010
0010
0000
,
0100
1000
0010
0100
0002
0023
0230
2300
,
3001
1000
0010
1000
0100
0100
0100
0000
,
0010
0001
0100
0001
1000
1000
1000
0010
,
0100
0010
1000
0001
0010
0010
0010
0100
,
1000
0000
1010
0000
0000
1010
0000
0000
0000
0000
0101
0000
0000
0101
0000
0000
,
0001
0010
0100
1000
0001
0001
0001
0001
,
0100
0010
1000
0010
0100
0100
0100
0100
,
0001
0010
0100
1000
0010
0010
0010
0010
,
0100
0001
1000
0010
2000
3200
0320
0032
,
1003
0000
0001
0100
0000
0010
0000
0100
0001
0000
1000
0100
0000
0010
0000
0100
,
1000
0000
0001
0010
0000
0100
0000
0010
0001
0000
1000
0010
0000
0100
0000
0001
,
1000
0100
0010
0000
0001
0010
0100
0000
,
0000
0000
0011
0000
0000
0011
0000
0000
0000
0000
1100
0000
0000
1100
0000
0000
,
1000
0100
0010
0001
1000
0010
0100
0001
,
1000
0100
0001
0100
2000
0000
0000
0000
,
3001
0100
1000
0100
0002
0000
0000
0000
,
1003
0100
0001
0100
2000
0000
0000
0000
,
3001
0100
0010
1000
0010
0100
0001
0010
,
0100
1000
0010
0001
0020
0000
0000
0000
,
0130
0001
0010
1000
0020
0000
0000
0000
,
0130
1000
0010
0001
0020
0000
0100
0000
,
0130
0001
0100
0010
1000
1000
1000
0000
,
0001
0010
0100
1000
0010
0010
0010
0000
,
0100
0001
1000
0010
0100
0100
0100
0000
,
0001
0010
0100
1000
0001
0001
0001
0000
,
1000
0010
0100
0010
1000
1000
1000
0000
,
0001
0010
0100
0010
0001
0001
0001
1000
,
1100
0000
0000
0101
0000
0000
1001
0000
,
0001
1000
0010
0100
0110
0000
0110
0000
,
0010
0000
0100
0001
0000
1000
0000
0001
0100
0000
0010
0000
1000
0000
0001
0000
,
0010
0000
0100
1000
0000
0001
0000
1000
0100
0000
0010
0000
0001
0000
0100
0000
,
0001
0000
1000
0010
0000
0100
0000
0010
1000
0000
0001
0000
0100
0000
0000
0000
,
0001
0000
0010
0100
0000
1000
0000
0001
0000
0100
0020
0000
2030
0000
3002
0000
,
0013
0000
0100
1000
0000
0001
0000
1000
0100
0000
1000
0100
0000
0010
0000
0001
,
0100
0000
0001
0100
0000
0010
0000
1000
0100
0000
1000
0100
0000
0010
0000
0001
,
1000
0000
0001
1000
0000
0100
0000
1000
0010
0000
0100
0000
0001
0000
1000
0000
,
0100
0000
1100
0000
0000
1010
0000
0000
0000
0000
0101
0000
0000
0011
0000
0000
,
0100
1000
1100
0000
0001
0100
0101
0000
,
1000
0010
1010
0000
0001
0010
0011
0000
,
0001
0010
0110
0000
0100
1000
1001
0000
,
0001
1000
1010
0000
1001
0000
0101
0000
,
0001
0010
0110
0100
1000
0001
0101
0100
,
0001
1000
1020
0000
0100
0000
0230
0000
,
0302
0000
1003
0100
0001
0100
1000
0000
,
0001
0000
0101
0000
0000
1010
0000
0000
0000
0000
1100
0000
0000
0011
0000
0000
,
0001
0010
0100
1000
0001
1000
0100
0010
,
0001
1000
0010
0100
0002
0000
0100
0000
,
1003
0010
0100
0001
2000
0000
0100
0000
,
3001
0010
0100
1000
0002
0000
0100
0000
,
1003
0010
0100
0001
1000
0001
0010
0100
,
1000
0001
0100
0010
2000
0000
0100
0000
,
3001
0010
0100
1000
0002
0000
0100
0000
,
1003
0010
0100
0001
1000
0100
0010
0000
;

//--------------- dance-single - ----------------
#NOTES:
     dance-single:
     :
     Hard:
     16:
     0,0,0,0,0:
0000
0000
0000
0000
,
0001
0000
0000
1000
0000
0001
0100
0001
0100
0000
0000
0001
0000
1000
0100
0000
,
1000
0000
0001
0100
0000
0001
0010
0100
2000
0000
3200
0000
0320
0000
0032
0000
,
1003
0000
0000
0001
0000
1000
0100
1000
0100
0000
0000
1000
0000
0001
0100
0000
,
0001
0000
1000
0100
0000
1000
0010
0100
0002
0000
0203
0000
0320
0000
2030
0000
,
3001
0000
0000
0010
0000
0100
1000
0100
1000
0000
0000
0001
0000
0100
0001
0000
,
1000
0000
0010
0100
0000
0010
1000
0001
0020
0000
0230
0000
2300
0000
3002
0000
,
0103
0000
0000
0010
0000
1000
0100
1000
0100
0000
0000
0010
0000
0100
1000
0000
,
0001
0000
0100
0010
0000
0100
0001
0010
0200
0000
2300
0000
3002
0000
0203
0000
,
0310
1000
0100
1000
0010
0100
0001
1000
,
0001
0100
1000
0100
0002
1000
0000
1003
,
0100
0001
0100
1000
0200
0010
0000
0310
,
0001
0100
1000
0100
0002
1000
0000
1003
,
0001
0100
0010
0100
0001
1000
0100
0010
,
0100
1000
0010
0001
0010
1000
0001
0010
,
0110
0000
0000
0011
0000
0000
1100
0000
,
0001
0010
0100
1000
0001
0010
0100
1000
0010
0000
0000
0000
0010
0000
0000
0000
,
1000
0000
0001
0100
0000
0010
0000
0100
0001
0000
1000
0000
0001
0000
0000
0000
,
0001
0000
1000
0100
0000
0010
0000
0100
1000
0000
0001
0000
1000
0000
0000
0000
,
1000
0000
0010
0100
0000
0001
0000
0100
0010
0000
1000
0000
0001
0000
0000
0000
,
0001
0000
0010
0100
0000
1000
0000
0100
0010
0001
0000
1000
0010
0000
0100
0000
,
0001
0000
1000
0100
0000
0010
0000
0001
1000
0000
0010
0000
0100
0000
0000
0000
,
0100
0000
0001
0010
0000
0100
0000
1000
0001
0000
0100
0000
0001
0000
0010
0100
,
0000
1000
0000
0001
0100
0000
0010
0000
1000
0001
0000
0010
0000
0100
0000
1000
,
0000
0000
1100
0000
0000
0011
0000
0000
0000
0000
0101
0000
0000
1010
0000
0000
,
1000
0000
0010
0100
0000
1000
0000
0100
0010
0000
1000
0000
0100
0000
0010
0000
,
0001
0000
0010
0100
0000
0001
0000
0100
0010
0000
0001
0000
0010
0000
0100
0000
,
1000
0000
0100
0010
0000
1000
0000
0010
0100
0000
1000
0000
0010
0000
0100
0000
,
0001
0000
0100
0010
0000
0001
0000
0010
1000
0001
0000
0010
0100
0000
1000
0000
,
0001
0000
1000
0100
0000
1000
0000
0100
1000
0000
0001
0100
0000
0001
0000
0100
,
0001
0000
1000
0001
0000
1000
0001
1000
0010
0000
0100
0001
0000
0010
0100
1000
,
0001
0010
0000
0100
1000
0000
0100
1000
0001
0000
0100
0010
0100
0000
0001
0000
,
1000
0000
1010
0000
0000
0101
0000
0000
0000
0000
0011
0000
0000
1100
0000
0000
,
1000
0100
0001
1000
0001
0100
1000
0001
,
0100
1000
0001
0010
2000
0100
0000
0100
,
3001
0010
1000
0001
0200
1000
0000
1000
,
0310
0001
1000
0010
0002
0010
0000
0010
,
0013
1000
0100
0001
1000
0001
0100
1000
,
0001
0100
1000
0001
0020
0100
0000
0100
,
1030
0100
0001
1000
0020
0100
0000
0100
,
0031
0010
1000
0001
0100
1000
0100
0010
,
0001
0000
1000
0001
0000
0100
0000
0001
1000
0000
1000
0000
1000
0000
0000
0000
,
0001
0000
0100
0000
0001
0000
1000
0100
0000
0010
0000
0100
1000
0000
0000
0000
,
0001
0000
1000
0010
0000
0100
0000
0010
1000
0000
1000
0000
1000
0000
0000
0000
,
0001
0000
0010
0000
0100
0000
1000
0001
0000
0100
0000
0001
1000
0000
0000
0000
,
0001
0010
0100
1000
0010
0100
0000
0001
1000
0000
1000
0000
1000
0100
0000
0000
,
1000
0001
0000
0100
0000
0010
0000
0100
0001
0000
0001
0010
0000
0010
0100
0000
,
1000
0010
0000
0100
0000
0000
0001
0010
0000
0100
0000
0000
1000
0010
0000
0100
,
0001
0000
1000
0000
0001
0100
0001
0100
0001
0000
0010
0100
1000
0000
0001
0000
,
0010
0000
0100
0100
0000
1000
0000
0001
0100
0000
0010
1000
0100
0010
0001
0000
,
1000
0000
0010
0010
0000
0100
0000
0001
1000
0100
1000
0100
0010
0001
1000
0000
,
0010
0000
0100
0100
0000
0001
0000
0010
0010
0000
0100
1000
0010
0000
0001
0000
,
0010
0000
0100
0100
0000
0001
0000
0010
0000
0100
0100
0000
1000
0000
0010
0000
,
0100
0000
0001
0001
0000
0010
0000
0100
0100
0000
1000
1000
0000
0010
0000
0100
,
0001
1000
0010
0100
0000
0100
0000
0100
0001
0000
1000
0010
0000
0100
0000
0001
,
0001
0000
1000
1000
0000
0010
0000
0100
0100
0000
0001
0000
1000
0000
0001
0010
,
0100
0000
1100
0000
0000
1001
0000
0000
0100
0000
0101
0000
0000
1001
0000
0000
,
0100
0000
0001
0010
0000
0110
0000
0100
1000
0000
1100
0000
0101
0000
1100
0000
,
0110
0000
0110
0000
1010
0000
0001
1000
0000
1001
0000
0001
0100
0000
0101
0000
,
1010
0000
0010
1000
0000
1010
0000
1001
0000
0001
0100
0000
0101
0000
1010
0000
,
0101
0000
0001
0010
0000
0011
0000
1100
0000
1000
0010
0000
0110
0000
0101
0000
,
1001
0000
1000
0100
0000
0011
0000
1100
0000
1000
0010
0000
0101
0000
1001
0000
,
0011
0000
0100
1000
0000
0110
0000
0001
0100
0000
1010
0000
0101
0000
0001
0010
,
0000
1001
0000
0100
1000
0000
1100
0000
0010
0001
0000
1001
0000
0110
0000
1000
,
0010
0000
0110
0000
0000
0110
0000
0000
0100
0000
1001
0000
0000
1001
0000
0000
,
0001
0000
0010
0000
0100
1000
0000
0010
0000
0100
0000
0001
1000
0000
0100
0000
,
0010
0000
0000
0000
0100
0000
0000
0000
0100
1000
0000
1000
0001
0000
0100
0000
,
0010
0100
0000
0010
0000
1000
0000
0001
0010
0000
0100
0000
1000
0000
0001
0000
,
0100
0000
0000
0000
0100
0000
0000
0000
0001
0010
0000
0010
0100
0000
1000
0000
,
0001
0000
0100
0010
0000
0100
0000
0000
0001
1000
0000
0001
0000
0010
0000
0000
,
0010
0000
0100
1000
0001
0000
0100
0000
1000
0100
0000
0001
0010
0000
0100
0000
,
1000
0100
0010
0001
1000
0000
0010
0000
0100
0001
0010
0100
1000
0000
0010
0000
,
0100
0001
0000
0001
0010
0000
0100
0000
1000
0000
0001
0010
0100
1000
0000
0000
;

//--------------- dance-single - ----------------
#NOTES:
     dance-single:
     :
     Challenge:
     18:
     0,0,0,0,0:
0000
0000
0000
0000
,
0001
0000
0000
1000
0000
0001
0100
0001
0010
0000
0000
0100
1000
0100
1000
0000
,
0010
0100
0001
1000
0000
0001
0010
0001
0020
0000
0230
0000
2300
0000
3002
0000
,
0103
0000
0000
0010
0000
1000
0100
1000
0010
0000
0000
0100
0001
0100
0001
0000
,
1000
0100
1000
0001
0000
0100
0010
0100
0020
0000
2030
0000
3002
0000
0023
0000
,
0130
0000
1000
0010
0000
0100
0001
0100
0010
0000
1000
0001
0010
0001
0010
0000
,
0100
1000
0001
1000
0000
0001
0100
0001
0200
0000
0320
0000
2030
0000
3002
0000
,
0013
0000
0100
1000
0000
1000
0010
1000
0001
0000
0010
0100
0010
0100
1000
0000
,
0001
0100
0001
1000
0000
0100
0010
0100
0020
0000
0032
0000
2003
0000
3020
0000
,
0130
0001
0010
1000
0001
1000
0010
0001
,
1000
0010
0001
1000
0200
0001
0000
0001
,
0301
0010
1000
0001
0200
1000
0000
1000
,
1300
0010
0001
1000
0200
0001
0000
0001
,
0301
0010
0100
1000
0001
0100
0010
1000
,
0001
0000
0010
0000
0100
0000
1000
0000
0010
0000
0100
0000
0010
0000
0100
0001
,
0020
0000
0000
0230
0000
0000
2300
0000
,
3001
0000
0010
0000
0100
0000
1000
0000
0000
0001
0000
0000
0010
0000
0000
0100
0000
0000
1000
0000
0000
0001
0000
0000
0010
0000
0000
0000
0000
0000
0000
0000
0000
0000
0000
0000
0010
0000
0000
0000
0000
0000
0000
0000
0000
0000
0000
0000
,
1100
0000
0101
0101
0000
1001
0000
1010
1010
0000
1001
0000
0011
0000
0000
0000
,
0101
0000
1100
1100
0000
1001
0000
0011
0011
0000
1001
0000
1100
0000
0000
0000
,
1001
0000
0101
0101
0000
0110
0000
1010
1010
0000
1001
0000
0101
0000
0000
0000
,
0011
0000
1100
1100
0000
1001
0000
0101
0001
0010
0000
0100
1000
0000
0001
0000
,
0101
0000
1010
1010
0000
1001
0000
0011
0011
0000
1001
0000
1100
0000
0000
0000
,
1010
0000
0101
0101
0000
1001
0000
1100
1100
0000
0110
0000
0011
0000
1001
1001
,
0000
0101
0000
1100
1100
0000
0011
0000
0110
0110
0000
1100
0000
1001
0000
0110
,
0000
0000
MMMM
0000
0000
MMMM
0000
0000
0000
0000
MMMM
0000
0000
MMMM
0000
0000
,
0011
0000
1100
1001
0000
0101
0000
1001
1010
0000
0110
0000
0101
0000
0110
0000
,
1010
0000
1001
0101
0000
0011
0000
0110
1100
0000
1001
0000
0011
0000
0110
0000
,
1100
0000
1001
0011
0000
0110
0000
1100
1001
0000
0101
0000
0110
0000
1010
0000
,
1001
0000
0101
1001
0000
1100
0000
0110
0010
0001
0000
1000
0010
0000
0100
0000
,
0101
0000
0101
0101
0000
1100
0000
1100
1100
0000
1010
1010
0000
1010
0000
0011
,
0011
0000
0011
0011
0000
0001
0010
0100
1000
0000
1000
0010
0000
0100
0001
1000
,
0100
0010
0000
0001
1000
0000
0010
0100
0010
0000
0100
0001
1000
0000
0000
0000
,
0010
0000
MMMM
0000
0000
MMMM
0000
0000
0000
0000
MMMM
0000
0000
MMMM
0000
0000
,
0000
0000
0000
0000
0000
0000
0000
0001
0010
0000
0000
0000
0000
0000
0000
0000
,
0000
0000
0000
0000
0000
0000
0100
0000
1000
0000
0001
0000
0000
0001
0000
0000
0001
0000
0000
1000
0000
0010
0000
0100
0000
0001
0000
1000
0000
0000
0000
0000
,
0000
0000
0000
0000
0000
0000
0000
0000
0000
0000
0000
0000
0000
0000
0000
0000
0000
0000
0000
0000
0000
0000
0000
0000
0000
0000
0000
0000
0000
0000
0000
0000
0000
0000
0000
0000
0000
0000
0000
0000
0000
0000
0000
0000
0000
0000
0000
0000
0010
0000
0000
0000
0000
0000
0000
0000
0000
0000
0000
0000
0000
0000
0000
0000
0000
0000
0000
0000
0000
0000
0000
0000
0000
0000
0000
0000
0000
0000
0000
0000
0000
0000
0000
0000
0000
0000
0000
0000
0000
0000
0000
0000
0000
0000
0000
0000
0000
0000
0000
0000
0000
0000
0000
0000
0000
0000
0000
0000
0000
0000
0000
0000
0000
0000
0000
0000
0000
0000
0000
0000
0000
0000
0000
0000
0000
0000
0000
0000
0000
0000
0000
0000
0000
0000
0000
0000
0000
0000
0000
0000
0000
0000
0000
0000
0000
0000
0000
0000
0000
0000
0000
0000
0000
0000
0000
0000
0000
0000
0000
0000
0000
0000
0000
0000
0000
0000
1000
0000
0000
0000
0000
0000
0000
0100
0000
0000
0000
0000
0000
0000
1000
0000
0000
0000
0000
0000
0000
0000
0000
0000
0000
0000
,
0000
0001
0000
0000
0200
0000
0000
0000
0300
0000
0000
0000
0000
0000
0000
0000
0000
0000
0000
0000
0000
0000
0000
0000
0000
0000
0000
0000
0001
0000
0000
0000
,
0020
0000
0000
0000
0030
0000
0000
0000
0000
0000
0000
0100
1000
0000
0001
0000
,
0100
0000
0000
0000
0000
0000
0000
0000
0010
0000
0000
0000
1000
0000
0000
0000
0001
0000
0000
0000
0000
0000
0000
0000
0010
0000
0000
0000
0100
0000
0000
0000
1000
0000
0000
0000
0100
0000
0000
0000
0010
0000
0000
0000
0000
0000
0001
0000
0000
0000
0000
0000
0000
0000
0000
1000
0000
0000
0000
0000
0000
0000
0000
0000
,
0001
0000
0000
0000
0000
1000
0000
0000
0001
0000
0000
0000
1000
0000
0000
0000
0001
0000
0000
1000
0000
0000
0000
0000
0010
0000
0100
0000
0000
0000
0100
0000
,
0010
0000
0000
0000
0000
0000
1000
0001
1000
0010
0100
0000
0000
0000
0000
0000
,
0101
0000
1100
0101
0000
0011
0000
1010
1100
0000
0101
0000
1100
0000
1000
0000
,
0101
0000
1010
0000
0101
0000
0011
1010
0000
1001
0000
1010
0110
0000
0100
0000
,
0011
0000
1100
1010
0000
1001
0000
0011
0101
0000
1010
0000
0101
0000
1000
0000
,
1001
0000
0110
0000
1001
0000
0110
1001
0000
0110
0000
1001
0110
0000
0100
0000
,
0001
0000
0000
0010
0000
0000
0100
0000
1000
0000
0001
0000
1000
0000
0000
0100
0000
0000
0000
0000
0000
1000
0000
0000
1100
0000
0000
0000
0000
0000
0101
0000
0000
0000
0000
0000
0011
0000
0000
1010
0000
0000
0000
0000
0000
0000
0000
0000
,
1000
0100
0000
0010
0000
0100
0000
1000
1001
0000
0101
0011
0000
1100
1010
0000
,
0001
0010
0000
0100
0000
0000
1000
0010
0000
0100
0000
0000
0001
0010
0000
0100
,
1000
0000
0100
0000
0010
0000
0100
0000
0000
1000
0000
0000
0001
0000
0000
1000
0000
0000
0010
0000
0000
0100
0000
0000
0001
0000
0000
0000
0000
0000
0001
0000
0010
0000
0100
0000
1000
0000
0000
0010
0000
0000
1000
0000
0000
0001
0000
0000
,
0101
0000
1100
0011
0000
1001
0000
1100
MMMM
0000
1000
0010
0100
0001
1000
0000
,
1100
0000
0011
1100
0000
1001
0000
0101
1010
MMMM
1000
0010
0100
0001
1000
0000
,
0011
0000
1100
0110
0000
1001
0000
0011
0101
0000
1000
0010
0100
0000
0001
0000
,
1010
0000
0101
1100
0000
1001
0000
0110
0000
0001
1000
0000
0100
0000
0010
0000
,
1100
0000
1001
1100
0000
1001
0000
1001
0101
0000
1001
0101
0000
0110
0000
1001
,
MMMM
MMMM
MMMM
MMMM
0000
MMMM
0000
MMMM
MMMM
0000
MMMM
MMMM
0000
MMMM
0000
MMMM
,
0011
0000
0110
1100
0000
1001
0000
1010
0110
0000
0101
0000
1001
0000
0001
1000
,
0100
0000
MMMM
0000
0000
MMMM
0000
0000
0010
0000
MMMM
0000
0000
MMMM
0000
0000
,
0110
0000
0011
1100
MMMM
1001
0000
0110
1001
0000
0101
0000
M11M
0000
1010
0000
,
1001
0000
0011
0000
11MM
0000
1100
0101
0000
1001
0000
0110
1MM1
0000
1001
0000
,
0011
0000
0110
1100
MMMM
1010
0000
0110
0000
0101
0011
0000
1MM1
0000
0110
0000
,
1001
0000
0101
1100
MMMM
1001
0000
1010
MMMM
0011
1100
0000
M1M1
0000
0101
0000
,
1001
0000
1100
1010
MMMM
0101
0000
0011
0000
1100
1010
0000
M11M
0000
0110
0000
,
1001
0000
0101
1010
0000
1001
0000
0110
0101
0000
0011
0000
0110
0000
1100
0011
,
0000
1100
0000
1010
0101
0000
0110
0000
0101
1100
0000
1010
0000
0101
0000
1100
,
0011
0000
MMMM
0000
0000
MMMM
0000
0000
0100
0000
MMMM
0000
0000
MMMM
0000
0000
,
0110
0000
1010
0000
0101
0101
0000
0011
0000
0011
0000
1100
1100
0000
0110
0000
,
1001
0000
0000
0000
0001
0000
1000
0000
0001
0100
0000
0100
0010
0000
0100
0000
,
1010
1010
0000
0101
0000
1001
0000
0011
0011
0000
0110
0000
0110
0000
1100
0000
,
0101
0000
0000
0000
1000
0000
0001
0000
1000
0010
0000
0010
0100
0000
0001
0000
,
0011
0000
1100
1010
0000
0101
0000
0000
0101
0011
0000
1010
0000
1100
0000
0000
,
0001
0000
1000
0010
0100
0000
0010
0000
1000
0001
0000
0010
0100
0000
1000
0000
,
0001
0010
0100
1000
0001
0000
1000
0000
0010
0100
0001
1000
0010
0000
0100
0000
,
0001
0010
0100
1000
0001
0000
1000
0000
0010
0000
1000
0010
0100
0001
0000
0000
;
