#TITLE:キスキツネ;
#SUBTITLE:;
#ARTIST:HIMEHINA;
#TITLETRANSLIT:;
#SUBTITLETRANSLIT:;
#ARTISTTRANSLIT:;
#GENRE:;
#CREDIT:;
#MUSIC:Kiss Kitsune.ogg;
#BANNER:Kiss Kitsune.png;
#BACKGROUND:Kiss Kitsune-bg.png;
#CDTITLE:;
#SAMPLESTART:51.920;
#SAMPLELENGTH:12.973;
#SELECTABLE:YES;
#OFFSET:-0.025;
#BPMS:0.000=74.000
,8.000=296.000
,8.667=74.000
,9.000=296.000
,9.667=74.000
,10.000=296.000
,10.333=74.000
,10.500=296.000
,10.833=74.000
,11.000=296.000
,11.333=74.000
,11.500=296.000
,11.833=74.000
,12.000=296.000
,12.167=74.000
,12.250=296.000
,12.417=74.000
,12.500=296.000
,12.667=74.000
,12.750=296.000
,12.917=74.000
,13.000=296.000
,13.167=74.000
,13.250=296.000
,13.417=74.000
,13.500=296.000
,13.667=74.000
,13.750=296.000
,13.917=74.000
,15.000=148.000
;
#STOPS:;
#DISPLAYBPM:74.000:148.000;
#BGCHANGES:0.000=Kiss Kitsune.avi=1.000=0=0=0=StretchNoLoop====,
99999.000=-nosongbg-=1.000=0=0=0=StretchNoLoop====
;
#FGCHANGES:;

//--------------- dance-single - ----------------
#NOTES:
     dance-single:
     :
     Medium:
     12:
     0.601914,0.559176,0.174864,0.208172,0.358056,506,485,21,25,0,0,0.601914,0.559176,0.174864,0.208172,0.358056,506,485,21,25,0,0:
0000
0000
0000
0000
,
0000
0000
0000
0000
,
1001
0000
0110
0000
1001
0001
0010
0100
,
1000
0000
0001
0000
1000
0000
0001
0000
2000
0000
0000
0000
3010
0000
0100
0001
,
0000
0001
0000
0010
0000
0010
0000
0100
1000
0000
0001
0000
1000
0000
0010
0100
,
0000
0001
0100
0000
0001
0000
1000
0000
0200
0000
0000
0000
0310
0000
0010
0000
,
0001
0001
1000
1000
0020
0000
0130
0001
,
1000
0000
0010
0000
0000
0000
1010
0000
0102
0000
0000
0000
0013
0000
0100
1000
,
0000
1000
0000
0010
0000
0010
0000
0100
0001
0000
1000
0000
0001
0000
0010
0100
,
0000
1000
0100
0000
0010
0000
0000
0010
0001
0000
0100
0000
0010
0000
0010
0000
,
1000
1000
0001
0001
0020
0000
0130
1000
,
0001
1000
0000
1000
0001
0100
0010
0000
,
1001
0000
0000
0000
0001
0000
1000
0000
0010
0100
0000
0001
0000
0010
0100
0000
,
1000
0001
0100
0000
0100
0001
0100
1000
,
0100
0001
1000
0000
0001
0010
1000
0010
,
0001
1000
0001
0000
0100
0001
1000
0000
,
0010
0000
0000
0000
0100
0000
0001
0000
1000
0010
0000
1010
0000
0101
0000
0000
,
0000
1010
0101
0000
0001
0010
0100
1000
,
0100
0000
0010
0000
0001
0000
0000
0000
1000
0000
0010
0000
0100
0000
0000
0001
,
0000
0000
0010
0000
0000
0100
0000
0000
1000
0000
0001
0000
1000
0000
0000
0000
,
0001
0100
1000
0100
0001
0000
0001
0100
,
1000
0100
0001
0000
1001
0000
0001
0000
,
1000
0100
0001
0100
1000
0000
0001
0000
,
0001
0000
1000
0000
1000
0000
0000
0010
,
0100
0010
0000
1000
0001
1000
0000
0001
,
0010
0000
0100
0000
1000
0000
0000
0001
0000
0000
1000
0000
0010
0000
0000
0100
,
0000
0001
0020
0000
0130
0000
0100
1000
,
0001
0000
0100
0000
0010
0000
0100
0000
0001
0000
0010
0000
0100
0000
1000
0010
,
0000
0010
0000
0100
0000
0100
0000
0001
1000
0000
0100
0000
0010
0000
0001
0000
,
1000
0010
0100
0000
1001
0000
1001
0000
,
0001
0010
0100
0000
0010
0100
1000
0000
,
0001
0100
1000
0100
0001
1000
0001
0000
,
1000
0100
0001
0100
1000
0001
1000
0000
,
0020
0000
0130
0001
2000
0000
3001
0010
,
0100
0000
1000
0000
0001
0000
1000
0010
0000
0100
0000
0001
1000
0000
0100
0010
,
0000
0100
1000
0000
0001
0000
0000
0000
0100
0000
0010
0000
0000
0000
0000
0000
,
0010
1000
0002
0000
1003
0010
0100
0000
,
0100
0000
0000
0000
0001
0000
1000
0000
0002
0000
0000
0000
0013
0000
0100
1000
,
0000
1000
0000
0010
0000
0010
0000
0100
0001
0000
1000
0000
0001
0000
0010
0100
,
0000
1000
0100
0000
1000
0000
0001
0000
0200
0000
0000
0000
0310
0000
0010
0000
,
1000
1000
0001
0001
0020
0000
0130
1000
,
0001
0000
0010
0000
0000
0000
0011
0000
2100
0000
0000
0000
3010
0000
0100
0001
,
0000
0001
0000
0010
0000
0010
0000
0100
1000
0000
0001
0000
1000
0000
0010
0100
,
0000
0001
0100
0000
0010
0000
0000
0010
1000
0000
0100
0000
0010
0000
0010
0000
,
0001
0001
1000
1000
0020
0000
0130
0001
,
1000
0001
0000
0010
0100
0000
1000
0010
,
0100
0001
0010
0100
1000
0001
1000
0000
,
0001
0010
1000
0010
0001
1000
0001
0000
,
1000
0010
0001
0010
1000
0001
1000
0000
,
0010
0000
0100
0001
1000
0000
0001
0100
,
0001
0000
1000
0000
0001
0000
0010
0100
0000
0000
1000
0000
0010
0000
0100
0001
,
0000
1000
0001
0000
0020
0000
0000
0000
0130
0000
1000
0000
0001
0000
0000
0000
,
1000
0100
2000
0000
3001
0100
0001
0010
,
0001
1000
0000
0100
0000
0010
0000
0001
0000
1000
0000
0010
0200
0000
0000
0000
,
0301
0010
0100
1000
0010
0100
0001
0000
,
0101
0001
1100
1000
0001
0010
0100
0000
,
1100
1000
0101
0001
1000
0010
0100
0000
,
0020
0000
1030
0001
0010
0000
0100
1000
,
0010
0000
0100
0000
0001
0000
1000
0100
0000
0010
0000
0100
1000
0000
0001
0100
,
0000
0010
0100
0000
0002
0000
0000
0000
0013
0000
0100
0000
1000
0000
0000
0000
,
0010
0100
0002
0000
1003
0100
0010
0000
,
0001
0000
0000
0000
0100
0000
0001
0000
2000
0000
0000
0000
3010
0000
0100
0001
,
0000
0001
0000
0010
0000
0010
0000
0100
1000
0000
0001
0000
1000
0000
0010
0100
,
0000
0001
0100
0000
0001
0000
1000
0000
0200
0000
0000
0000
0310
0000
0010
0000
,
0001
0001
1000
1000
0020
0000
0130
0001
,
1000
0000
0010
0000
0000
0000
1010
0000
0102
0000
0000
0000
0013
0000
0100
1000
,
0000
1000
0000
0010
0000
0010
0000
0100
0001
0000
1000
0000
0001
0000
0010
0100
,
0000
1000
0100
0000
0010
0000
0000
0010
0001
0000
0100
0000
0010
0000
0010
0000
,
1000
1000
0001
0001
0020
0000
0130
1000
,
0001
0000
1000
0000
0001
0000
0100
0000
0001
0000
0000
0000
0001
0000
0010
0100
,
0000
0100
0000
1000
0000
1000
0000
0010
0000
0100
0001
1000
0000
0000
0000
0000
;

//--------------- dance-single - ----------------
#NOTES:
     dance-single:
     :
     Hard:
     15:
     0.807707,0.824049,0.566228,0.166538,0.753583,679,611,68,20,0,0,0.807707,0.824049,0.566228,0.166538,0.753583,679,611,68,20,0,0:
0000
0000
0000
0000
,
0000
0000
0000
0000
,
1001
0000
0110
0000
1001
1000
0010
0100
,
0001
1000
0001
1000
0001
1000
0001
1000
0001
0000
0000
0000
0010
0000
0100
1000
,
0000
1000
0000
0010
0000
0010
0100
0001
1000
0000
0001
1000
0001
0010
0100
1000
,
0000
0001
0100
0010
1000
0010
0100
0001
0020
0000
0000
0000
0130
0000
0100
0000
,
1000
0000
1000
0000
0001
0010
0001
0010
2000
0000
0000
0000
3010
0000
0001
0000
,
1000
0000
0010
0000
0100
0000
0110
0000
2001
0000
0000
0000
3010
0000
0100
0001
,
0000
0001
0000
0010
0000
0010
0100
1000
0001
0000
1000
0001
1000
0010
0100
0001
,
0000
1000
0100
0010
0001
0000
0000
1000
0010
0000
1002
0000
0103
0000
0100
0000
,
0001
0000
0001
0000
1000
0010
1000
0010
0002
0000
0000
0000
0013
0000
1000
0000
,
0100
0000
0010
0000
0001
0010
0000
0100
1000
0000
0001
0100
0010
0000
0000
0000
,
1001
0000
1000
0000
0001
0000
0010
0000
0100
1000
0000
0001
0000
1000
0010
0000
,
0100
0001
1000
0000
1000
0100
0110
0100
,
0001
0100
1000
0000
0001
0100
0110
0100
,
1000
0000
0100
0000
0001
0000
0000
0000
0001
0000
1000
0100
1000
0000
0000
0000
,
1100
0000
0010
0000
0100
0000
0001
0000
1000
0100
0000
0011
0000
1100
0000
0000
,
1000
0011
1100
0000
0001
0010
0100
1000
,
0010
0000
0100
0000
0001
0000
0000
0000
0001
0000
0010
0000
0011
0000
0000
1001
,
0000
0000
1100
0000
0000
1010
0000
0000
1001
0000
0101
0000
1100
0000
0000
0000
,
1000
0000
0010
0100
0010
0000
1000
0000
0001
0000
0000
0000
0001
0000
0010
0100
,
0010
0000
0001
0000
1000
0000
0010
0000
0110
0000
0000
0000
0001
0000
1000
0100
,
1000
0000
0001
0010
0001
0000
0010
0000
0100
0000
1000
0001
2000
0000
0000
0000
,
3100
0000
0002
0000
0103
0010
0110
1000
,
0001
0010
1001
0100
0010
1000
0110
0001
,
0010
0000
0100
0000
1100
0000
0000
1001
0000
0000
0101
0000
1010
0000
0000
1001
,
0000
0011
0100
0000
1000
0000
0001
0100
,
1000
0000
0100
0000
0001
0000
0010
0000
1000
0000
0010
0000
0001
0000
0010
0100
,
0000
0100
0000
1000
0000
1000
0010
0100
0001
0000
0010
0100
0010
0001
0010
0100
,
0000
1000
0000
0001
0100
0010
1000
0100
1001
0000
0000
0000
1000
0000
0010
0100
,
0010
0000
0100
0001
1000
0000
0100
0010
0100
0000
0010
0001
1000
0000
0000
0000
,
0101
0000
1000
0000
0101
0000
1000
0000
0101
0000
1000
0001
0010
0000
0000
0000
,
1100
0000
0001
0000
1100
0000
0001
0000
1100
0000
0001
1000
0010
0000
0000
0000
,
1001
0000
0000
0000
0001
0000
0100
0000
1000
0000
0000
0000
0100
0000
0001
1000
,
0100
0000
0010
0100
1000
0000
0001
0100
0000
1000
0000
0100
0010
0000
0100
0001
,
0000
1000
0100
0010
0001
0000
0000
0000
1000
0000
0100
0000
1100
0000
0000
0000
,
1000
0010
0200
0000
0301
0010
0100
1000
,
0001
0000
0000
0000
0100
0000
0010
0000
1001
0000
1000
0010
0100
0000
0010
1000
,
0000
1000
0000
0100
0000
0100
0010
0001
1000
0000
0001
1000
0001
0100
0010
1000
,
0000
0001
0010
0100
1000
0100
0010
0001
0200
0000
0000
0000
0310
0000
0010
0000
,
1000
0000
1000
0000
0001
0100
0001
0100
2000
0000
0000
0000
3100
0000
0001
0000
,
1000
0000
0100
0000
0010
0000
0110
0000
2001
0000
0000
0000
3100
0000
0010
0001
,
0000
0001
0000
0100
0000
0100
0010
1000
0001
0000
1000
0001
1000
0100
0010
0001
,
0000
1000
0010
0100
0001
0000
0000
1000
0100
0000
1002
0000
0013
0000
0010
0000
,
0001
0000
0001
0000
1000
0100
1000
0100
0002
0000
0000
0000
0103
0000
1000
0000
,
0010
0000
0100
0000
0001
0000
1001
0000
0110
0000
0000
0000
0001
0000
0100
0010
,
0100
0000
0010
1000
0001
0000
0010
0100
0010
0000
0100
1000
0001
0000
0000
0000
,
1010
0000
0001
0000
1010
0000
0001
0000
1010
0000
0001
0010
0100
0000
0000
0000
,
0011
0000
1000
0000
0011
0000
1000
0000
0011
0000
1000
0010
0100
0000
0000
0000
,
0010
0000
0000
0000
1000
0000
0001
0000
0010
0000
0000
0000
0100
0000
1000
0010
,
0100
0000
1000
0100
0010
0000
1000
0001
0000
0010
0100
1000
0001
0000
0100
0010
,
0000
0100
1000
0100
0001
0000
0000
0000
0001
0000
0010
0000
0100
0000
0000
0000
,
0100
0000
1000
0000
0001
0000
0100
0000
1000
0000
0100
0000
0001
0010
0100
1000
,
0001
0010
0000
0110
0000
1100
0000
1010
0000
0011
0000
0001
1000
0000
0010
0100
,
0010
0000
0001
0010
1000
0000
0100
0010
0100
0000
0001
0100
1000
0000
0010
0000
,
1001
0000
0010
0000
1001
0000
0010
0000
1001
0000
0010
0100
0010
0000
0000
0000
,
1001
0000
0100
0000
1001
0000
0100
0000
1001
0000
0100
0010
0100
0000
0000
0000
,
1001
0000
0000
0000
0001
0000
0100
0000
2000
0000
0000
0000
3100
0000
0001
0010
,
0100
0010
0000
1000
0010
0000
0100
1000
0000
0001
0000
0100
1000
0000
0100
0010
,
0000
0100
0001
1000
0001
0000
0000
0000
0001
0000
0010
0000
0110
0000
0000
0000
,
0100
0000
1000
0000
0001
0000
0000
0000
1000
0000
0010
0000
0100
0001
0010
0100
,
1000
0001
0010
0100
1000
0000
0010
0000
1002
0000
0000
0000
0013
0000
0100
1000
,
0000
1000
0000
0010
0000
0010
0100
0001
1000
0000
0001
1000
0001
0010
0100
1000
,
0000
0001
0100
0010
1000
0010
0100
0001
0020
0000
0000
0000
0130
0000
0100
0000
,
1000
0000
1000
0000
0001
0010
0001
0010
2000
0000
0000
0000
3010
0000
0001
0000
,
1000
0000
0010
0000
0100
0000
0110
0000
2001
0000
0000
0000
3010
0000
0100
0001
,
0000
0001
0000
0010
0000
0010
0100
1000
0001
0000
1000
0001
1000
0010
0100
0001
,
0000
1000
0100
0010
0001
0000
0000
1000
0010
0000
1002
0000
0103
0000
0100
0000
,
0001
0000
0001
0000
1000
0010
1000
0010
0002
0000
0000
0000
0013
0000
1000
0000
,
0100
0000
0010
0000
0001
0100
0000
0010
1000
0000
0001
0000
0010
0000
0100
1000
,
0000
1000
0000
0001
0000
0001
1000
0010
0100
0001
1000
0100
0000
0000
0000
0000
;

//--------------- dance-single - ----------------
#NOTES:
     dance-single:
     :
     Challenge:
     18:
     1.04205,1.000631,0.50794,0.13323,1.423896,876,815,61,16,0,0,1.04205,1.000631,0.50794,0.13323,1.423896,876,815,61,16,0,0:
0000
0000
0000
0000
,
0000
0000
0000
0000
,
1001
0000
0110
0000
1001
0001
0010
0100
,
1000
0000
0000
0000
0000
0000
0000
0000
0000
0000
0000
0000
0001
0000
0000
0000
0000
0000
0000
0000
0000
0000
0000
0000
1000
0000
0000
0000
0000
0000
0000
0000
0000
0000
0000
0000
0001
0000
0000
0000
0000
0000
0000
0000
0000
0000
0000
0000
0010
0000
0000
0000
0000
0000
0000
0000
0000
0000
0000
0000
0100
0000
0000
0000
0000
0000
0000
0000
0000
0000
0000
0000
1000
0000
0000
0000
0000
0000
0000
0000
0000
0000
0000
0000
0001
0000
0000
0000
0000
0000
0000
0000
0000
0000
0000
0000
0020
0030
0000
0000
0000
0000
0000
0000
0000
0000
0000
0000
0100
0000
0000
0000
0000
0000
0000
0000
0000
0000
0000
0000
1000
0000
0000
0000
0000
0000
0000
0000
0000
0000
0000
0000
0001
0000
0000
0000
0000
0000
0000
0000
0000
0000
0000
0000
0200
0300
0000
0000
0000
0000
0000
0000
0000
0000
0000
0000
0000
0000
0000
0000
0000
0000
0000
0000
0000
0000
0000
0000
0010
0000
0000
0000
0000
0000
0000
0000
0000
0000
0000
0000
1000
0000
0000
0000
0000
0000
0000
0000
0000
0000
0000
0000
,
0000
0000
0001
0000
0000
0000
0010
0100
0000
0000
1000
0001
1000
0000
0100
0000
0010
0000
0000
0000
0001
0000
1000
0000
0010
0000
0100
0000
0001
0000
1000
0000
,
0000
0000
1000
0000
0100
0000
1000
0000
0001
0000
0100
0000
0001
0010
0100
1000
0002
0000
0000
0000
0103
0000
0000
0000
0010
0000
1000
0000
0010
0000
1000
0000
,
0001
0010
0001
0010
0100
1000
0100
1000
0001
0100
0001
0100
0020
0000
2030
0000
,
3002
0000
0023
0000
0130
1000
1100
0000
0011
0000
0001
1000
0100
0000
0010
0001
,
0000
0000
1000
0000
0000
0000
0010
0100
0000
0000
0001
1000
0001
0000
0010
0000
0100
0000
0000
0000
1000
0000
0001
0000
0010
0000
0100
0000
1000
0000
0001
0000
,
0000
0000
0001
0000
0100
0000
0001
0000
1000
0000
0100
0000
1000
0010
0100
0001
2000
0000
0000
0000
3100
0000
0000
0000
0010
0000
0001
0000
0010
0000
0001
0000
,
1000
0010
1000
0010
0100
0001
0100
0001
1000
0100
1000
0100
0020
0000
0032
0000
,
2003
0000
3020
0000
0130
0001
0000
0001
1000
0000
1000
0001
0100
0000
0000
0000
,
0110
0000
0100
0000
0001
0000
0010
0000
0100
1000
0000
0001
0100
0000
0010
0100
,
0001
0010
2000
0000
3010
0000
0100
1000
0001
0000
0100
0000
0201
0000
0310
0000
,
1020
0000
0130
0001
1000
0100
0000
1000
0001
0000
0001
0010
0100
0000
1000
0100
,
0010
0000
0100
1000
0001
0010
0000
0010
0100
0000
1000
0001
0100
0000
0010
0000
,
0100
0000
0001
0000
1000
0000
0001
0000
0100
0010
0000
1010
0000
0101
0000
0001
,
0010
0000
0011
0000
1200
0000
1000
0000
0310
0001
1000
0100
0010
0000
0001
0010
,
1000
0000
0010
0001
0100
0010
0000
1000
0001
0000
0100
0000
0101
0000
0000
1001
,
0000
0000
1010
0000
0000
0110
0000
0000
1001
0000
0011
0000
1100
0000
1000
0000
,
0001
0000
0000
1000
0100
0010
0001
0000
0000
1000
0000
0000
0101
0000
0000
0000
0000
0000
1000
0000
0000
0001
0000
0000
,
0100
0000
0000
0000
0001
0000
0000
0000
1100
0000
0000
0000
0010
0000
0000
0000
1001
0000
0000
0000
0000
0000
0000
0000
1000
0000
0000
0000
0010
0100
0010
0000
,
1000
0000
0001
0000
0010
0100
0010
0000
0001
0000
0000
0000
1000
0000
0000
0000
0010
0000
1000
0000
0001
0100
0001
0100
0002
0000
0000
0000
1000
0000
0000
0000
,
0100
0000
1000
0103
0020
0000
0001
0000
0130
0000
0100
0010
0110
0000
0001
0000
,
0010
0100
1001
0010
0100
1000
0110
0001
,
0010
0000
0100
0000
2001
0000
0000
0010
0000
0000
3100
0000
1001
0000
1000
0000
,
0001
0000
0000
0000
0010
0000
0000
0000
0100
0000
0000
0000
1000
0000
0000
0001
0000
0000
1000
0000
0000
0001
0000
0000
1000
0000
0000
0000
0000
0000
0000
0000
0000
0000
0000
0000
0010
0000
0000
0000
0000
0000
0000
0000
0000
0000
0000
0000
0110
0000
0000
0000
0000
0000
0000
0000
0000
0000
0000
0000
0000
0000
0000
0000
0000
0000
0000
0000
0000
0000
0000
0000
0001
0000
0000
0000
0000
0000
0000
0000
0000
0000
0000
0000
1000
0000
0000
0000
0000
0000
0000
0000
0000
0000
0000
0000
,
0001
0000
0100
0000
0010
0000
0100
0000
0001
0000
0010
0000
0100
0000
1000
0001
,
0000
0000
0100
0000
0000
0000
0010
0100
0000
0000
0001
1000
0001
0000
0010
0000
0100
0000
0000
0000
1000
0000
0100
0000
0010
0000
0100
0000
1000
0000
0001
0000
,
0000
0000
0100
0000
0010
0000
0100
0000
0001
0000
1000
0000
0001
0010
0100
1000
0001
0000
0000
0000
0000
0000
0000
0000
1001
0000
0000
0000
0001
0000
0100
0000
,
1000
0000
0100
0001
0010
0100
1000
0010
0001
1000
0100
0010
1000
0000
0001
0000
,
1010
0000
0000
0000
0101
0000
0000
0000
1010
0000
0000
0000
0101
0000
0000
0000
1001
0000
0000
0000
0001
1000
0001
1000
0001
0000
0000
0000
1000
0000
0000
0000
,
0011
0000
0000
0000
1100
0000
0000
0000
0011
0000
0000
0000
1100
0000
0000
0000
1001
0000
0000
0000
1000
0001
1000
0001
1000
0000
0000
0000
0010
0000
0000
0000
,
0100
0001
0010
0100
1000
0001
0100
0010
1001
0000
0000
0000
0001
0000
1000
0010
,
0100
0000
1000
0100
0010
0000
1000
0100
0000
0001
0000
0100
1000
0000
0001
0100
,
0000
1000
0100
0001
0010
0000
0100
1000
0001
0000
0100
0000
0110
0000
0000
0000
,
0010
0000
1000
0000
0001
0000
0000
0000
0001
0000
0010
0000
0100
1000
0001
0010
,
0100
0000
1000
0001
1000
0000
0100
0000
0010
0000
0000
0000
0010
0000
0001
0000
1000
0000
0000
0000
0010
0000
0100
0000
0010
0000
0000
0000
1000
0000
0001
0000
,
0000
0000
1000
0000
0000
0000
0010
0100
0000
0000
0001
1000
0001
0000
0100
0000
0010
0000
0000
0000
1000
0000
0001
0000
0010
0000
0100
0000
1000
0000
0001
0000
,
0000
0000
0001
0000
0100
0000
0001
0000
1000
0000
0100
0000
1000
0010
0100
0001
2000
0000
0000
0000
3100
0000
0000
0000
0010
0000
0001
0000
0010
0000
0001
0000
,
1000
0010
1000
0010
0100
0001
0100
0001
1000
0100
1000
0100
0020
0000
0032
0000
,
2003
0000
3020
0000
0130
0001
0101
0000
1010
0000
1000
0001
0100
0000
0010
1000
,
0000
0000
0001
0000
0000
0000
0010
0100
0000
0000
1000
0001
1000
0000
0010
0000
0100
0000
0000
0000
0001
0000
1000
0000
0010
0000
0100
0000
0001
0000
1000
0000
,
0000
0000
1000
0000
0100
0000
1000
0000
0001
0000
0100
0000
0001
0010
0100
1000
0002
0000
0000
0000
0103
0000
0000
0000
0010
0000
1000
0000
0010
0000
1000
0000
,
0001
0010
0001
0010
0100
1000
0100
1000
0001
0100
0001
0100
0020
0000
2030
0000
,
3002
0000
0000
0000
0000
0000
0023
0000
0000
0000
0000
0000
0130
0000
0000
1000
0000
0000
0001
0000
0010
0000
0100
0000
1000
0000
0000
0001
0000
0000
0100
0000
0000
0010
0000
0000
0110
0000
0000
0000
0000
0000
0100
0000
0000
0001
0000
0000
,
0010
0000
0100
1000
0010
0001
1000
0100
0001
0010
1000
0001
0100
0000
1000
0000
,
0011
0000
0000
0000
1100
0000
0000
0000
0011
0000
0000
0000
1100
0000
0000
0000
0110
0000
0000
0000
0010
0100
0010
0100
0010
0000
0000
0000
0001
0000
0000
0000
,
1010
0000
0000
0000
0101
0000
0000
0000
1010
0000
0000
0000
0101
0000
0000
0000
0110
0000
0000
0000
0100
0010
0100
0010
0100
0000
0000
0000
0010
0000
0000
0000
,
1000
0001
1000
0010
0100
0001
0010
0100
1001
0000
0000
0000
0001
0000
0100
1000
,
0100
0000
0100
0001
0010
0000
0010
0100
0000
0100
0010
0001
1000
0000
1000
0001
,
0000
0001
1000
0010
0100
0000
0010
0000
0100
0000
0110
0000
1001
0000
0000
0000
,
0001
0000
0100
0000
1000
0000
0000
0000
0100
0000
0001
0000
1000
0100
1000
0010
,
0100
0101
0000
0011
0000
1010
0000
1100
0000
0110
0000
0101
1100
0000
1000
0010
,
0001
0010
1000
0100
0010
0100
1000
0010
0100
0001
0010
0100
1000
0000
0101
0000
,
0100
0000
0010
0000
0100
0000
1000
0000
0100
0000
0010
0000
0100
0000
1000
0000
0100
0000
0001
0000
1000
0100
1000
0100
1000
0000
0000
0000
1100
0000
0000
0000
,
0100
0000
0010
0000
0100
0000
0001
0000
0100
0000
0010
0000
0100
0000
0001
0000
0100
0000
1000
0000
0001
0100
0001
0100
0001
0000
0000
0000
1000
0000
0000
0000
,
0110
0000
0001
0000
1000
0100
0010
0001
1000
0000
0000
0000
0001
0000
0100
1000
,
0100
0010
0100
0001
0010
0000
0100
1000
0000
0010
0001
0010
0100
0001
1000
0100
,
0000
0010
0001
0100
0010
0100
0001
0010
1000
0010
0001
0000
1001
0000
1000
0000
,
0010
0100
0001
0010
0100
0001
0100
1000
0001
1000
0010
0001
0010
0100
0001
0010
,
0100
0000
1000
0000
0001
0100
0001
0000
0010
0000
0100
0000
1000
0000
0001
0000
1001
0000
0000
0000
0000
0000
0000
0000
0101
0000
0000
0000
1000
0000
0010
0000
,
0000
0000
0100
0000
0000
0000
0001
0010
0000
0000
0100
1000
0001
0000
0100
0000
0010
0000
0000
0000
0100
0000
0001
0000
0010
0000
0100
0000
1000
0000
0001
0000
,
0000
0000
0100
0000
1000
0000
0100
0000
0001
0000
0010
0000
0100
1000
0010
0100
0002
0000
0000
0000
0103
0000
0000
0000
0010
0000
1000
0000
0010
0000
1000
0000
,
0001
0010
0001
0010
0100
1000
0100
1000
0001
0100
0001
0100
0010
0000
0110
0000
,
1010
0000
0101
0000
0001
1000
0110
0000
1001
0000
1000
0010
0100
0000
0001
0010
,
0000
0000
0100
0000
0000
0000
1000
0010
0000
0000
0100
0001
1000
0000
0100
0000
0010
0000
0000
0000
0001
0000
0010
0000
0100
0000
1000
0000
0010
0000
0001
0000
,
0000
0000
1000
0000
0100
0000
0001
0000
0010
0000
0100
0000
1000
0010
0100
0001
0020
0000
0000
0000
0130
0000
0000
0000
0010
0000
0001
0000
0010
0000
0001
0000
,
1000
0010
1000
0010
0100
0001
0100
0001
1000
0100
1000
0100
0010
0000
0110
0000
,
0011
0000
1100
0000
1000
0010
0000
0100
0001
0000
1000
0000
0001
0000
0010
0100
,
0000
0000
1000
0000
0000
0000
0010
0100
0000
0000
0001
0010
0100
0000
1000
0000
0001
0000
0100
0000
0010
0000
0100
0000
0000
0000
0000
0000
0000
0000
0000
0000
;
