#TITLE:君色マリンスノウ;
#SUBTITLE:;
#ARTIST:カルロス袴田(サイゼP) feat. 初音ミク;
#TITLETRANSLIT:Kimiiro Marine Snow;
#SUBTITLETRANSLIT:;
#ARTISTTRANSLIT:Carlos Hakamada feat.Hatsune Miku;
#GENRE:POP;
#CREDIT:;
#MUSIC:Kimiiro Marine Snow.ogg;
#BANNER:Kimiiro Marine Snow.png;
#BACKGROUND:Kimiiro Marine Snow-bg.png;
#CDTITLE:;
#SAMPLESTART:48.742;
#SAMPLELENGTH:14.257;
#SELECTABLE:YES;
#OFFSET:1.159;
#BPMS:0.000=202.000;
#STOPS:;
#LASTBEATHINT:0.535300;
#BGCHANGES:2.000=Kimiiro Marine Snow.avi=1.000=0=0=0=StretchNoLoop====,
99999.000=-nosongbg-=1.000=0=0=0=StretchNoLoop====
;
#FGCHANGES:;

//--------------- dance-single - ----------------
#NOTES:
     dance-single:
     :
     Medium:
     13:
     0,0,0,0,0:
0000
0000
0000
0000
,
0000
0000
0000
0000
,
0000
0000
0000
0000
,
0000
0000
0000
0000
,
0000
0000
0000
0000
,
0000
0000
0000
0000
,
0000
0000
0000
0000
,
0000
0000
0000
0000
,
0000
0000
0000
0000
,
0000
0000
0000
0000
,
0000
0000
0000
0000
,
0101
0000
0000
1010
0000
1000
0010
0000
0010
0100
0000
0100
,
0001
0000
0000
0010
0000
0000
1100
0000
0000
0011
0000
0001
,
0010
0000
0000
0110
0000
0100
1000
0000
1000
0001
0000
0001
,
0100
0000
1010
0000
0101
0000
0001
0100
,
0010
0000
1000
0010
0100
0000
0001
0010
,
0100
1000
0100
0010
0001
0000
1000
0001
,
1000
0000
0010
0000
0100
0000
0010
1000
,
0001
0000
0000
0001
0000
0000
0010
0000
0100
0000
0000
0000
1100
0000
0000
0000
,
1000
0100
1000
0000
1000
0010
1000
0000
,
0001
0100
0001
0000
0001
0010
0001
0000
,
1100
1010
1100
1010
,
0101
0011
0101
0011
,
1000
0010
1000
0000
1000
0100
1000
0000
,
0001
0010
0001
0000
0001
0100
0001
0000
,
1010
1100
0011
0101
,
1000
0000
0000
1000
0000
0000
0001
0000
0100
0000
0010
0000
1000
0000
0000
0000
,
1010
0000
0010
0100
0000
0100
0001
0010
,
0100
0000
0010
0100
0000
0100
1000
0010
,
0100
0000
0001
1000
0000
1000
0100
0010
,
0001
0011
0101
1100
,
1010
0000
0010
0100
0000
0100
1000
0100
,
0001
0000
0010
0100
0000
0100
0001
0100
,
1000
0000
0010
0100
0000
1000
0100
0001
,
0010
0000
0000
0100
0000
0000
1000
0000
0010
0000
0000
0000
0100
0000
0000
0000
,
0110
0002
0023
0230
,
2300
3020
0230
2300
,
3200
0302
0003
1001
,
0001
0100
0000
0100
0010
0100
0000
0100
,
1000
0100
0001
0010
0100
1000
0001
0000
,
0011
0000
0010
0100
0000
1000
0001
0000
,
0110
0000
0000
2002
0000
0000
3003
0000
,
1001
0000
0000
0101
0000
0001
0010
0000
0010
0100
0000
0100
,
1000
0000
0000
0001
0000
0000
1001
0000
0000
1010
0000
1000
,
0010
0000
0000
0110
0000
0100
0001
0000
0001
1000
0000
1000
,
0100
0000
0010
0000
0011
0000
0001
0010
,
0100
0000
1000
0010
0100
0000
0001
0010
,
0100
1000
0100
0010
0001
0000
0001
0100
,
1000
0000
0100
0001
0010
0000
0100
1000
,
0001
0000
0000
0001
0000
0000
1000
0000
0010
0000
0000
0010
0000
0000
0100
0000
,
0110
0000
0000
1010
0000
0010
0100
0000
0100
0001
0000
0001
,
0010
0000
0000
0100
0000
0000
1100
0000
0000
0011
0000
0010
,
0100
0000
0000
1010
0000
1000
0010
0000
0010
0100
0000
0100
,
0001
0000
1010
0000
0101
0000
0001
0010
,
1000
0000
1000
0010
0001
0000
1000
0010
,
0001
0010
1000
0100
0010
0000
0100
1000
,
0001
0000
1000
0010
0100
0010
1000
0100
,
0010
0000
0000
0010
0000
0000
0001
0000
1000
0000
0000
1000
0000
0000
0010
0000
,
1010
1100
0011
0101
,
0001
0100
1000
0100
0001
0000
1000
0100
,
0010
0000
0010
0100
1000
0000
1000
0010
,
0101
1010
1100
0011
,
1001
0000
0110
0000
0010
1000
0100
1000
,
0010
0000
0110
0000
1001
0000
0001
0100
,
0010
0000
0010
0100
0001
0010
0100
1000
,
0001
0000
0000
1000
0000
0000
0001
0000
0010
0000
0000
0000
1001
0000
0000
0000
,
1000
0000
0000
0001
0000
0000
1000
0000
0010
0000
0000
0000
1001
0000
0000
0000
,
0001
0000
0000
0100
0000
0000
0001
0000
1000
0000
0000
0100
0000
0000
1000
0000
,
0020
0100
0100
0130
,
1001
0000
0000
1000
0000
0001
0010
0000
0010
1000
0000
1000
,
0001
0000
0000
0100
0000
0000
1100
0000
0000
0011
0000
0001
,
0100
0000
0000
0110
0000
0010
1000
0000
1000
0001
0000
0001
,
0010
0000
0100
0000
1100
0000
0010
0001
,
0100
0000
0010
1000
0100
0000
0010
0001
,
0100
1000
0001
0010
1000
0000
1000
0100
,
0010
0000
0010
0001
0010
0001
0100
0010
,
1000
0000
0000
0100
0000
0000
0010
0000
0001
0000
1000
0000
1001
0000
0000
0000
,
1000
0100
0001
0000
0001
0100
1000
0000
,
0001
0100
1000
0000
1000
0100
0001
0000
,
0011
1100
0011
1100
,
1010
0101
1010
0101
,
0001
0010
0100
1000
0001
0100
0010
1000
,
0001
0100
0001
0100
1000
0000
1000
0100
,
0010
1000
0100
0010
0001
1000
0010
0100
,
0102
0000
0010
0013
,
0100
0100
1000
0001
0001
0100
0010
0010
,
0001
1000
1000
0100
0010
0000
1001
0000
,
1000
0100
1000
0001
0100
0001
1000
0010
1000
0001
0010
0001
,
0100
0000
0010
0100
0010
0000
2001
0000
,
0000
0000
0000
0000
0000
0000
0000
3001
,
1000
0100
0010
0001
1000
0001
0010
0100
,
1000
0001
1000
0010
0100
0001
0010
0001
,
1000
0100
0010
0100
1000
0001
0100
0010
,
0100
0001
0010
1000
0001
0100
1000
0020
,
0000
0000
0000
0100
0000
0000
0000
0000
,
0000
0000
0000
0230
,
0000
0000
0000
0000
,
0000
0000
0000
0000
,
0000
0000
0000
0300
,
1001
0000
0000
0000
;

//--------------- dance-single - ----------------
#NOTES:
     dance-single:
     :
     Hard:
     16:
     0,0,0,0,0:
0000
0000
0000
0000
,
0000
0000
0000
0000
,
0000
0000
0000
0000
,
0000
0000
0000
0000
,
0000
0000
0000
0000
,
0000
0000
0000
0000
,
0000
0000
0000
0000
,
0000
0000
0000
0000
,
0000
0000
0000
0000
,
0000
0000
0000
0000
,
0100
0100
0100
0100
,
1001
0000
0000
1000
0000
0001
0100
0010
1000
0001
0010
0100
,
1000
0000
0000
0010
0000
0100
0101
0000
0000
1001
0000
0001
,
1000
0000
0000
1000
0010
0100
0001
1000
0100
0010
0001
1000
,
0010
0000
0000
0000
0000
0000
1000
0000
0000
0000
0100
0000
0110
0000
0000
0000
0000
0000
0100
0000
0000
1000
0000
0000
,
1100
0000
0001
0100
0101
0000
1000
0100
,
0010
0001
0010
0100
0110
0000
0010
0001
,
1000
0000
0000
0000
0010
0000
0100
0001
1000
0000
0100
0000
0010
0000
0001
0000
,
0011
0000
0000
1010
0000
0000
1100
0000
0001
0100
0001
0100
0010
0000
1000
0000
,
1100
0000
0100
0010
0100
0000
0000
0000
1010
0000
0010
0100
0010
0000
0000
0000
,
0101
0000
0100
0010
0100
0000
0000
0000
0011
0000
0010
0100
0010
0000
0000
0000
,
1100
1000
0010
0000
1010
1000
0100
0000
,
0101
0001
0010
0000
0011
0001
0100
0000
,
1010
0000
0010
0100
0010
0000
0000
0000
1100
0000
0100
0010
0100
0000
0000
0000
,
0011
0000
0010
0100
0010
0000
0000
0000
0101
0000
0100
0010
0100
0000
0000
0000
,
1100
1000
0010
0000
0101
0001
0010
0000
,
0011
0000
0000
1010
0000
0000
1100
0000
0101
0000
0001
0000
0010
0000
0100
0000
,
1000
0000
0000
0001
0100
0000
0010
0000
1000
0000
0100
0000
0010
0000
0100
0000
,
1000
0000
0000
1000
0010
0000
0100
0000
0010
0000
1000
0000
0100
0000
0010
0000
,
0001
0000
0000
0001
0100
0000
0010
0000
1000
0000
0100
0000
0010
0000
0100
0000
,
1000
0001
1000
0010
0110
0000
1001
0000
,
0011
0000
0000
0001
0010
0000
0100
0000
1000
0000
0100
0000
0001
0000
0100
0000
,
1000
0000
0000
1000
0010
0000
0100
0000
0001
0000
1000
0000
0010
0000
0001
0000
,
0010
0000
0000
0010
1000
0000
0100
0000
0010
0000
1000
0000
0010
0000
0001
0000
,
0011
0000
0000
0101
0000
0000
1100
0000
1010
0000
0000
0000
0010
0000
0000
0000
,
0110
0000
0000
0101
0000
0001
0100
0000
0010
1000
0000
0000
,
1100
0000
1000
0100
0000
0010
0002
0000
0000
0023
0000
0000
,
0230
0000
2300
0000
0000
3000
1001
0000
,
0001
0000
1000
0100
1000
0000
0001
0000
0100
0000
0001
0100
0001
0000
1000
0000
,
0100
0000
1000
0100
0010
0000
0001
0010
0100
0000
1000
0000
1001
0000
0000
0000
,
0001
1000
0010
0100
0001
1000
0100
0010
,
0110
0000
0000
1001
0000
0000
0000
0000
,
1001
0000
0000
1100
0000
1000
0100
0010
0100
1000
0001
0100
,
0010
0000
0000
0000
0000
0000
0000
0000
0000
0000
0000
0000
1000
0000
0000
0000
0000
0000
0001
0000
0000
0010
0000
0000
0100
0000
0000
0000
0000
0000
0000
0000
0000
0000
0000
0000
1100
0000
0000
0000
0000
0000
0000
0000
0100
0000
0000
0000
,
0010
0000
0000
0010
0001
0100
0010
1000
0001
0100
0010
0100
,
0001
0000
0000
0000
1000
0000
0001
0100
0001
0000
0000
0000
0001
0000
0010
0000
,
0110
0000
1000
0010
0110
0000
0100
0001
,
0010
0100
1000
0100
0110
0000
0100
1000
,
0001
0000
1000
0010
1000
0000
0010
0100
0010
0000
0100
0001
0100
0000
0001
0010
,
0001
0000
0000
0011
0000
0000
0100
0000
1100
0000
1000
0010
0000
0010
0100
0000
,
0101
0000
0000
1001
0000
0001
0100
0010
0100
0010
1000
0100
,
0010
0000
0000
0000
0000
0000
0000
0000
0000
0000
0000
0000
0001
0000
0000
0000
0000
0000
1000
0000
0000
0010
0000
0000
0100
0000
0000
0000
0000
0000
0000
0000
0000
0000
0000
0000
0101
0000
0000
0000
0000
0000
0000
0000
0100
0000
0000
0000
,
0010
0000
0000
1000
0000
1000
0100
0010
0100
0010
0001
1000
,
0001
0000
0000
0000
1000
0000
0001
0100
0010
0000
0000
0000
0100
0000
0010
0000
,
1100
0000
0100
0010
0101
0000
1000
0010
,
0100
0001
0100
0010
0110
0000
0001
1000
,
0100
0000
0010
0001
1000
0000
0010
0100
0001
0000
0010
0100
1000
0000
0001
1000
,
0010
0000
0100
0001
0000
0001
0010
0000
0100
1000
0100
1000
0000
0001
0100
0001
,
1000
0010
0001
0010
0100
0001
0010
1000
,
0010
0001
0100
0010
1010
0000
1000
0010
,
0100
0000
0100
0001
1000
0100
0010
0001
,
0011
0000
1100
0000
1010
0000
0101
0001
,
1000
0100
0001
0100
1000
0001
0100
0010
,
1000
1000
0001
0001
1001
0000
1010
0100
,
0001
0000
0000
0001
0010
0000
0100
0000
1000
0000
0010
0000
0100
0000
0001
0000
,
0101
0000
0000
1100
0000
0000
0101
0000
1100
0000
0000
0000
1001
0000
0000
0000
,
1010
0000
0000
0011
0000
0000
1010
0000
0011
0000
0000
0000
1001
0000
0000
0000
,
0101
0000
0000
0100
0000
0000
0001
0000
1100
0000
0000
0100
0000
0000
1000
0000
,
1001
0000
0000
0000
0100
0000
0000
0000
0100
0000
0000
0000
0001
0100
0001
0100
,
0001
0000
0000
1001
0000
0001
0010
0100
1000
0100
0010
0001
,
1000
0000
0000
0000
1010
0000
1000
0010
0100
0000
0000
0000
0100
0000
0010
1000
,
0001
0000
0000
0011
0000
0001
0100
0010
1000
0010
0100
0001
,
1000
0000
0000
0000
0010
0000
0100
0001
1000
0000
0000
0000
0100
0000
0010
0001
,
0010
0000
0100
0000
1000
0000
0001
0100
0001
0000
1000
0000
0010
0000
0100
0000
,
0001
0000
1000
0100
1000
0000
0010
0100
0010
0000
0001
0000
0010
0000
1000
0000
,
0001
0100
0001
0100
0010
0100
0010
0100
0001
1000
0001
1000
0100
0010
0001
0000
,
0010
0000
0000
0100
0000
0000
0110
0000
1000
0000
0001
0000
1001
0000
0000
0000
,
1010
0000
0010
1000
0100
0000
0000
0000
1100
0000
0100
1000
0010
0000
0000
0000
,
0011
0000
0010
0001
0100
0000
0000
0000
0101
0000
0100
0001
0010
0000
0000
0000
,
1100
1000
1010
0000
1010
1000
1100
0000
,
0101
0001
0011
0000
0011
0001
0101
0100
,
0010
0100
1000
0100
0001
0010
0110
0000
,
1100
1000
0101
0001
1001
0100
0110
0000
,
0001
0000
0010
0000
0001
0000
0100
0000
0010
0000
1000
0000
0001
0010
0100
1000
,
0002
0000
0000
0000
0000
0000
0000
0000
0013
0100
0010
0100
0010
0000
0000
0000
,
1100
0000
1000
0001
0100
0000
0101
0000
0001
1000
0010
0000
1010
0000
1000
0100
,
0010
0000
0110
0000
0100
1000
0001
0000
0101
0000
0010
0000
1001
0000
0000
0000
,
1000
0100
0001
1000
0010
0001
0100
1000
0001
0010
1000
0001
,
0010
0000
0011
0110
1100
0000
2001
0000
,
0000
0000
0000
0000
0000
0000
0000
3001
,
0001
0100
0001
1000
0100
1000
0001
0100
0001
1000
0100
1000
0001
0100
0001
1000
,
0100
1000
0001
0100
0001
1000
0100
1000
0001
0100
0010
0000
0100
0001
0100
0000
,
0010
0000
1000
0010
1000
0010
0100
0010
1000
0001
0100
0001
1000
0000
0100
0010
,
0100
1000
0001
0000
0100
0010
0100
0000
0001
0000
1000
0000
0100
0000
0210
0000
,
0000
0000
0000
0010
0000
0000
0000
0000
,
0000
0000
0000
0320
,
0000
0000
0000
0000
,
0000
0000
0000
0000
,
0000
0000
0000
0000
0000
0000
0000
0100
,
0130
0000
0000
0000
;

//--------------- dance-single - ----------------
#NOTES:
     dance-single:
     :
     Challenge:
     18:
     1.060835,1.37374,0.512997,0.042049,1.126912,883,822,61,5,0,0,1.060835,1.37374,0.512997,0.042049,1.126912,883,822,61,5,0,0:
0000
0000
0000
0000
,
0000
0000
0000
0000
,
0000
0000
0000
0000
,
0000
0000
0000
0000
,
0000
0000
0000
0000
,
0000
0000
0000
0000
,
0000
0000
0000
0000
,
0000
0000
0000
0000
,
0000
0000
0000
0000
,
0000
0000
0000
0000
,
0100
0100
0100
0100
,
1001
0000
0000
1000
0000
0001
0010
0100
0010
0001
1000
0100
,
0010
0000
0000
0010
0001
0100
0010
0000
0000
1001
0000
0001
,
1000
0000
0000
1000
0010
0100
0010
1000
0001
0100
0010
1000
,
0001
0000
0000
0000
0000
0000
0000
0000
0000
0000
0000
0000
0010
0000
0000
0000
0000
0000
0000
0000
0100
0000
0000
0000
1000
0000
0000
0001
0000
0000
1000
0000
0000
0001
0000
0000
0100
0000
0000
0000
0000
0000
0001
0000
0000
0100
0000
0000
,
0010
0000
1000
0000
0001
0010
0100
1000
0010
0000
0100
0001
1000
0000
0100
0000
,
1000
0000
0001
0100
0010
1000
0100
0010
0001
0000
1000
0010
0100
0000
1000
0000
,
0100
0000
0001
0000
0010
0100
0010
0100
1000
0000
0001
0100
0001
0000
1000
0010
,
1000
0000
0000
1010
0000
0000
0101
0000
0001
0010
0001
0010
0100
0000
0100
1000
,
0010
0000
0100
0001
0100
0000
0010
0000
1000
0000
0001
0100
0001
0000
1000
0000
,
0001
0000
1000
0100
1000
0000
0001
0000
0010
0000
0100
1000
0100
0000
0010
0000
,
0011
0100
1000
0000
0011
0100
1000
0000
,
1010
0000
0100
0000
0001
0000
0000
0000
1010
0000
0100
0001
0100
0001
1000
0100
,
1000
0000
0001
0010
0001
0000
1000
0000
0100
0000
0010
0001
0010
0000
0100
0000
,
1000
0000
0010
1000
0010
0000
0100
0000
0001
0000
1000
0010
1000
0000
0001
0000
,
0101
0000
0010
0000
1000
0000
0000
0000
0101
0000
0010
0000
1000
0010
1000
0010
,
0100
0000
0000
0000
0000
0000
0000
0000
0000
1010
0000
0000
0000
0000
0000
0000
0000
0000
0110
0000
0000
0000
0000
0000
1001
0000
0000
0000
0000
0000
0001
0000
0100
0000
0001
0000
0100
0000
0000
0000
0000
0000
0010
0000
0000
0000
0000
0000
,
1000
0000
0100
0010
0100
0000
1000
0000
0010
0000
1000
0000
0100
0000
1000
0000
,
0010
0000
0100
0010
0100
0000
0001
0000
0010
0000
0001
0000
0100
0000
0001
0000
,
0010
0000
0100
0010
0100
0000
1000
0000
0010
0000
0100
0000
0010
0000
1000
0000
,
0100
0000
0010
0001
1000
0000
0010
0000
0100
0001
0100
0001
1000
0000
0001
0010
,
0100
0000
0010
0001
0100
0000
1000
0000
0100
0000
0001
0000
0010
0000
0100
0000
,
1000
0000
0010
1000
0100
0000
0001
0000
0100
0000
1000
0000
0010
0000
0100
0001
,
0010
0000
0100
1000
0010
0000
0100
0000
0010
0100
1000
0100
0010
0000
0100
0001
,
1000
0000
0000
0000
0000
0000
0000
0000
0000
1010
0000
0000
0000
0000
0000
0000
0000
0000
0101
0000
0000
0000
0000
0000
1001
0000
0000
0000
0000
0000
1000
0000
0100
0000
1000
0000
0100
0000
0000
0000
0000
0000
0010
0000
0000
0000
0000
0000
,
0110
0000
0000
0110
0000
1000
0010
0000
0100
0001
0000
0000
,
1001
0000
1000
0100
0000
0010
0002
0000
0000
0023
0000
0000
,
0230
0000
0000
0000
2300
0000
0000
0000
0000
0000
0000
0000
3001
0100
0001
0100
,
0010
0000
1000
0100
1000
0100
0010
0000
0001
1000
0001
1000
0010
0000
0100
0001
,
0100
0001
1000
0000
0100
0010
0100
0010
0001
0000
1000
0000
1001
0000
0000
0000
,
1001
0000
1000
0100
0010
0000
0110
0000
0100
1000
0001
1000
0010
0100
0001
1000
,
0010
0000
0000
0000
0000
0000
0100
0010
0100
0010
0000
0000
0000
0000
0000
0000
0000
0000
0101
0000
0000
0000
0000
0000
,
1001
0000
0000
1010
0000
1000
0100
0001
0100
1000
0001
0100
,
0010
0000
0000
0000
0000
0000
0000
0000
0000
0000
0000
0000
0101
0000
0000
0000
0000
0000
0001
0000
0000
0100
0000
0000
1000
0000
0000
0000
0000
0000
0000
0000
0000
0000
0000
0000
1100
0000
0000
0000
0000
0000
0000
0000
0100
0000
0000
0000
,
0001
0000
0000
0010
0100
1000
0001
0010
1000
0010
0001
1000
,
0100
0000
0000
0000
0011
0000
0010
0100
1000
0100
1000
0000
0001
0010
0100
0000
,
1100
0000
1000
0000
0010
0100
0001
0100
0010
0000
0010
1000
0100
0000
0110
0000
,
0010
0001
0100
0010
0100
1000
0100
0001
0010
0000
0100
0010
0100
0000
1000
0000
,
0001
0100
0001
1000
0001
0100
0010
1000
0010
0100
0001
0010
0100
0000
0010
0001
,
1000
0000
0000
0110
0000
0000
0100
0001
1000
0000
0001
0010
0100
1000
0100
0010
,
0001
0000
0000
1001
0000
0001
0100
0010
0100
1000
0100
0010
,
1000
0000
0000
0000
0000
0000
0000
0000
0000
0000
0000
0000
1001
0000
0000
0000
0000
0000
1000
0000
0000
0100
0000
0000
0001
0000
0000
0000
0000
0000
0000
0000
0000
0000
0000
0000
0101
0000
0000
0000
0000
0000
0000
0000
0100
0000
0000
0000
,
1000
0000
0000
0001
0010
0100
0010
1000
0010
0001
1000
0010
,
0100
0000
0000
0000
1000
0000
0100
0001
0100
0001
1000
0100
0010
0000
0010
0100
,
1000
0000
1001
0000
0001
0100
0010
0100
0001
0000
1000
0100
0010
0000
0110
0000
,
0100
1000
0010
0100
0010
1000
0001
0010
0100
0000
0100
1000
0001
0000
1001
0000
,
1000
0100
1000
0001
1000
0010
0100
0001
1000
0100
0010
0100
1000
0000
0001
0100
,
0010
0000
0010
1000
0000
0000
0001
0010
0100
0010
0100
1000
0010
0100
0010
0100
,
0001
0010
1100
1000
0010
0100
0101
0001
,
1010
1000
1100
1000
1001
0000
0001
0100
,
1000
0000
0100
0010
0100
0000
0001
0000
1000
0000
0100
0010
0100
0000
0001
0000
,
0101
0000
0000
0000
1100
0000
0000
0000
1010
0000
0000
0000
0101
0000
0100
0001
,
1000
0100
0110
0001
1000
0010
0110
1000
,
0101
0001
1001
0001
0011
0000
1001
1000
,
0010
0000
0100
0001
0010
0000
0100
0000
1000
0001
0010
0001
1000
0001
0010
0001
,
1000
0000
0000
0000
0000
0000
0000
0000
0000
1010
0000
0000
0000
0000
0000
0000
0000
0000
0110
0000
0000
0000
0000
0000
1001
0000
0000
0000
0000
0000
0001
0000
0010
0000
0100
0000
1000
0000
0000
0000
0000
0000
0000
0000
0000
0000
0000
0000
,
0011
0000
0000
0000
0000
0000
0000
0000
0000
1100
0000
0000
0000
0000
0000
0000
0000
0000
0101
0000
0000
0000
0000
0000
1001
0000
0000
0000
0000
0000
1000
0000
0100
0000
0010
0000
0001
0000
0000
0000
0000
0000
0000
0000
0000
0000
0000
0000
,
0101
0000
0000
0101
0000
0000
1100
0000
1100
0000
0000
0110
0000
0000
0110
0000
,
1002
0000
0000
0000
0100
0000
0000
0000
0100
0000
0000
0000
0103
0010
0100
0010
,
0100
0000
0000
1001
0000
0001
0010
1000
0010
1000
0010
0001
,
0100
0000
0000
0000
0110
0000
0010
1000
0001
0000
0010
0000
0100
0000
0010
0001
,
1000
0000
0000
1001
0000
1000
0010
0001
0010
0001
0010
1000
,
0100
0000
0000
0000
0010
0000
0001
0100
0001
0100
0010
1000
0010
0000
0100
0001
,
0010
0000
0100
0000
0010
0001
1000
0010
1000
0000
0010
0000
0100
0001
0100
0010
,
0100
0001
0010
0100
0010
0001
1000
0100
0010
0000
0001
0000
1000
0000
0010
0000
,
0100
0010
0100
0010
1000
0010
0100
0001
0100
0010
0100
0010
1000
0001
0010
0000
,
0011
0000
0000
0011
0000
0000
0110
0000
1100
0000
1000
0100
0010
0000
0100
0000
,
0110
0000
0010
0001
0100
0000
0010
0000
0110
0000
0100
0001
0010
0000
0100
0000
,
0110
0000
0100
1000
0010
0000
0100
0000
0110
0000
0010
1000
0100
0000
0010
0000
,
0110
0001
1000
0001
0110
1000
0001
1000
,
1001
0000
0001
0000
0100
0000
0010
0000
1001
0000
0001
0000
0010
0000
0100
0010
,
0100
0000
1000
0010
1000
0000
0001
0100
0001
0000
0010
0100
0010
0000
0100
1000
,
0100
0000
0010
0100
0010
0000
0001
0100
0001
0010
0100
0010
1000
0000
0010
0000
,
0001
0100
0010
0100
0001
1000
0100
0010
0100
1000
0001
0010
0001
0010
0100
1000
,
0002
0000
0000
0000
0000
0000
0000
0000
0103
0010
0100
0010
0100
0000
0100
0001
,
1000
0000
0001
0010
0001
0010
0100
0000
1000
0100
1000
0100
0010
0000
0001
1000
,
0001
1000
0010
0000
0100
0001
0100
0001
1000
0000
0001
0010
0100
0000
0000
0000
,
1000
0100
0100
0001
0010
0010
1000
0100
0100
0001
0010
0010
,
1000
0000
0000
0000
0000
0000
1010
0000
0000
0110
0000
0000
1001
0000
0000
0001
0010
0100
2000
0000
0000
0000
0000
0000
,
0000
0000
0000
0000
0000
0000
0000
3001
,
1000
0100
0010
0001
1000
0010
1000
0001
0010
0100
1000
0001
0100
0001
1000
0100
,
0010
0001
1000
0100
1000
0001
0010
0100
1000
0001
0100
0001
1000
0100
0010
0001
,
0100
0010
0100
0010
1000
0100
1000
0001
0100
0001
0010
0100
0010
0100
1000
0010
,
1000
0001
0010
0100
1000
0010
0100
0001
0010
0100
1000
0010
0100
0001
2000
0000
,
0000
0000
0000
0010
0000
0000
0000
0000
,
0000
0000
0000
0000
0000
0000
0000
0000
0000
0000
0000
0000
3001
0100
0002
0000
,
0000
0000
0000
0000
,
0000
0000
0000
0000
,
0000
0000
0000
0000
0000
0000
0003
0101
,
1100
0000
0000
0000
;
