#TITLE:君という神話;
#SUBTITLE:;
#ARTIST:麻枝准×やなぎなぎ;
#TITLETRANSLIT:Kimi to Iu Shinwa;
#SUBTITLETRANSLIT:;
#ARTISTTRANSLIT:Maeda Jun x Yanagi Nagi;
#GENRE:ANIME;
#CREDIT:;
#MUSIC:Kimi to Iu Shinwa.ogg;
#BANNER:Kimi to Iu Shinwa.png;
#BACKGROUND:Kimi to Iu Shinwa-bg.png;
#CDTITLE:;
#SAMPLESTART:41.242;
#SAMPLELENGTH:11.250;
#SELECTABLE:YES;
#OFFSET:0.683;
#BPMS:0.000=176.000;
#STOPS:;
#BGCHANGES:2.000=Kimi to Iu Shinwa.avi=1.000=0=0=0=StretchNoLoop====,
99999.000=-nosongbg-=1.000=0=0=0=StretchNoLoop====
;
#FGCHANGES:;

//--------------- dance-single - ----------------
#NOTES:
     dance-single:
     :
     Hard:
     12:
     0,0,0,0,0:
0000
0000
0000
0000
,
0000
1000
1000
0010
0100
0010
0000
0110
,
0000
1000
0010
0100
0001
0010
0000
1001
,
0000
0002
2003
3002
0203
0320
0000
2030
,
0000
3200
0320
0032
0023
0230
0000
2300
,
0000
3001
0001
0010
0100
1000
0000
1001
,
0000
0001
0100
0010
1000
0010
0000
0110
,
0000
0200
0302
2003
3002
0023
0000
0230
,
0000
2300
3200
0320
0031
0100
1000
0100
,
0002
0203
0320
2030
,
3100
0000
0011
0000
1001
0002
0203
0000
,
0320
2030
3002
0203
,
0310
0000
1010
0000
1001
2000
3020
0000
,
0230
0302
0023
0230
,
1300
0000
1001
0000
0101
0200
0302
0000
,
2003
0000
0010
0000
3200
0320
0000
0032
,
0000
0010
0000
2003
3200
0302
0203
0000
,
1300
0011
0100
1010
,
0110
0110
1001
1001
,
0200
0302
0000
0100
0000
0023
0230
0000
,
1300
0020
0000
0100
0000
0230
0302
2003
,
3002
0023
0000
0100
0000
2030
3020
0030
,
0110
1001
0110
1001
,
0010
2000
0000
0100
0000
3200
0302
0000
,
0203
2300
0000
0010
0000
3020
0230
0302
,
2003
3002
0000
1000
0000
0023
0230
0300
,
0120
0000
0000
0100
0130
0000
1001
0000
,
2001
0000
0001
3020
0000
0100
1030
0000
,
1002
0000
1000
0023
0000
0100
0032
0000
,
2003
0000
3001
1000
0001
0000
1001
0000
,
0110
0000
0010
0100
0010
0000
0200
0302
,
1000
0203
1000
0320
0230
0001
0320
0000
,
0100
0032
1000
0203
,
1000
0302
0010
2003
,
0010
0000
3200
0010
0302
0010
0203
2300
,
0001
3020
0001
0230
0320
1000
0230
0000
,
0001
2300
0010
3200
,
0001
0000
2300
0001
3200
0010
2300
0001
,
3200
0010
2300
0000
0001
0000
3020
0230
,
0001
2300
0100
3020
0230
0001
2300
0000
,
0001
3020
0001
0230
,
0010
2300
0001
3200
,
0001
0000
2300
0010
3200
0001
0320
0230
,
1000
0320
0100
2030
3200
0001
2300
0000
,
0001
3200
0001
0320
,
0100
0000
0032
1000
0023
0100
0032
1000
,
0023
0100
0032
0000
1000
0000
2003
3200
,
0010
0302
1000
0023
0230
1000
0302
0000
,
1000
0023
0100
2030
,
0001
3200
0001
0320
,
0001
2030
0001
3020
,
0001
0230
1000
2300
,
0001
0000
3002
0010
0203
1000
0302
0000
,
1000
0000
0203
0001
2300
0001
3200
0000
,
0010
1000
0001
0301
,
0011
0011
1100
1100
,
1010
1010
0101
0101
,
0011
1100
1010
0101
,
1001
0000
0110
0000
1001
0000
0110
0010
,
0110
1100
0101
0011
,
1010
0011
0101
1100
,
0110
1001
0110
1001
,
1100
0000
0101
0000
1000
0001
1001
1001
;

//--------------- dance-single - ----------------
#NOTES:
     dance-single:
     :
     Challenge:
     16:
     0.394747,0.314609,0,0,0,249,249,0,0,0,0,0.394747,0.314609,0,0,0,249,249,0,0,0,0:
0000
0000
0000
0000
,
0000
0001
0001
0010
0100
0010
0000
0110
,
0000
0001
0010
0100
1000
0010
0000
1001
,
0000
2000
3002
2003
3200
0320
0000
0032
,
0000
0203
0320
2030
3020
0230
0000
0302
,
0000
1003
1000
0010
0100
0001
0000
1001
,
0000
1000
0100
0010
0001
0010
0000
0110
,
0000
0200
2300
3002
2003
3020
0000
0230
,
0000
0000
0302
0000
0203
0000
0320
0000
1030
0010
0100
0001
1000
0010
0100
0001
,
1000
1100
1000
1001
,
0001
0101
0001
1001
,
0001
0011
0100
1100
,
1000
0000
0000
0000
1010
0000
0000
0000
0100
0000
0000
0000
0001
0010
0100
1000
,
0001
0011
1000
1010
,
0001
0101
1000
1100
,
0001
0110
1000
0110
,
0001
1001
0100
1001
,
0011
0011
1010
1010
,
0110
0000
0000
0000
0110
0000
0000
0000
1001
0000
0001
0010
0100
0010
0001
0010
,
0100
0000
2000
0000
0000
0000
0001
0000
0000
0000
3001
0100
0020
0000
0000
0000
,
1000
0000
2030
0000
0000
0000
0100
0000
0000
0000
3100
1000
0001
0000
0010
0000
,
0100
0000
0200
0000
0000
0000
0001
0000
0000
0000
0301
0100
1000
0000
0000
0000
,
0110
0100
0101
0000
0110
0010
1010
0000
,
0010
0000
0020
0000
0000
0000
0100
0000
0000
0000
0130
0001
2000
0000
0000
0000
,
0100
0000
3200
0000
0000
0000
1000
0000
0000
0000
1300
0001
0010
0000
0001
0000
,
1000
0000
2000
0000
0000
0000
0001
0000
0000
0000
3100
0000
1000
0100
0010
0100
,
0010
0000
0000
0000
0110
0000
0000
0000
0010
0000
0001
0000
1000
0001
1000
0001
,
0100
0000
0001
0010
0000
0010
0100
0000
,
1001
0000
1000
0010
0000
0010
0100
0000
,
0110
0000
0100
0001
1000
0000
1001
0000
0001
0010
0100
0000
0110
0000
0010
0000
,
0001
0100
0010
0100
0010
0100
1000
0100
0001
0000
0000
0000
0001
0000
0010
0000
,
0100
0000
0001
0100
0010
0000
0001
0000
0100
0000
1000
0100
0010
0000
0100
0000
,
0001
0000
0010
0100
0010
0000
0100
0000
0001
0000
0100
1000
0010
0000
0100
0000
,
0010
0000
0100
0001
0010
0000
0100
0000
0010
0000
0100
1000
0010
0000
0100
0000
,
0010
0000
0100
0001
1000
0000
0100
0000
0010
0000
0100
0000
0010
0001
0100
1000
,
0100
0010
1000
0100
0010
0000
1000
0000
0010
0000
0001
0100
0010
0000
0100
0000
,
1000
0000
0100
0001
0010
0000
0100
0000
1000
0000
0010
0100
0010
0000
0001
0000
,
0010
0000
1000
0001
1000
0000
0100
0000
0010
0000
0001
1000
0100
0000
0001
0000
,
0100
0000
1000
0010
0001
0000
0000
0000
0110
0000
0010
1000
0100
0010
0100
1000
,
0001
0000
0010
0000
0011
0000
0001
0010
0100
0000
0010
0000
0110
0000
0100
1000
,
0001
0000
0100
0000
0101
0000
0001
1000
0010
0000
0100
0000
0110
0000
0010
1000
,
0001
0000
0010
0000
0011
0000
0001
0010
0100
0000
1000
0000
1100
0000
0100
1000
,
0001
0000
0010
0000
0011
0000
0001
0010
0100
0010
0001
0010
0100
0000
0100
1000
,
0010
0000
0100
0000
1010
0000
0010
0100
0010
0000
1000
0000
0101
0000
0001
0010
,
0001
0000
1000
0000
0110
0000
0100
0001
0100
0000
0010
0000
1001
0000
0001
0010
,
0001
0000
1000
0000
0011
0000
0010
0100
0010
0000
0001
0000
1100
0000
1000
0001
,
1000
0000
0010
0000
0110
0000
0100
0001
0010
0000
0100
0000
1000
0000
0001
0000
,
1000
0000
0001
0100
0001
0000
0100
0010
0100
0000
0010
1000
0010
0000
1000
0001
,
1000
0000
0001
0010
0001
0000
0010
0100
0010
0000
0100
1000
0100
0000
1000
0010
,
0100
0000
0001
1000
0001
0000
0100
0001
0010
0000
0100
1000
0100
0000
0010
0001
,
1000
0000
0010
0100
0010
0000
0100
0001
1000
0000
0100
1000
0100
0000
0010
0001
,
0100
0000
0010
0000
0100
0000
0010
1000
0100
0000
0001
0100
0010
0000
0001
0100
,
0010
0000
0100
0001
1000
0000
0100
1000
0010
0000
0100
0001
0010
0000
1000
0001
,
0100
0000
0010
0001
0100
0000
1000
0100
0001
0000
1000
0000
0100
0000
0001
0000
,
0100
0010
1000
0010
0001
0100
0110
0110
,
0000
1000
1010
0010
0110
0100
0101
0001
,
1001
1000
1100
0100
0110
0010
0011
0001
,
1001
1000
1010
0010
0110
0100
0101
0001
,
1001
1000
1100
0100
0110
0010
0011
0011
,
0000
0001
1010
0100
0011
1000
0110
0001
,
1010
0100
1001
0010
1100
0001
0110
1000
,
0011
0100
1001
0010
1100
0001
0110
1000
,
0011
0100
1001
0000
1000
0001
1100
0101
;
