#TITLE:奇縁ロマンス;
#SUBTITLE:;
#ARTIST:ナナヲアカリ;
#TITLETRANSLIT:Kien Romance;
#SUBTITLETRANSLIT:;
#ARTISTTRANSLIT:Nanawoakari;
#GENRE:POP;
#CREDIT:;
#MUSIC:Kien Romance.ogg;
#BANNER:Kien Romance.png;
#BACKGROUND:Kien Romance-bg.png;
#CDTITLE:;
#SAMPLESTART:48.377;
#SAMPLELENGTH:19.223;
#SELECTABLE:YES;
#OFFSET:-0.027;
#BPMS:0.000=103.000
,82.000=51.500
,82.500=103.000
;
#STOPS:;
#BGCHANGES:2.000=Kien Romance.avi=1.000=0=0=0=StretchNoLoop====,
99999.000=-nosongbg-=1.000=0=0=0=StretchNoLoop====
;
#FGCHANGES:;

//--------------- dance-single - ----------------
#NOTES:
     dance-single:
     :
     Medium:
     11:
     0,0,0,0,0:
0000
0000
0000
0000
,
0001
0100
0001
0000
1000
0100
1000
0000
,
0001
0010
0100
1000
0001
0000
1000
0010
,
1000
0000
0001
0010
0001
0000
0011
0000
,
1100
1010
0101
1002
,
0203
0000
0301
0001
0100
1000
0100
0001
,
0101
0000
0001
1000
1100
0000
0100
0010
,
1001
0000
1000
1000
0100
0001
0100
1000
,
1100
0000
0101
0000
1001
0000
1000
0001
,
0100
0000
0010
1000
0100
0010
0100
1000
,
0001
0000
1000
0010
0100
0000
0100
0001
,
2000
0000
3200
0000
0310
0001
1000
0001
,
0100
0000
0100
0001
1000
0000
0110
0000
,
1001
0000
0001
0100
0001
0010
0100
1000
,
0010
0000
0100
0001
1000
0000
0001
0100
,
0010
0000
0000
0010
0000
0000
1000
0000
0001
0000
0000
0001
0000
0000
0010
0000
,
0100
0000
0100
1000
0001
0000
0001
1000
,
0001
0100
1000
0001
0010
1000
0001
0010
,
0100
1000
0100
0010
0001
0000
1000
0001
,
1000
0100
0001
1000
0010
0001
1000
0010
,
0110
0000
0000
0000
0000
0000
0000
0000
0000
0000
0000
0000
0000
0000
0000
0000
0000
0000
0000
0000
0000
0000
0000
0000
0000
0000
0000
0000
0000
0000
0000
0000
0000
0000
0000
0000
0000
0000
0000
0000
0000
0000
0000
0000
0000
0000
0000
0000
1001
0000
0000
0000
0000
0000
0000
0000
0000
0000
0000
0000
0000
0000
0000
0000
0000
0000
0000
0000
0000
0000
0000
0000
0000
0000
0000
0000
0000
0000
0000
0000
0000
0000
0000
0000
0000
0000
0000
0000
0000
0000
0000
0000
0000
0000
0000
0000
0220
0330
0000
0000
0000
0000
0000
0000
0000
0000
0000
0000
0000
0000
0000
0000
0000
0000
0000
0000
0000
0000
0000
0000
1000
0000
0000
0000
0000
0000
0000
0000
0000
0000
0000
0000
0000
0000
0000
0000
0000
0000
0000
0000
0000
0000
0000
0000
0001
0000
0000
0000
0000
0000
0000
0000
0000
0000
0000
0000
0000
0000
0000
0000
0000
0000
0000
0000
0000
0000
0000
0000
0010
0000
0000
0000
0000
0000
0000
0000
0000
0000
0000
0000
0000
0000
0000
0000
0000
0000
0000
0000
0000
0000
0000
0000
,
0000
0100
1000
0001
0000
0100
0010
0100
,
0001
0010
0100
1000
0000
0001
0100
1000
,
0000
1000
0100
0001
0000
0101
0000
1010
,
0000
1100
0000
0011
0000
0001
1000
0100
,
0000
0010
0001
1000
0000
0010
0100
0010
,
1000
0100
0010
0001
0000
1000
0100
0001
,
0000
0001
0100
1000
0000
1100
0000
0011
,
0000
0101
0000
1010
0000
2000
0000
3002
,
0000
1003
1000
0010
0100
0001
1000
0001
,
0001
0100
0100
0010
1000
0001
0010
0100
,
0000
0100
1000
0010
0100
0001
1000
0001
,
0010
2000
0000
3020
0000
0031
0100
1000
,
0000
0100
0001
0010
0100
1000
0001
0200
,
0000
1000
0000
0310
0010
1000
0001
0010
,
0001
1000
0010
1000
0001
0010
0100
1100
,
0000
0101
0000
1010
0000
0202
0000
0000
,
0000
0000
0000
0303
0000
1000
0010
0100
,
0000
0001
0010
0100
0000
1000
0010
0100
,
0001
0010
0100
1000
0000
0001
0010
1000
,
0000
1000
0010
0001
0000
0011
0000
1100
,
0000
1010
0000
0101
0000
0001
0010
0100
,
0000
1000
0010
0100
0000
0010
1000
0001
,
0010
0100
1000
0001
0000
1000
0010
0001
,
0000
0001
0010
1000
0000
1010
0000
0101
,
0000
0011
0000
1100
0000
2000
0000
3002
,
0000
0203
0000
0000
0000
0300
0000
0101
,
0000
1100
0000
1000
0001
0100
0000
0010
,
1000
0001
0000
0010
0100
1000
0000
1100
,
0000
0101
0000
0001
1000
0100
0000
0110
,
0000
1001
0000
0110
0000
0100
0100
1010
,
0000
0101
0000
0001
1000
0100
0000
0010
,
0001
0100
0000
0010
1000
0001
0000
0011
,
0000
1100
0000
1000
0010
0100
0000
1001
,
0000
0110
0000
2001
0000
3020
0000
0130
;

//--------------- dance-single - ----------------
#NOTES:
     dance-single:
     :
     Hard:
     15:
     0,0,0,0,0:
0000
0000
0000
0000
0000
0000
0000
0000
0000
0000
0000
0000
0000
0000
0000
0000
0000
0000
0100
0000
0000
0001
0000
1000
,
0100
0000
0000
0010
0000
0000
0001
0000
1000
0100
0000
1000
0001
0000
0000
0100
0000
0000
0010
0000
1000
0001
0000
1000
,
0100
0000
0000
0010
0000
0001
0100
0000
0000
0001
0000
0010
0100
0000
0000
1000
0000
0000
0010
0000
0010
0100
0000
0000
,
0001
0000
0000
1000
0000
0000
0100
0000
0100
0010
0000
0010
0100
0000
0000
1000
0000
0000
1000
0000
0100
0000
1000
0000
,
0001
0000
0100
0000
0001
0000
0010
0000
0100
0000
1000
0000
0001
1000
0001
1000
0001
1000
0001
0000
0000
0100
0000
0010
,
0100
0000
0000
0001
0000
1000
0100
0000
0000
0100
0000
0000
1000
0000
0001
0010
0000
0010
0100
0000
0000
1000
0000
0000
,
1100
0000
0000
0100
0000
1000
0001
0000
0000
0100
0000
0000
0101
0000
0000
0001
0000
0000
1000
0000
0010
0100
0000
0000
,
0101
0000
0000
0001
0000
1000
0010
0000
0000
0010
0000
0000
0100
0000
0001
1000
0000
1000
0100
0000
0000
0010
0000
0000
,
0101
0000
0000
0010
0000
0000
1100
0000
0000
0010
0000
0000
1001
0000
0000
1000
0100
0010
0001
0000
0100
0010
0000
0000
,
0110
0000
0000
0000
0000
0100
0001
0000
0100
0001
0000
0010
0100
0000
0010
0001
0000
0001
1000
0000
0000
0010
0000
0000
,
0110
0000
0000
0000
0000
0001
1000
0000
1000
0100
0000
0000
1100
0000
0000
0000
0000
1000
0010
0000
0000
0100
0000
0000
,
0001
0000
0000
0001
0000
1000
0100
0000
0000
0100
0000
1000
0010
0000
0100
0010
0000
0100
0001
0000
0010
0100
0000
1000
,
0001
0000
0000
0010
0000
0100
0000
0000
0000
1000
0000
0001
0000
0000
1000
0010
0000
1000
0100
0000
0000
0010
0000
0000
,
1100
0000
0000
0000
0000
1000
0000
0000
0001
0100
0000
0001
1000
0000
0100
0010
0000
0100
1000
0000
0000
0001
0000
0000
,
0101
0000
0000
0000
0000
0001
1000
0000
1000
0010
0000
0000
0110
0000
0000
0100
0000
0001
0000
0000
1000
0100
0000
0000
,
1000
0000
0000
0010
0000
0100
0000
0000
0000
0100
0000
0000
0001
0000
0000
1000
0000
0100
0000
0000
0000
0100
0000
0000
,
1000
0000
0000
0001
0000
0100
0000
0000
0000
0010
0000
0000
0100
0000
0001
1000
0000
0001
1000
0000
0010
0100
0000
0000
,
0001
0000
0100
0001
0000
0001
1000
0000
0000
1000
0000
0010
0100
0000
0100
0001
0000
0000
0010
0000
0100
1000
0000
1000
,
0001
0000
0000
0100
0000
0010
2000
0000
0000
3200
0000
0000
0320
0000
0000
0031
0000
1000
0010
0000
0000
0110
0000
0000
,
0001
0000
1000
0100
0000
0100
1000
0000
0000
1000
0000
0001
0100
0000
0100
0001
0000
0000
0010
0000
0100
1000
0000
0000
,
0001
0000
0000
0000
0000
0000
0000
0000
0000
0000
0000
0000
0000
0000
0000
0000
0100
0000
0000
0000
0000
0000
0000
0000
0010
0000
0000
0000
0000
0000
0000
0000
0000
0000
0000
0000
0000
0000
0000
0000
0010
0000
0000
0000
0000
0000
0000
0000
0100
0000
0000
0000
0000
0000
0000
0000
0000
0000
0000
0000
0000
0000
0000
0000
0000
0000
0000
0000
0000
0000
0000
0000
0010
0000
0000
0000
0000
0000
0000
0000
0000
0000
0000
0000
0000
0000
0000
0000
0000
0000
0000
0000
0000
0000
0000
0000
0220
0330
0000
0000
0000
0000
0000
0000
0000
0000
0000
0000
0000
0000
0000
0000
0000
0000
0000
0000
0000
0000
0000
0000
1000
0000
0000
0000
0000
0000
0000
0000
0000
0000
0000
0000
0000
0000
0000
0000
0000
0000
0000
0000
0000
0000
0000
0000
0010
0000
0000
0000
0000
0000
0000
0000
0000
0000
0000
0000
0000
0000
0000
0000
1000
0000
0000
0000
0000
0000
0000
0000
0001
0000
0000
0000
0000
0000
0000
0000
0000
0000
0000
0000
0000
0000
0000
0000
0000
0000
0000
0000
0000
0000
0000
0000
,
0010
0000
0000
0100
0000
1000
0010
0000
1000
0010
0000
0000
0100
0000
0000
0001
0000
0010
0100
0000
0010
0001
0000
0000
,
1000
0000
0010
0100
0000
0000
0001
0000
0010
0100
0000
0000
1000
0000
0000
0010
0000
0100
0001
0000
0100
0001
0000
0000
,
0010
0000
0100
1000
0000
1000
0010
0000
0010
0100
0000
0000
0001
0000
0000
1100
0000
1000
0000
0001
0000
0101
0000
0100
,
0000
0001
0000
0011
0000
0010
0000
0100
0000
1100
0000
0000
1000
0000
0010
0100
0000
0000
0010
0000
0000
0110
0000
0000
,
0100
0000
0010
1000
0000
0001
0100
0000
0001
0010
0000
0000
0100
0000
1000
0010
0000
0100
0001
0000
0010
0100
0000
0000
,
1000
0000
0010
0100
0000
0000
0001
0000
0010
0100
0000
0000
1000
0000
0001
0100
0000
0000
0010
0000
0000
1001
0000
0000
,
0001
0000
0000
1000
0000
0010
0100
0000
0010
1000
0000
0000
0010
0000
0000
0101
0000
0001
0000
1000
0000
1100
0000
0100
,
0000
1000
0000
1010
0000
0010
0000
0100
0000
0110
0000
0010
1000
0000
1000
0001
0000
0000
0010
0000
0000
0100
0000
0000
,
1000
0000
0001
0100
0000
0000
0001
0000
0000
0010
0000
0100
1000
0000
0100
1000
0000
0000
0010
0000
0000
0100
0000
0000
,
0001
0000
0000
0010
0000
0000
0001
0000
0000
0100
0000
0010
1000
0000
0010
1000
0000
0000
0100
0000
1000
0001
0000
0000
,
0010
0000
0000
0100
0000
0000
0010
0000
0000
0001
0000
1000
0100
0000
1000
0100
0000
0000
0010
0000
0000
0001
0000
0100
,
0001
0000
0000
1000
0000
0100
0000
0100
0000
1000
0000
1000
0000
0001
0000
0001
0000
0000
0100
0000
0010
1000
0000
0000
,
0001
0000
1000
0100
0000
0000
0010
0000
0000
0010
0000
0001
0100
0000
0001
0100
0000
0000
0010
0000
0000
1000
0000
0000
,
0001
0000
0000
0100
0000
0010
0100
0000
0000
0001
0000
1000
0100
0000
1000
0100
0000
0000
0010
0000
0000
0001
0000
1000
,
0010
0000
0100
0010
0000
0000
1000
0000
0000
0001
0000
0010
0100
0000
1000
0100
0000
0000
1000
0000
0000
1100
0000
0000
,
0000
0101
0000
1010
0000
0220
0000
0000
,
0000
0000
0000
0000
0000
0000
0000
0000
0000
0000
0000
0000
0330
0000
0000
1000
0000
0001
0100
0000
0001
1000
0000
0000
,
0100
0000
0000
0010
0000
0001
0100
0000
0001
1000
0000
0000
0010
0000
0100
0001
0000
0001
0010
0000
0010
0100
0000
0000
,
1000
0000
1000
0010
0000
0000
0001
0000
0001
0010
0000
0000
0100
0000
0000
0001
0000
0010
0100
0000
1000
0001
0000
0000
,
0100
0000
0010
0100
0000
0100
0010
0000
0010
1000
0000
0000
1010
0000
0000
0101
0000
0001
0000
0010
0000
1100
0000
1000
,
0000
0010
0000
0101
0000
0100
0000
0010
0000
1001
0000
0000
0001
0000
0000
1000
0000
0010
0100
0000
0001
0010
0000
0000
,
0100
0000
0000
0001
0000
0100
0010
0000
0001
1000
0000
0000
0010
0000
0000
0100
0000
0001
0010
0000
0010
0100
0000
0000
,
1000
0000
1000
0010
0000
0000
0001
0000
0001
0010
0000
0010
0100
0000
0000
0101
0000
0000
1000
0000
0000
0010
0000
0000
,
0100
0000
0000
0001
0000
0100
0010
0000
0010
0100
0000
0000
0101
0000
0000
1010
0000
1000
0000
0100
0000
0011
0000
0001
,
0000
0100
0000
1010
0000
0010
0000
0100
0000
1001
0000
1000
0010
0000
0010
0100
0000
0000
0001
0000
1000
0100
0000
0000
,
0000
0000
1000
0020
0000
0000
0000
0000
0000
1000
0000
0000
0100
0000
0000
1000
0000
0000
0130
0000
0000
0102
0000
0000
,
0013
0000
0000
2100
0000
0000
3010
0000
0000
0100
0000
0001
0000
0010
0000
0100
0000
1000
0010
0000
0010
1000
0000
1000
,
0001
0000
0000
0010
0000
0000
0100
0000
1000
0010
0000
0100
0000
0001
0000
0010
0000
0100
1000
0000
1000
0010
0000
0000
,
0100
0000
0001
0010
0000
0000
0100
0000
1000
0010
0000
0100
0000
0010
0000
1000
0000
0001
0010
0000
0000
0110
0000
1000
,
0000
0001
0000
0110
0000
0001
0000
1000
0000
0110
0000
1000
0020
0000
0000
0100
0000
0000
0130
0000
0000
2100
0000
0000
,
3010
0000
0000
0102
0000
0000
0013
0000
0000
0100
0000
1000
0000
0010
0000
0100
0000
0001
0010
0000
0000
0010
0000
0000
,
0100
0000
1000
0010
0000
0000
0100
0000
0010
0100
0000
0001
0000
1000
0000
0001
0000
0010
0100
0000
0000
1000
0000
0000
,
0001
0000
0100
0010
0000
0000
0100
0000
0010
1000
0000
0100
0000
0010
0000
0100
0000
1000
0001
0000
0000
1001
0000
0010
,
0000
0100
0000
1001
0000
0100
0000
0010
0000
0210
0000
0000
0010
0000
0000
0320
0000
0000
0000
0000
0000
0130
0000
0000
;

//--------------- dance-single - ----------------
#NOTES:
     dance-single:
     :
     Challenge:
     17:
     0.473765,0.358059,0,0,0,433,433,0,0,0,0,0.473765,0.358059,0,0,0,433,433,0,0,0,0:
0000
0000
0000
0000
,
0101
0000
0000
1000
0000
0010
0100
0000
0100
0002
0000
0000
1003
0000
0000
0001
0000
0010
0100
0000
0100
1000
0000
1000
,
0020
0000
0000
0130
0000
0001
0020
0000
0000
0130
0000
1000
0020
0000
0000
0130
0000
0002
1000
0000
0000
0010
0000
0000
,
0103
0000
0000
1000
0000
0010
0100
0000
0100
0002
0000
0000
0023
0000
0000
0130
0000
1000
0001
0000
0100
0000
0010
0000
,
1001
0000
0000
0000
0000
0000
0000
0000
0010
0000
0000
0000
0000
0000
0000
0000
0100
0000
0000
0000
0000
0000
0000
0000
0110
0000
0000
0000
0000
0000
0000
0000
0001
0000
0000
0000
0000
0000
0000
0000
1000
0000
0000
0000
0000
0000
0000
0000
0001
0000
0000
0010
0000
0000
0100
0000
0000
1000
0000
0000
0001
0000
0000
0010
0000
0000
0100
0000
0000
1000
0000
0000
0001
0000
0000
0000
0000
0000
0000
0000
0000
0000
0000
0000
0100
0000
0000
0000
0000
0000
0000
0000
0000
0000
0000
0000
,
1020
0000
0000
0130
0000
0002
0010
0000
0000
0010
0000
0000
0103
0000
0001
0010
0000
0010
0100
0000
0000
1000
0000
0000
,
2010
0000
0000
3010
0000
0100
0002
0000
0000
0013
0000
0000
0210
0000
0000
1300
0000
0000
1001
0000
0010
0100
0000
0000
,
0201
0000
0000
0310
0000
2000
0001
0000
0000
3001
0000
0000
1100
0000
1000
0010
0000
0010
0200
0000
0000
0301
0000
0000
,
0011
0000
0000
0000
0000
0000
0000
0000
0000
0000
0000
0000
0100
0000
0000
0000
0000
0000
0000
0000
0000
0000
0000
0000
1010
0000
0000
0000
0000
0000
0000
0000
0000
0000
0000
0000
0100
0000
0000
0000
0000
0000
0000
0000
0000
0000
0000
0000
1001
0000
0000
0000
0000
0000
0000
0000
0000
0000
0000
0000
1000
0000
0000
0001
0000
0000
0010
0000
0000
0100
0000
0000
2000
0000
0000
0000
0000
0000
0000
0000
0010
0000
0000
0000
3010
0000
0000
0000
0000
0000
0000
0000
0000
0000
0000
0000
,
0210
0000
0000
0001
0000
0301
0010
0000
0020
0000
0000
0130
1000
0000
1000
0001
0000
0100
0020
0000
0000
0130
0000
0000
,
1002
0000
0000
1003
0000
0010
0100
0000
0100
0010
0000
0000
0110
0000
0000
0001
0000
1000
0001
0000
0100
0001
0000
0000
,
0011
0000
0000
2100
0000
3010
0100
0000
0000
0102
0000
0013
0100
0000
1000
0010
0000
0100
0001
0000
0001
0010
0000
0100
,
2000
0000
0000
0000
0000
0000
0000
0000
0000
0000
0000
0000
0001
0000
0000
0000
0000
0000
0000
0000
3002
0000
0000
0000
0000
0000
0000
0000
0000
0000
0000
0000
0103
0000
0000
0000
0010
0000
0000
0000
0000
0000
0000
0000
0010
0000
0000
0000
0000
0000
0000
0000
0000
0000
0000
0000
1000
0000
0000
0000
0001
0000
0000
0000
0000
0000
0000
0000
0010
0000
0000
0000
0100
0000
0000
1000
0000
0000
0001
0000
0000
0010
0000
0000
0100
0000
0000
1000
0000
0000
0001
0000
0000
0010
0000
0000
,
0200
0000
0000
0000
0000
0000
0000
0000
0000
1300
0000
0000
0000
0000
0000
0000
1000
0000
0010
0000
0000
0000
0010
0000
0100
0000
0000
0000
0001
0000
0010
0000
0000
0000
0100
0000
0010
0000
0000
0000
0000
0000
0011
0000
0000
0000
0000
0000
,
2100
0000
0000
0000
0000
3001
0100
0000
0100
0010
0000
0010
0200
0000
0000
0001
0000
0301
0010
0000
0000
1100
0000
0000
,
1002
0000
0000
0100
0000
0013
0100
0000
0000
1100
0000
0000
2001
0000
0000
0010
0000
3100
0010
0000
0000
0101
0000
0000
,
1020
0000
0000
0000
0000
0000
0000
0000
0000
0000
0000
0000
0100
0000
0000
0000
0000
0000
0000
0000
0031
0000
0000
0000
2000
0000
0000
0000
0000
0000
0000
0000
0000
0000
0000
0000
3001
0000
0000
0000
0000
0000
0000
0000
0000
0000
0000
0000
0101
0000
0000
0000
0000
0000
0000
0000
0100
0000
0000
0000
0010
0000
0000
0000
0000
0000
0000
0000
0100
0000
0000
0000
0001
0000
0000
1000
0000
0000
0001
0000
0000
1000
0000
0000
0100
0000
0000
0000
0000
0000
0000
0000
0000
0000
0000
0000
,
0100
0000
1000
0100
0000
0100
2000
0000
0000
3001
0000
0100
0001
0000
0001
0200
0000
0000
0310
0000
1000
0010
0000
0010
,
2000
0000
0000
3001
0000
0001
0020
0000
0000
0230
0000
0000
2300
0000
0000
3001
0000
0100
0010
0000
0010
0100
0000
0000
,
1001
0000
0001
0010
0000
0010
0100
0000
0000
1001
0000
1000
0010
0000
0010
0100
0000
0000
1001
0000
0001
1000
0000
0000
,
0110
0000
0000
0000
0000
0000
0000
0000
0000
0000
0000
0000
0000
0000
0000
0000
1000
0000
0000
0000
0000
0000
0000
0000
0010
0000
0000
0000
0000
0000
0000
0000
0000
0000
0000
0000
0000
0000
0000
0000
0010
0000
0000
0000
0000
0000
0000
0000
0100
0000
0000
0000
0000
0000
0000
0000
0000
0000
0000
0000
0000
0000
0000
0000
0000
0000
0000
0000
0000
0000
0000
0000
0010
0000
0000
0000
0000
0000
0000
0000
0000
0000
0000
0000
0000
0000
0000
0000
0000
0000
0000
0000
0000
0000
0000
0000
0220
0330
0000
0000
0000
0000
0000
0000
0000
0000
0000
0000
0000
0000
0000
0000
0000
0000
0000
0000
0000
0000
0000
0000
1001
0000
0000
0000
0000
0000
0000
0000
0000
0000
0000
0000
0000
0000
0000
0000
1000
0000
0000
0000
0000
0000
0000
0000
0010
0000
0000
0000
0000
0000
0000
0000
0000
0000
0000
0000
0000
0000
0000
0000
0100
0000
0000
0000
0000
0000
0000
0000
0010
0000
0000
0000
0000
0000
0000
0000
0000
0000
0000
0000
0000
0000
0000
0000
0000
0000
0000
0000
0000
0000
0000
0000
,
0101
0000
0000
0000
0001
0000
0010
0000
0000
0000
0100
0000
0010
0000
0000
0000
0001
0000
1000
0000
0000
0000
0010
0100
0010
0000
0000
0000
0000
0000
0100
0000
0000
0000
0001
0000
1000
0000
0000
0000
0010
0000
0100
0000
0000
0000
0000
0000
,
1010
0000
1000
0010
0000
0010
0100
0000
0100
0002
0000
0000
0013
0000
0000
1100
0000
1000
0001
0000
0001
0100
0000
0000
,
1001
0000
0000
0000
0001
0000
1000
0000
0000
0000
1000
0000
0010
0000
0000
0000
0100
0000
0001
0000
0000
0000
1000
0100
1000
0000
0000
0000
0010
0000
0101
0000
0000
0000
0011
0000
0000
0000
0110
0000
0000
0000
1100
0000
0000
0000
1010
0000
,
0000
0110
0000
0101
0000
1001
0000
0011
0000
2100
0000
0000
3010
0000
0010
0100
0000
0001
1000
0000
0000
1100
0000
0000
,
1001
0000
0001
0100
0000
0010
0100
0000
0001
0010
0000
0000
1100
0000
1000
0010
0000
0100
0010
0000
1000
0001
0000
0000
,
1100
0000
0000
0000
1000
0000
0001
0000
0000
0000
0000
0000
0101
0000
0000
0000
0001
0000
1000
0000
0000
0000
0010
0100
0010
0000
0000
0000
1000
0000
0010
0000
0000
0000
0010
0000
0100
0000
0000
0000
0000
0000
0101
0000
0000
0000
0000
0000
,
0001
0000
0010
0100
0000
1000
0001
0000
0001
0100
0000
0000
0001
0000
0010
1100
0000
1010
0000
0110
0000
0101
0000
0011
,
0000
0110
0000
1100
0000
1001
0000
0101
0000
0110
0000
0100
0010
0000
1000
0010
0000
0100
0001
0000
0000
0020
0000
0000
,
0130
0000
0000
0000
1000
0100
1000
0000
0000
0000
0000
0000
1100
0000
0000
0000
0000
0000
1000
0000
0000
0000
0001
0000
0100
0000
0000
0000
0100
0000
0020
0000
0000
0000
0000
0000
1030
0000
0000
0000
0001
0100
0001
0000
0000
0000
0000
0000
,
0101
0000
0000
0001
0000
0001
0010
0000
0000
0110
0000
1000
0010
0000
0010
0100
0000
0000
0110
0000
0100
0002
0000
0000
,
1003
0000
0000
0000
0010
0100
0010
0000
0000
0000
0000
0000
0110
0000
0000
0000
0000
0000
1000
0000
0000
0000
0001
0000
0010
0000
0000
0000
0010
0000
0100
0000
0000
0000
0000
0000
0010
0000
0000
0000
0000
0000
0001
0000
0000
0000
1000
0000
,
0001
0000
0000
0011
0000
1100
0000
1100
0000
0011
0000
0001
1000
0000
1000
0010
0000
0000
0110
0000
0100
0010
0000
0000
,
1000
0000
0000
0000
0001
0100
0001
0000
0000
0000
0000
0000
0110
0000
0000
0000
0000
0000
0001
0000
0000
0000
0100
0000
0001
0000
0000
0000
0001
0000
0010
0000
0000
0000
0010
0000
0100
0000
0000
0000
0100
1000
0020
0000
0000
0000
0000
0000
,
0100
0000
0000
1000
0000
1030
0001
0000
0000
0101
0000
0100
0010
0000
0010
1000
0000
0000
1001
0000
0000
0001
0000
0001
,
0010
0000
0000
0000
0100
1000
0100
0000
0000
0000
0000
0000
1100
0000
0000
0000
0000
0000
0100
0000
0000
0000
1000
0000
0010
0000
0000
0000
0010
0000
0100
0000
0000
0000
0000
0000
0001
0000
0000
0000
0000
0000
0101
0000
0000
0000
0000
0000
,
0000
1100
0000
1001
0000
0210
0000
0000
,
0000
0000
0000
0000
0000
0000
0000
0000
0000
0010
0000
0010
0000
0310
0000
1000
0000
0000
0001
0000
0000
1100
0000
0000
,
1000
0000
0000
0000
0010
0000
0100
0000
0000
0000
0100
0000
0001
0000
0000
0000
1000
0000
0100
0000
0000
0000
0100
1000
0001
0000
0000
0000
0100
0000
0010
0000
0000
0000
0010
0000
0100
0000
0000
0000
0001
0000
0010
0000
0000
0000
0000
0000
,
1100
0000
1000
0010
0000
0000
0101
0000
0001
0010
0000
0000
0110
0000
0100
1000
0000
1000
0001
0000
0100
0010
0000
0000
,
1010
0000
1000
0010
0000
0010
0100
0000
0001
0010
0000
0000
0011
0000
0010
1100
0000
0011
0000
0101
0000
1010
0000
1010
,
0000
0000
0101
0000
0000
0000
0011
0000
0000
0000
1010
0000
0000
0000
0110
0000
0000
0000
0101
0000
0000
0000
0001
0010
0100
0000
0000
0000
0010
0000
0001
0000
0000
0000
0001
0000
1000
0000
0000
0000
0010
0000
0100
0000
0000
0000
0000
0000
,
1001
0000
0001
1000
0000
1000
0010
0000
0100
0001
0000
0000
0011
0000
0010
0100
0000
0100
1000
0000
0001
0100
0000
0000
,
1001
0000
0000
0000
0100
0000
0010
0000
0000
0000
0000
0000
0110
0000
0000
0000
0001
0000
1000
0000
0000
0000
1000
0010
0100
0000
0000
0000
0001
0000
0010
0000
0000
0000
0010
0000
0100
0000
0000
0000
1000
0000
0001
0000
0000
0000
0000
0000
,
0101
0000
0100
0001
0000
0001
1000
0000
0010
0100
0000
0000
1010
0000
0010
0101
0000
0011
0000
1100
0000
1001
0000
0101
,
0000
0000
0110
0000
0000
0000
1010
0000
0000
0000
0101
0000
0000
0000
0011
0000
0000
0000
1001
0000
0000
0000
1000
0010
0100
0000
0000
0000
0001
0000
0010
0000
0000
0000
0000
0000
0010
0000
0000
0000
0010
0000
0100
0000
0000
0000
0000
0000
,
0000
0000
1000
0010
0000
0000
0100
0000
0000
1001
0000
0000
1001
0000
0000
1001
0000
0000
0110
0000
0000
0101
0000
0001
,
0010
0000
0000
0000
0000
0000
1100
0000
0000
0000
1000
0000
0010
0000
0000
0000
0200
0000
0001
0000
0000
0000
0010
0000
0000
0000
0001
0000
0000
0000
0310
0000
0000
0000
0010
1000
0001
0000
0000
0000
0010
0000
0100
0000
0000
0000
0100
0000
,
1000
0000
0000
0000
1000
0000
0010
0000
0000
0000
0000
0000
1000
0000
0000
0000
0020
0000
0100
0000
0000
0000
1000
0000
0000
0000
0100
0000
0000
0000
1030
0000
0000
0000
1000
0001
0100
0000
0000
0000
0000
0000
0110
0000
0000
0000
1000
0000
,
0001
0000
0000
0000
0000
0000
0011
0000
0000
0000
0010
0000
0100
0000
0000
0000
0200
0000
1000
0000
0000
0000
0010
0000
0000
0000
1000
0000
0000
0000
0310
0000
0000
0000
0010
0001
1000
0000
0000
0000
0010
0000
0110
0000
0000
0000
0101
0000
,
0000
0000
0000
0000
1001
0000
0000
0000
0000
0000
0000
0000
1010
0000
0000
0000
0000
0000
0000
0000
0110
0000
0000
0000
0000
0000
0000
0000
0101
0000
0000
0000
0000
0000
0000
0000
1001
0000
0000
0000
0000
0000
0000
0000
1000
0000
0100
0000
0010
0000
0000
0000
0000
0000
0000
0000
0100
0000
0000
0000
1000
0000
0000
0000
0000
0000
0000
0000
0001
0000
0000
0000
0010
0000
0000
0100
0000
0000
1000
0000
0000
0001
0000
0000
0010
0000
0000
0000
0000
0000
0000
0000
0100
0000
0000
0000
,
1000
0000
0000
0000
0000
0000
1100
0000
0000
0000
0001
0000
0100
0000
0000
0000
0020
0000
1000
0000
0000
0000
0100
0000
0000
0000
1000
0000
0000
0000
0130
0000
0000
0000
0100
0001
1000
0000
0000
0000
0010
0000
0100
0000
0000
0000
0100
0000
,
0010
0000
0000
0000
0000
0000
0110
0000
0000
0000
0001
0000
1000
0000
0000
0000
2000
0000
0100
0000
0000
0000
0001
0000
0000
0000
0100
0000
0000
0000
3001
0000
0000
0000
0001
0010
0100
0000
0000
0000
0000
0000
0110
0000
0000
0000
1000
0000
,
0001
0000
0000
0000
0000
0000
1001
0000
0000
0000
1000
0000
0010
0000
0000
0000
0020
0000
1000
0000
0000
0000
0100
0000
0000
0000
1000
0000
0000
0000
0130
0000
0000
0000
0100
0001
0010
0000
0000
0000
0100
0000
1100
0000
0000
0000
1001
0000
,
0000
0101
0000
1010
0000
0110
0000
0101
0000
2001
0000
0000
3001
0000
0100
0020
0000
0000
0000
0000
0000
0130
0000
0000
;
