#TITLE:ケモノミチ;
#SUBTITLE:;
#ARTIST:小野大輔;
#TITLETRANSLIT:Kemono Michi;
#SUBTITLETRANSLIT:;
#ARTISTTRANSLIT:Ono Daisuke;
#GENRE:ANIME;
#CREDIT:;
#MUSIC:Kemono Michi.ogg;
#BANNER:Kemono Michi.png;
#BACKGROUND:Kemono Michi-bg.png;
#CDTITLE:;
#SAMPLESTART:51.857;
#SAMPLELENGTH:7.846;
#SELECTABLE:YES;
#OFFSET:1.191;
#BPMS:0.000=130.000;
#STOPS:;
#LASTBEATHINT:0.486246;
#BGCHANGES:3.000=Kemono Michi.avi=1.000=0=0=0=StretchNoLoop====,
99999.000=-nosongbg-=1.000=0=0=0=StretchNoLoop====
;
#FGCHANGES:;

//--------------- dance-single - ----------------
#NOTES:
     dance-single:
     :
     Hard:
     13:
     0,0,0,0,0:
0000
0000
0000
0000
,
0101
0000
0001
0100
0000
0001
0100
0000
0001
1000
0000
0001
1000
0000
1001
0000
,
1100
0000
1000
0100
0000
1000
0100
0000
1000
0001
0000
1000
0001
0000
1001
0000
,
0011
0000
0001
0100
0000
0010
0100
0000
0001
0100
0000
1000
0100
0000
0110
0000
,
1001
0000
1000
0100
1000
0000
0001
0100
0001
0000
1000
0100
1000
0001
1000
0001
,
0010
0000
0100
1000
0000
0001
1000
0000
0100
1000
0000
0001
1000
0000
1010
0000
,
0101
0000
0100
0001
0000
1000
0001
0000
0100
0001
0000
1000
0001
0000
1001
0000
,
0001
0100
0001
0100
0001
1000
0001
1000
0100
1000
0100
1000
0001
1000
0001
1000
,
0010
1000
0010
0100
0001
0100
1001
0000
0000
0000
0000
0000
,
1001
0000
0000
0001
0000
0000
0001
0000
0010
0000
0000
0100
0000
0000
0100
0000
,
1000
0000
1000
0010
0000
0000
0010
0000
0100
0000
0000
0100
0000
0000
0100
0000
,
1001
0000
0001
0010
0000
0000
0010
0000
0100
0000
0100
1000
0000
0000
1000
0000
,
0001
0000
0001
0100
0000
0000
1000
0000
0100
0000
0000
0000
0110
0000
1000
0000
,
0001
0000
0001
0100
0000
0001
0100
0000
0001
0000
1000
0100
0000
1000
0100
0000
,
1000
0000
0001
0010
0000
0001
1000
0000
0010
0000
1000
0010
0000
0100
0001
0000
,
1001
0000
0001
0100
0000
0100
0001
0000
0001
0000
1000
0100
0000
0100
1000
0000
,
0001
0000
0000
0010
0000
0000
0100
0000
1001
0000
0000
0000
0000
0000
1001
0000
,
0000
0000
1000
0000
0100
0000
0010
0001
0000
1000
0001
0000
0100
0000
0100
0001
,
0000
0000
1000
0000
0001
0000
0001
0010
0000
0000
0100
0000
0110
0000
0010
0001
,
0000
1000
0000
0001
0010
0000
0100
1000
0000
0001
0000
1000
0010
0000
0100
0000
,
0010
0000
0100
0001
0000
1000
0000
0010
0100
0000
0100
0001
0100
0000
0001
1000
,
0001
0000
0000
0001
0010
0000
0100
0000
0010
0000
0100
0000
1000
0000
0010
0100
,
0010
0000
0000
0100
0001
0000
0010
0000
1000
0000
0010
0000
0001
0000
1000
0100
,
1000
0000
0000
1000
0100
0000
0010
0000
0001
0000
0100
0000
1000
0000
0100
0001
,
0100
0000
0000
0001
1000
0000
0001
0000
1000
0000
0001
0000
0010
0000
0100
0000
,
0010
0000
0000
0010
0000
0000
0001
0000
0000
0001
0000
1000
0010
0000
0100
0000
,
0001
0000
0000
0001
0000
0000
1000
0000
0000
1000
0000
0100
0010
0000
0001
0000
,
0010
0000
0000
0010
0000
0000
0100
0000
0000
0100
0000
1000
0001
0000
1000
0000
,
0100
0000
0000
0100
0000
0000
1001
0000
1001
0000
0000
0000
1001
0000
0100
0000
,
0010
0000
0000
0010
1000
0000
0001
0000
0100
0000
1000
0000
0001
0000
0010
0000
,
1000
0000
0000
0100
0001
0000
1000
0000
0010
0000
0001
0000
1000
0000
0100
0000
,
0010
0000
0000
0010
0001
0000
0001
0000
1000
0000
0000
0010
1000
0000
1000
0000
,
0110
0000
0000
0110
0000
0000
1001
0000
1001
0000
0000
0000
1000
0000
0100
0000
,
0010
0000
0000
0001
1000
0000
0001
0000
0001
0000
1000
0000
0010
0000
0100
0001
,
1000
0000
0000
1000
0100
0000
0010
0000
0010
0000
0001
0000
1000
0000
0100
0000
,
0001
0100
0010
1000
0010
0100
0001
0100
,
1000
0010
0001
1000
0100
0000
0100
0001
,
1000
0000
0000
1100
0000
0000
0010
0000
0001
0000
0000
0011
0000
0000
0001
0000
,
0100
0000
0000
0110
0000
0000
1000
0000
0001
0000
0000
1001
0000
0000
0001
0000
,
1000
0000
0000
1100
0000
0000
1000
0000
0010
0000
0000
0101
0000
0000
0001
0000
,
1000
0010
0001
0010
1000
0000
1000
0100
,
0010
0000
0000
0001
1000
0000
0001
0100
0001
0000
0100
0000
0010
0000
1000
0010
,
1000
0000
0000
1000
0001
0000
1000
0100
1000
0000
0000
0110
0000
0000
0001
0000
,
1000
0000
0000
1001
0000
0000
0001
0000
0100
0000
0000
0110
0000
0000
0010
0000
,
1000
0000
0000
0001
0000
0000
0010
0000
0110
0000
0000
0000
0000
0000
0000
0000
,
1001
0000
0001
0010
0000
0010
0001
0000
0001
0100
0000
0100
0010
0000
1000
0000
,
1001
0001
0010
1000
0010
0001
1000
0100
,
0020
0032
0203
2300
,
3100
0001
0010
1000
0001
0100
1000
0000
0000
0000
0000
0000
;

//--------------- dance-single - ----------------
#NOTES:
     dance-single:
     :
     Challenge:
     15:
     0,0,0,0,0,0,0,0,0,0,0,0,0,0,0,0,0,0,0,0,0,0:
0000
0000
0000
0000
,
1001
0000
0000
1000
0001
1000
0010
0100
0010
0000
0000
0100
0010
0100
0001
1000
,
0001
0000
0000
1000
0001
1000
0100
0010
0100
0000
0000
0010
0100
0010
0001
1000
,
0001
0000
0000
0100
0001
0100
0010
1000
0010
0000
0000
1000
0010
1000
0100
0010
,
0100
1000
0100
0010
0001
1000
0100
0010
0001
1000
0001
0100
0010
1000
0001
0100
,
0010
0000
0010
1000
0010
0100
0001
1000
0100
0010
0001
0010
0001
0100
0010
1000
,
1000
0000
0001
0000
0010
0000
0100
0000
1000
0000
0010
0000
1000
0000
0001
0000
0001
0000
0100
0000
0010
0000
1000
0000
0100
0000
1000
0000
0001
0000
0010
0100
,
0010
0000
0001
0000
0100
0000
0010
0000
0100
0000
0001
0000
1000
0000
0100
0010
0100
0000
1000
0000
0001
0000
0010
0000
0100
0000
0010
0000
0001
0000
1000
0000
,
1100
1100
1100
0101
0101
0101
1001
0000
0000
0000
0000
0000
,
1001
0000
1000
0100
0000
1000
0001
0000
0010
0000
0001
0100
0000
0001
1000
0000
,
0010
0000
0100
0001
0000
0100
0010
0000
1000
0000
0100
1000
0000
0100
0010
0001
,
1000
0000
0001
0100
0000
0100
0010
0000
1000
0000
1000
0100
0000
0100
0010
0000
,
0001
0000
0001
0100
0000
0100
1000
0100
0010
0000
0010
1000
0100
0010
0100
0010
,
0001
0000
0001
0010
0000
0001
1000
0000
1010
0000
0100
0001
0000
0100
0010
0000
,
0101
0000
0001
1000
0000
0010
1000
0000
1010
0000
1000
0100
0000
1000
0001
0000
,
1001
0000
0001
0100
0000
0100
1000
0000
1001
0000
0001
0010
0000
0010
1000
0000
,
1010
0000
0000
1100
0000
0000
0011
0000
0101
0000
0000
0000
0000
0000
1001
0000
,
0000
0000
1000
0010
0100
0000
0100
0010
1000
0001
0000
0010
0100
0000
1000
0000
,
0100
0000
0100
1000
0010
0000
0100
0001
1000
0001
0100
0000
0110
0000
0010
1000
,
0001
0000
0000
0001
1000
0000
1000
0100
1000
0001
0000
0001
0010
0000
0100
0000
,
1001
0000
0000
1000
0001
0000
0001
0100
0010
1000
0000
1000
0001
0000
0001
0010
,
0100
0000
0000
1000
0100
0000
0010
0001
1000
0010
0000
1000
0001
0000
0100
0001
,
0010
0000
0000
0010
0100
0000
0100
1000
0001
1000
0000
1000
0010
0000
0010
0100
,
0001
0000
0000
1000
0001
0000
0100
0001
0010
0100
0000
0100
1000
0000
0100
1000
,
0001
0000
0000
0001
1000
0000
1000
0100
0010
0100
0000
0010
0001
0100
0010
0001
,
0010
0000
0010
1000
0001
0000
1000
0100
0010
0000
0100
1000
0001
0000
0101
0000
,
1010
0000
0100
0001
0010
0000
0100
1000
0010
0000
0100
0001
1000
0000
0011
0000
,
1100
0000
1000
0100
1000
0000
0001
0000
1000
0000
0001
0100
0001
0000
1000
0000
,
0011
0000
0000
1100
0000
0000
1010
0000
1001
0000
0000
0000
1001
0000
0100
0000
,
0010
0000
0000
0010
1000
0000
0100
0000
0001
0000
0100
1000
0010
0000
0100
0001
,
0010
0000
0000
0010
0001
0000
0100
0000
1000
0000
0100
0001
0010
0000
0100
1000
,
0010
0000
0100
0001
0100
0000
0001
0000
1000
0000
0001
0010
0001
0000
0010
0000
,
0100
0000
1000
0100
1000
0001
1000
0001
0100
0001
1000
0001
1000
0000
0100
0000
,
0110
0000
0000
0010
0001
0000
0100
1000
0100
0000
0001
1000
0001
0000
0010
0100
,
0010
0000
0000
0100
1000
0000
0010
0100
0010
0000
0001
0010
1000
0000
0100
0000
,
0001
0000
0100
1000
0010
0000
0100
0000
0010
0000
0100
0001
0010
0000
0100
0000
,
1001
0000
0001
0010
0001
0000
0010
0100
0010
0000
0100
1000
0100
0010
0100
0001
,
0100
0000
0000
0100
1000
0000
1001
0000
1001
0000
0000
0001
0100
0000
0110
0000
,
0110
0000
0000
0010
1000
0000
1100
0000
1100
0000
0000
0100
0010
0000
0011
0000
,
0011
0000
0001
0100
0000
0100
0010
0000
0110
0000
1000
0100
0000
0100
0010
0000
,
1001
0000
0001
1000
0100
0000
0110
0000
0010
0100
0010
1000
0010
0001
0100
0001
,
1000
0000
0000
1000
0001
0000
0100
0001
0020
0000
0100
0000
0130
0000
0100
1000
,
0010
0000
0000
0010
0100
0000
0010
1000
0200
0000
0000
0001
0000
0000
1000
0000
,
1300
0000
1000
0010
0000
0100
0001
0000
1001
0000
0001
0010
0000
0100
1000
0000
,
1010
0000
0000
0011
0000
0000
0101
0000
1100
0000
0000
0000
0000
0000
0000
0000
,
1001
0000
1000
0010
0000
1000
0001
0000
0011
0000
0001
0010
0000
0001
1000
0000
,
1001
0000
1000
0100
0020
0000
0001
0000
0130
0000
0011
0000
1100
0000
1000
0010
,
0002
0010
0023
1000
2030
0100
3200
0310
,
1001
1001
1001
1100
0101
1100
1001
0000
0000
0000
0000
0000
;
