#TITLE:けっかおーらい;
#SUBTITLE:;
#ARTIST:こっちのけんと;
#TITLETRANSLIT:;
#SUBTITLETRANSLIT:Kekka Orai;
#ARTISTTRANSLIT:Kocchi no Kento;
#GENRE:ANIME;
#CREDIT:;
#MUSIC:Kekka Orai.ogg;
#BANNER:Kekka Orai.png;
#BACKGROUND:Kekka Orai-bg.png;
#CDTITLE:;
#SAMPLESTART:51.908;
#SAMPLELENGTH:12.194;
#SELECTABLE:YES;
#OFFSET:0.931;
#BPMS:0.000=155.000;
#STOPS:;
#BGCHANGES:2.250=Kekka Orai.avi=1.000=0=0=0=StretchNoLoop====,
99999.000=-nosongbg-=1.000=0=0=0=StretchNoLoop====
;
#FGCHANGES:;

//--------------- dance-single - ----------------
#NOTES:
     dance-single:
     :
     Medium:
     12:
     0.651276,0.641792,0.796707,0.022131,0.06086,412,340,72,2,0,0,0.651276,0.641792,0.796707,0.022131,0.06086,412,340,72,2,0,0:
0000
0000
0000
0000
,
0000
0000
0000
0000
,
1001
0000
0001
0100
0000
0001
0010
0000
,
1001
0000
1000
0100
0000
1000
0010
0000
,
1001
0000
0001
0100
0000
0001
0010
0000
,
0100
1000
0010
0100
0001
0010
0100
1000
,
1001
0000
0001
0010
0000
0001
0100
0000
,
1001
0000
1000
0010
0000
1000
0100
0000
,
1001
0000
0001
0010
0000
0001
0100
0000
,
0101
0000
0000
1001
0000
0000
1100
0000
0000
1001
0000
0000
0001
0000
1000
0000
,
0100
0010
0100
0010
0001
2000
0000
3010
,
1000
0001
1000
0001
0100
0020
0000
0130
,
0001
0010
1000
0010
0001
0100
1000
0100
,
0001
0010
0100
1000
1100
0000
1001
0000
,
0001
1000
0100
1000
0100
0002
0000
0103
,
1000
0001
1000
0001
0100
2000
0000
3100
,
0001
0010
0100
0010
1000
0010
0001
0100
,
0010
0100
1000
0100
0101
0000
1001
0000
,
1000
0100
1000
0100
0010
0100
1000
0001
,
1000
0100
1000
0100
0001
0100
2000
0000
,
3001
0100
0001
0100
0010
0100
0001
1000
,
0001
0100
0001
0100
1000
0100
0002
0000
,
1003
0100
1000
0001
1000
0100
0001
0100
,
1000
0001
1000
0010
0001
0010
2000
0000
,
3001
0100
0001
1000
0001
0100
1000
0100
,
0001
1000
0001
0010
2000
0000
3010
0001
,
1000
0000
0000
0010
0000
0000
0100
0000
0101
0000
0000
0000
1100
0000
0000
0000
,
0001
0000
0000
0010
0000
0000
0100
0000
1100
0000
0000
0000
0101
0000
0000
0000
,
1000
0000
0000
0100
0000
0000
0010
0000
0011
0000
0000
0000
1010
0000
0000
0000
,
0001
0000
0000
0100
0000
0000
0010
0000
1010
0000
0000
0000
0101
0000
0000
0000
,
1000
0000
0000
0001
0000
0000
0100
0000
0110
0000
0000
0000
0110
0000
1000
0000
,
0001
0000
1000
0100
0000
1000
0100
0000
0020
0000
0000
0000
0031
0000
0000
0000
,
0011
0000
0000
1001
0000
0000
1100
0000
1010
0000
0000
1001
0000
0000
0101
0000
,
0110
0110
0110
1001
,
0001
0010
0100
0000
0010
0001
1000
0001
,
0100
1000
0100
0001
2000
0000
3002
0000
,
1003
0010
0100
0000
0010
1000
0001
0010
,
0011
1100
1010
0101
,
0001
0100
1000
0000
0100
0001
0010
0100
,
1000
0001
0100
0001
1000
0100
0100
0100
,
0110
0000
0000
0110
0000
0001
1000
0000
,
1001
0000
0000
1001
0000
0100
0010
0000
,
1000
0001
0100
0101
0000
1000
1100
0000
,
0001
0011
0000
1000
1010
0000
1001
0000
,
0001
1000
0100
1100
0000
0001
0101
0000
,
1000
1010
0000
0001
0011
0000
1001
0000
,
1100
0001
1000
0010
0100
0001
1000
0010
,
0101
1000
0100
0010
0001
1000
0100
0010
,
1100
0001
0010
0100
1000
0010
0100
0001
,
0101
1100
0101
0110
,
1001
0000
1000
0001
0000
0001
1000
0100
,
0001
0000
0100
1000
0000
1000
0001
0100
,
1000
0000
0100
0001
0000
0001
1000
0100
,
0001
0100
1000
0010
0100
0001
0010
0100
,
1000
0000
0001
0100
0000
1000
0100
0001
,
0010
0000
1000
0010
0000
0100
1000
0010
,
0001
0000
1000
0100
0000
0001
0010
0100
,
1100
0011
1100
1001
,
0110
0000
0000
0000
;

//--------------- dance-single - ----------------
#NOTES:
     dance-single:
     :
     Hard:
     15:
     0,0,0,0,0:
0000
0000
0000
0000
,
0000
0000
0000
0000
,
1010
0000
1000
0001
0200
0000
1000
0000
0310
1000
0001
0000
0012
0000
0000
0000
,
1003
0000
0001
1000
0200
0000
0001
0000
0310
0001
1000
0000
2010
0000
0000
0000
,
3010
0000
1000
0001
0200
0000
1000
0000
0310
1000
0001
0000
0012
0000
0000
0000
,
1003
0001
1000
0001
0100
0010
0100
0010
1000
0001
0010
0100
1000
0000
0000
0000
,
1100
0000
1000
0001
0020
0000
1000
0000
0130
1000
0001
0000
0102
0000
0000
0000
,
0103
0000
0001
1000
0020
0000
0001
0000
0130
0001
1000
0000
2100
0000
0000
0000
,
3100
0000
1000
0001
0020
0000
1000
0000
0130
1000
0001
0000
0101
0000
0000
0000
,
1010
0000
0000
1001
0000
0000
0101
0000
0000
0011
0000
0000
0110
0000
1100
0000
,
1001
0000
0001
0010
0100
0000
1000
0000
0001
0000
0200
0000
0000
0000
0310
1000
,
0001
0000
1000
0000
0100
0000
0010
0000
0001
0000
2000
0000
0000
0000
3010
0100
,
0001
1000
0001
0000
0010
0000
1000
0000
0010
0000
0001
0000
1000
0000
0010
0000
,
0001
0010
1000
0001
1001
0000
0110
0000
,
1001
0000
1000
0010
0100
0000
0001
0000
1000
0000
0200
0000
0000
0000
0310
0001
,
1000
0000
0010
0000
0100
0000
0001
0000
0010
0000
0200
0000
0000
0000
1300
0001
,
1000
0000
0010
0000
0100
0000
0001
1000
0001
0000
0010
0000
0100
0000
1000
0000
,
0001
0100
0001
1000
1100
0000
1001
0000
,
0101
0001
0100
0100
0010
0010
1000
0001
,
1000
1000
0100
0100
0010
0001
0011
0000
,
1100
1000
0010
0010
0100
0100
0001
1000
,
0001
0001
0010
0010
0100
1000
1001
0000
,
1001
0001
0100
0100
1000
0010
0100
0001
,
1001
1000
0100
0100
0001
1000
0110
0000
,
1001
1000
0010
0010
0002
0000
0013
0100
,
1000
0001
0100
0100
2000
0000
3010
0100
,
0201
0000
0000
1000
0000
0000
0310
0000
0110
0000
0000
0000
1001
0000
0000
0000
,
1200
0000
0000
0001
0000
0000
0310
0000
0110
0000
0000
0000
1001
0000
0000
0000
,
0101
0000
0100
0010
0000
0100
0001
0010
0100
0000
0000
0000
0110
0000
0000
0000
,
1100
0000
0100
1000
0000
0100
1000
0010
0100
0000
0000
0000
0110
0000
0000
0000
,
0101
0000
0000
1010
0000
0000
1000
0010
0100
0000
0000
0000
0101
0000
0100
0000
,
0001
0000
0010
0100
0000
1000
0001
0100
0010
0000
0000
0000
0110
0000
0000
0000
,
1010
0000
0000
1001
0000
0000
1100
0000
0011
0000
0000
1001
0000
0000
0101
0000
,
0001
0000
1000
0010
0100
0000
0010
0100
0001
1000
0001
1000
0001
1000
0001
0010
,
0100
0000
1000
0000
1100
0000
0000
0000
1000
0000
0010
0100
0001
0000
0100
0001
,
0010
0000
0100
1000
0010
0000
0100
0010
1000
0000
0001
0000
0101
0000
0000
0000
,
0001
0000
1000
0000
1100
0000
0000
0000
0100
0000
1000
0001
0100
0000
0010
0000
,
0100
0000
0001
0010
1000
0000
0010
0100
0010
0000
0001
0100
1000
0000
0100
0001
,
1000
0000
0100
0000
0110
0000
0000
0000
0010
0000
0001
1000
0001
0000
0100
0000
,
1000
0100
0010
1000
0001
0010
0010
0010
,
1001
0100
0100
1001
0010
0010
1001
0000
,
0110
0001
0001
0110
1000
1000
0120
0000
,
0130
0001
1000
0101
1000
0001
1100
0001
,
1000
0101
1000
0001
1100
0001
0110
0000
,
0011
1000
0001
1010
0001
1000
0011
1000
,
0001
1010
0001
1000
0011
1000
0110
0000
,
1001
0000
0001
0000
0100
0000
0010
1000
0100
0000
0100
1000
0010
0000
0100
0000
,
1001
0000
1000
0000
0100
0000
0010
0001
0100
0000
0100
0001
0010
0000
0100
0000
,
1100
1000
0001
0101
0100
0001
1001
1000
,
1010
0000
0000
0101
0000
0000
0011
0000
0001
0000
1000
0000
0001
0000
0000
0000
,
0011
0000
0001
1000
0200
0000
0001
0000
0310
0001
1000
0000
2010
0000
0000
0000
,
3001
0000
1000
0001
0200
0000
1000
0000
0310
1000
0001
0000
0012
0000
0000
0000
,
0013
0000
0001
1000
0200
0000
0001
0000
0310
0001
1000
0000
2010
0000
0000
0000
,
3001
1000
0001
1000
0100
0010
0100
0010
0001
1000
0010
0100
0001
0000
0000
0000
,
0101
0000
0001
1000
0020
0000
0001
0000
0130
0001
1000
0000
2100
0000
0000
0000
,
3100
0000
1000
0001
0020
0000
1000
0000
0130
1000
0001
0000
0102
0000
0000
0000
,
0103
0000
0001
1000
0020
0000
0001
0000
0130
0001
1000
0000
1100
0000
0000
0000
,
1100
0001
0101
1000
1100
0001
0020
0000
,
0130
0000
0000
0000
;

//--------------- dance-single - ----------------
#NOTES:
     dance-single:
     :
     Challenge:
     17:
     1.054372,0.994777,0.785642,0.121719,0.979286,667,596,71,11,0,0,1.054372,0.994777,0.785642,0.121719,0.979286,667,596,71,11,0,0:
0000
0000
0000
0000
,
0000
0000
0000
0000
,
1100
0000
1000
0010
0100
0000
1100
0000
1000
0100
0001
1000
0100
0010
0001
0000
,
0101
0000
0001
0010
0100
0000
0101
0000
0001
0100
1000
0001
0100
0010
1000
0000
,
1100
0000
1000
0010
0100
0000
1100
0000
1000
0100
0001
0000
0010
0100
1000
0001
,
1000
0001
0010
0100
0010
0001
0010
0100
1000
0100
0010
0001
1000
0100
0010
0001
,
0011
0000
0001
1000
0010
0000
0011
0000
0001
0010
1000
0001
0010
0100
1000
0000
,
1010
0000
1000
0100
0010
0000
1010
0000
1000
0010
0001
1000
0010
0100
0001
0000
,
0011
0000
0001
0100
0010
0000
0011
0000
0001
0010
1000
0001
0010
0100
1000
0001
,
0101
0000
0000
1010
0000
0000
1100
0000
0000
0011
0000
0000
1001
0000
0110
0000
,
1001
0000
0001
0010
0100
0000
0010
0100
1000
0000
0020
0000
0000
0000
0130
0001
,
1000
0000
0010
0000
0100
0000
0001
0000
0010
0000
0200
0000
0000
0000
1300
0010
,
0100
0001
0010
0000
0100
0000
1000
0000
0001
0000
0100
0010
0100
0000
1000
0000
,
0001
0000
0010
0100
0010
0000
1000
0000
1001
0000
0000
0000
0110
0000
0000
0000
,
1001
0000
1000
0100
0010
0000
0100
0010
0001
0000
2000
0000
0000
0000
3010
0100
,
0001
0000
0010
0000
0100
0000
1000
0000
0010
0000
0200
0000
0000
0000
0301
0100
,
1000
0000
0100
0000
0010
0000
1000
0100
0001
0000
0100
0000
0010
0000
0001
1000
,
0001
0000
0100
0000
0001
0000
1000
0000
0010
0100
0010
0100
1001
0000
0000
0000
,
1100
0000
1000
0100
0010
0000
0010
0100
1000
0000
1000
0010
0100
0000
0010
0000
,
0100
0000
0001
0100
0010
0000
0010
0100
0001
0000
0001
0010
0100
0000
0000
0000
,
1001
0000
1000
0010
0100
0000
0100
0010
1000
0000
0001
0010
0100
0000
0100
0010
,
0001
0000
1000
0010
0100
0000
0001
0010
0100
0000
1000
0000
1001
0000
0000
0000
,
0001
0000
1000
0100
0010
0100
0001
0100
1000
0000
0100
0000
1000
0000
0001
0000
,
1000
0000
0001
0100
0010
0100
1000
0100
0001
0000
0010
0000
0100
0000
1000
0000
,
0001
0100
0001
0100
0010
0000
1000
0000
0001
0010
0001
0010
0100
0000
1000
0001
,
0100
0000
1000
0100
0010
0000
1000
0001
0010
0000
0100
0000
1001
0000
1000
0000
,
0001
0000
0010
0100
0000
1000
0001
0000
1100
0000
0001
0000
1100
0000
0001
0100
,
0010
0000
1000
0100
0000
1000
0001
0000
0101
0000
1000
0000
0101
0000
1000
0010
,
0100
0000
0001
0100
0000
0100
0010
1000
0001
0000
0010
0100
1000
0000
0001
0010
,
0100
1000
0100
1000
0001
0100
0010
0000
0100
0010
1000
0100
0010
0000
0001
0000
,
0101
0000
0000
1100
0000
0000
1000
0010
0100
0001
1000
0000
1100
0000
0100
1000
,
0001
0000
0001
0100
0000
0010
1000
0100
0010
0100
1000
0001
0100
0000
0000
0000
,
1010
0000
0000
1001
0000
0000
0101
0000
0011
0000
0000
1001
0000
0000
1100
0000
,
0001
0010
0100
1000
0010
0100
0001
1000
0010
0100
0010
0100
0010
0100
0010
1000
,
0001
0000
0101
0000
1010
0000
1000
0010
0100
0010
1000
0010
0100
0000
0001
0000
,
1000
0100
0010
0001
1000
0000
0010
0100
0010
0100
0010
1000
0001
0000
0001
0010
,
0100
0000
1100
0000
0011
0000
0001
0010
0100
0010
0001
0010
0100
0000
0010
0001
,
0100
0000
0010
1000
0100
0000
0010
0001
0100
0000
0010
1000
0100
0000
0010
0001
,
1000
0000
0011
0000
1100
0000
1000
0010
0100
0001
0010
0001
1000
0000
0010
0000
,
1000
0000
0001
0010
0100
0000
0010
0001
1000
0000
0110
0000
0110
0000
0110
0000
,
1001
0000
0010
0100
0010
0000
1001
0000
0100
0010
0100
0000
0001
0000
1000
0000
,
0110
0000
0001
1000
0001
0000
0110
0000
1000
0001
1000
0000
0120
0000
0000
0000
,
0130
0001
0010
1100
0001
0010
1100
0001
,
0010
1100
0001
0010
1100
0001
0110
0000
,
0101
1000
0010
0101
1000
0010
0101
1000
,
0010
0101
1000
0010
0101
1000
0110
0000
,
1001
0000
0001
0010
0100
0000
1000
0100
0001
0100
1000
0001
0100
0000
0010
0000
,
1001
0000
1000
0010
0100
0000
0001
0100
1000
0100
0001
1000
0100
0000
0010
0000
,
0110
0000
0100
1000
0010
0000
0110
0000
0100
0001
0010
0000
0110
0000
1000
0000
,
1001
0000
0001
0100
0000
0010
0100
0000
1000
0100
0001
0010
0100
1000
0001
0100
,
0101
0000
0001
0010
0100
0000
0101
0000
0001
0100
1000
0001
0100
0010
1000
0000
,
1100
0000
1000
0010
0100
0000
1100
0000
1000
0100
0001
1000
0100
0010
0001
0000
,
0101
0000
0001
0010
0100
0000
0101
0000
0001
0100
1000
0000
0010
0100
0001
1000
,
0001
1000
0010
0100
0010
1000
0010
0100
0001
0100
0010
1000
0001
0100
0010
1000
,
1010
0000
1000
0001
0010
0000
1010
0000
1000
0010
0001
1000
0010
0100
0001
0000
,
0011
0000
0001
0100
0010
0000
0011
0000
0001
0010
1000
0001
0010
0100
1000
0000
,
1010
0000
1000
0100
0010
0000
1010
0000
1000
0010
0001
1000
0010
0100
0001
1000
,
1100
0000
0000
0101
0000
0000
1001
0000
0000
0110
0000
0000
0010
0000
1000
0000
,
0001
0000
0000
0000
;
