#TITLE:可愛くてごめん;
#SUBTITLE:;
#ARTIST:HoneyWorks feat. ちゅーたん(CV:早見沙織);
#TITLETRANSLIT:Kawaikute Gomen;
#SUBTITLETRANSLIT:;
#ARTISTTRANSLIT:HoneyWorks;
#GENRE:POP;
#CREDIT:;
#MUSIC:Kawaikute Gomen.ogg;
#BANNER:Kawaikute Gomen.png;
#BACKGROUND:Kawaikute Gomen-bg.png;
#CDTITLE:;
#SAMPLESTART:43.521;
#SAMPLELENGTH:12.000;
#SELECTABLE:YES;
#OFFSET:1.479;
#BPMS:0.000=160.000;
#STOPS:;
#LASTBEATHINT:1.277333;
#BGCHANGES:5.750=Kawaikute Gomen.avi=1.000=0=0=0=StretchNoLoop====,
99999.000=-nosongbg-=1.000=0=0=0=StretchNoLoop====
;
#FGCHANGES:;

//--------------- dance-single - ----------------
#NOTES:
     dance-single:
     :
     Hard:
     12:
     0,0,0,0,0:
0000
0000
0000
0000
,
0000
0000
0000
0000
,
0000
0000
0000
0000
,
0000
0000
0000
0000
,
0000
0000
0000
0000
,
0000
0000
0000
0000
,
0001
0001
1000
1000
,
1010
0000
0101
0000
1002
0000
0103
0010
,
0100
0000
0000
0010
1000
0100
0010
0001
,
0101
1010
0110
1001
,
0001
0010
0100
0000
1000
0010
0100
0000
,
0001
0010
0100
1000
0010
0000
0110
0000
,
1000
0100
0010
0000
0001
0100
0010
0000
,
1000
0100
0010
0001
0100
0000
0110
0000
,
0010
1000
0001
0000
0010
0001
1000
0000
,
0010
1000
0001
0010
0100
0000
1100
0000
,
0100
1000
0001
0000
0100
0001
1000
0000
,
0001
0010
0100
1000
0001
1000
0100
0010
,
0001
0000
1000
1000
0200
0000
0010
0000
,
0320
0000
0031
0000
0001
0100
1000
0000
,
0100
0000
0001
0001
2000
0000
0100
0000
,
3100
0010
0100
0001
0100
1000
0010
0001
,
1000
0100
0010
0000
0100
0001
1000
0000
,
1100
0101
1100
0101
,
0001
0010
0100
1000
0100
0010
0001
0000
,
1000
0010
0100
0001
0100
0010
1000
0000
,
0001
0010
1000
0000
1000
0010
0001
0000
,
1000
0010
0001
0000
0001
0010
1000
0000
,
0001
0001
1000
1000
,
0001
0100
0001
0010
0100
1000
0001
0000
,
1100
0000
1000
0100
0010
0100
1000
0001
,
0101
0000
1010
0000
0101
0000
0001
0010
,
0100
0000
1000
0100
0010
0001
0010
0100
,
1100
0000
0011
0000
1100
0000
1000
0010
,
0100
0000
0001
0100
1000
0100
0001
0010
,
0011
0000
1100
0000
0011
0000
1000
0010
,
0100
0000
1000
0100
0001
0010
0100
1000
,
1010
0101
1010
0110
,
1001
0000
1000
0010
0100
0010
1000
0001
,
0101
0000
1100
0000
0101
0000
0001
0010
,
0100
0000
0010
0100
1000
0001
0100
0001
,
0011
0000
1010
0000
0011
0000
1000
0010
,
0100
0000
0010
1000
0100
0001
0100
1000
,
1010
0000
1100
0000
1010
0000
0001
0100
,
1000
0000
1000
0100
0001
1000
0100
0010
,
0011
0000
0101
0000
0011
0000
1000
0001
,
0100
0000
0000
0010
0100
0000
0001
0010
,
0110
0000
1001
0000
0110
0000
0000
1000
,
0001
0000
1000
0100
1000
0000
1010
0000
,
0101
0000
0001
0100
0001
0000
0011
0000
,
0010
0100
0010
0000
0100
0010
0100
0000
,
2000
3200
0320
0032
2003
3020
0230
0302
,
1003
0000
0010
0100
0010
0000
1000
0000
,
0001
0000
0010
0100
0010
0000
0001
0000
,
0011
1100
1010
0101
,
0001
0100
1000
0100
0010
0001
0010
1000
,
0200
0000
0010
0000
1300
0001
0100
0010
,
2000
0000
0001
0000
3100
0010
0100
1000
,
0020
0000
0100
0000
0031
0010
1000
0100
,
0010
1100
0110
0011
,
1002
0000
0203
0000
0310
1000
0001
0100
,
1000
0001
0010
0100
0002
0000
0013
0100
,
0020
0001
0230
1000
,
1300
0010
0100
0000
0010
0100
0001
0000
,
1000
0100
1000
0100
0000
1000
0010
0100
,
0001
0000
0001
1000
0100
1000
0010
0000
,
0120
0000
1000
1030
0000
1010
0000
0101
,
0000
0001
0010
0200
0000
0000
0300
0000
,
0110
0000
0000
0001
0010
0100
0010
0001
,
0011
0000
1100
0000
1001
0000
0001
0100
,
0010
0110
1000
1001
,
0011
0000
1100
0000
0001
0010
0100
1000
,
0001
0000
0000
1000
0100
0010
0001
1000
,
0020
0000
0230
0000
0302
0000
1003
0010
,
0100
0000
0000
0001
0100
0010
1000
0001
,
0020
0230
2300
3001
,
0110
0000
0000
0100
0001
0010
0100
1000
,
0020
2030
0002
0000
,
0000
0000
0000
0000
,
3003
0000
0001
1000
0001
0000
0000
0001
,
0010
0100
1000
0001
0101
0000
1100
0000
,
1001
0000
0000
0000
0101
0000
0001
0010
,
0100
1000
0001
0100
1010
0000
0101
0000
,
1010
0000
1000
0010
0100
0000
0001
0010
,
0100
1000
0001
0010
1100
0000
0011
0000
,
1100
0000
1000
0010
0001
0000
0001
0010
,
1000
0100
0001
0100
0110
0000
1001
0000
,
0110
0000
0001
0010
1000
0000
1000
0010
,
0001
0100
1000
0100
0110
0000
1001
0000
,
0110
0000
0100
0001
1000
0000
0000
0100
,
0010
0000
0001
1000
0110
0000
1001
0000
,
0110
0000
0000
0000
1100
0000
1000
0010
,
0100
0001
0010
0100
1100
0000
1001
0000
,
0011
0000
0001
1000
0010
0000
0100
0001
,
1000
0001
0100
0010
1010
0000
1001
0000
,
0101
0000
1000
0100
0010
0000
0100
0010
,
0001
1000
0010
0100
0101
0000
1010
0000
,
1001
0000
0001
0010
0100
0000
1000
0100
,
0010
0001
1000
0100
1100
0000
0101
0000
,
1001
0000
0000
0000
;

//--------------- dance-single - ----------------
#NOTES:
     dance-single:
     :
     Challenge:
     16:
     0.773806,0.857468,0.213201,0.02665,0.176557,813,781,32,4,0,0,0.773806,0.857468,0.213201,0.02665,0.176557,813,781,32,4,0,0:
0000
0000
0000
0000
,
0000
0000
0000
0000
,
0000
0000
0000
0000
,
0000
0000
0000
0000
,
0000
0000
0000
0000
,
0000
0000
0000
0000
,
0001
0100
0001
0100
0010
1000
0010
1000
,
1100
0000
0011
0000
1002
0100
0103
0010
,
1000
0000
0000
1000
0001
0010
0100
1000
,
0001
0100
0001
0000
0100
0010
0100
0010
1000
0100
0010
0001
0010
0100
1000
0001
,
0010
0000
0100
0000
1000
0000
0100
0000
0001
0000
0100
1000
0010
0000
0100
0000
,
1000
0000
0100
0000
0001
0000
0100
0000
1000
0000
0100
0001
0010
0000
0100
0000
,
1000
0000
0010
0100
0010
0000
0001
0000
1000
0000
0100
0010
0100
0000
0001
0000
,
1000
0000
0100
0000
0010
0000
0100
0000
1000
0001
0100
0000
0110
0000
0000
0000
,
0110
0000
1000
0000
0010
0000
0100
0000
0001
0000
0010
0001
0100
0000
0010
0000
,
1000
0000
0100
0000
0010
0000
0100
0000
1000
0000
0010
0100
0001
0000
0010
0000
,
0110
0000
0000
0000
1000
0000
0001
0010
0100
0000
1000
0000
0010
0000
0100
0000
,
0001
0010
0100
1000
0001
0010
0100
1000
0001
1000
0100
0010
0001
1000
0100
0010
,
0001
1000
0100
0100
0001
1000
0010
0001
,
0010
0000
1000
0000
0010
0000
0010
0001
0100
0000
0010
0000
1000
0000
0001
0000
,
1000
0010
0100
0100
1000
0001
0010
1000
,
0010
0000
0001
0000
0010
0000
0010
0000
1000
0001
1000
0001
1000
0000
0010
0100
,
0010
0000
0100
0000
0001
0000
1000
0010
0100
0000
0010
0000
0100
0000
0001
0010
,
0100
0000
0000
0000
1100
0000
0000
0000
0011
0000
0001
0010
0100
0000
1000
0010
,
0100
0000
0100
0000
0001
0000
1000
0010
0100
0000
0100
0000
1000
0000
0100
0001
,
0010
0000
0010
0000
0100
0000
0001
0100
0010
0000
0010
0000
0001
0000
1000
0010
,
0100
0010
1010
1000
0001
0100
0101
0001
,
0010
0100
1100
1000
0001
0100
0110
1000
,
0001
0001
0010
0100
,
1000
0100
1000
0010
0100
0001
0100
0010
1000
0001
0010
0100
1000
0001
0010
0100
,
2000
0000
0000
0000
3001
0000
0010
0000
0100
0000
1000
0001
1000
0000
0010
0000
,
1100
0000
0001
0000
1100
0000
0010
0000
1100
0000
0001
0000
0010
0000
0100
1000
,
0002
0000
0000
0000
1003
0000
0100
0000
0010
0000
0001
1000
0001
0000
0010
0000
,
0101
0000
1000
0000
0101
0000
0010
0000
0101
0000
1000
0010
1000
0000
0001
0100
,
0002
0000
0013
0100
1000
0001
0010
0100
,
1010
0000
0001
0000
1010
0000
0100
0000
1010
0000
0001
0000
0100
0000
0010
1000
,
0002
0000
0000
0000
1003
0000
0010
0000
0100
0000
0010
1000
0001
0000
0010
0000
,
0100
1000
0100
0000
0010
0100
0000
1000
0001
0100
0001
0100
0010
0100
0010
1000
,
0001
0000
0010
0000
0100
0000
1000
0001
0100
0000
0010
1000
0001
0000
0010
0000
,
0101
0000
1000
0000
0101
0000
0010
0000
0101
0000
1000
0010
0100
0000
0001
0000
,
2000
0000
0000
0000
3010
0000
0100
0000
0001
0000
1000
0001
0100
0000
0010
0000
,
1100
0000
0001
0000
1100
0000
0010
0000
1100
0000
0001
0000
1000
0100
1000
0100
,
0020
0000
0031
1000
0100
1000
0001
0100
,
0011
0000
1000
0000
0011
0000
0100
0000
0011
0000
1000
0001
0010
0000
0100
0000
,
0020
0000
0000
0000
0031
0000
0010
0000
0100
1000
0100
0010
0001
0000
1000
0000
,
0010
0100
0010
1000
0010
0100
0001
0010
0100
0010
0001
0010
0100
1000
0001
0010
,
0100
0000
0000
1000
0001
0000
0100
0010
,
0110
0000
1001
0000
0110
0000
0000
1000
,
0001
0020
0100
0130
1000
0000
0101
0001
,
1000
0200
0010
0310
0001
0000
0001
0100
,
0101
1010
1100
0101
,
0012
2003
3200
0320
0032
0023
0230
2300
,
3001
0200
0010
0310
1000
0000
1000
0100
,
0010
0002
1000
1003
0100
0000
0010
0001
,
0011
0000
0000
0000
1000
0000
0010
0000
1010
0000
0000
0000
0010
0000
0100
0010
,
0100
0000
0001
0000
0010
0000
0100
0000
1000
0000
0001
0100
0001
0000
1000
0000
,
0010
0000
0100
0001
0010
0100
0010
0001
0100
0000
1000
0000
0100
0000
0001
0000
,
0010
0000
0010
0100
1000
0001
0010
0100
,
1100
0000
1010
0000
1000
0010
0100
0000
,
0101
1010
1100
0011
,
0001
0000
0000
0000
0010
0000
0000
0000
0100
0000
0000
0000
1000
0000
0000
0000
0010
0000
0000
0000
0100
0000
0000
0000
0001
0000
0000
0010
0000
0000
0100
0000
0000
1000
0000
0000
0001
0000
0000
0010
0000
0000
0100
0000
0000
1000
0000
0000
,
0001
0000
1000
0010
0100
0000
0010
0000
1000
0000
0001
0010
0100
0000
1000
0000
,
1100
0000
1000
1000
0010
0010
0100
0100
,
0001
0100
0001
0010
0100
0010
0001
1000
0010
0100
0010
1000
0100
0010
0001
1000
,
0010
0100
0010
0100
0000
0100
0001
1000
,
0101
0000
0000
0000
0001
0000
0010
0000
0100
0000
1000
0000
0010
0000
0000
0100
,
0010
0000
1000
1000
0000
0001
0000
1100
,
0000
0000
1000
0000
0001
0000
1000
0000
0010
0100
0010
0100
0010
0100
0010
0100
,
0001
0000
0000
1000
0001
0010
0100
1000
,
0110
0000
1001
0000
0110
0000
0001
0010
,
1100
1001
0101
1001
,
0110
0000
1000
0010
0100
0010
1000
0010
0100
0001
0010
0100
1000
0001
0010
0100
,
1000
0000
0001
0000
,
0100
0010
0100
0000
,
0001
0000
1000
0000
,
0100
0000
0010
0000
0100
0010
0001
0100
,
0010
1000
0001
0010
0100
1000
0001
0100
,
0010
1000
0001
0010
2000
0000
0000
0000
,
0000
0000
0000
0000
,
0000
3000
1010
0000
,
0011
0000
0110
0110
,
1001
0000
0000
0000
0001
0010
0100
1000
0001
0000
0000
0000
1000
0000
0001
0100
,
0010
0000
0010
0100
0001
0000
0010
0000
0101
0000
1000
0000
0101
0000
0010
0000
,
0101
0000
1000
0000
0001
0000
0100
0010
0200
0000
0000
0000
0310
0000
1000
0100
,
0010
0000
0010
0100
1000
0000
0010
0000
1100
0000
0001
0000
1100
0000
0010
0000
,
1100
0000
0001
1000
0010
0000
0010
1000
0200
0000
0000
0000
0310
0000
0001
0010
,
0100
0000
0100
0010
0001
0000
0100
0000
0011
0000
1000
0000
0011
0000
0100
0000
,
0011
0000
1000
0001
0010
0000
0010
0100
2000
0000
0000
0000
3010
0000
0100
0001
,
1000
0000
0100
0000
0010
0000
0001
0100
1000
0000
0100
0010
0100
0000
0010
1000
,
0001
0010
0100
1000
0001
0010
0100
1000
0010
0000
0000
0000
0000
0000
0100
0000
,
0010
0000
1000
0001
0101
0000
1100
0000
,
1001
0000
0000
0000
0001
1000
1100
0001
,
0100
0001
0101
1000
1100
0001
0101
1000
,
0010
0100
0010
0000
0110
0000
0001
0000
1000
0000
0010
0000
1010
0000
0001
0000
,
0010
0000
0001
0000
0011
0000
1000
0000
0010
0100
0010
0000
1000
0000
0001
0010
,
0100
0010
0001
1000
0010
0100
0010
1000
0001
0000
0000
0000
0110
0000
0001
0000
,
1000
0001
0110
1000
1001
0010
0110
0001
,
1000
0010
0100
0000
0001
0000
0010
0100
1000
0000
0001
0000
0100
0010
1000
0100
,
0010
0000
0100
0010
0001
0100
1000
0100
0010
0000
0000
0000
1010
0000
0000
0000
,
0101
0000
0000
0000
;
