#TITLE:かたち;
#SUBTITLE:;
#ARTIST:安月名莉子;
#TITLETRANSLIT:Katachi;
#SUBTITLETRANSLIT:;
#ARTISTTRANSLIT:azuna riko;
#GENRE:Anime;
#CREDIT:;
#MUSIC:Katachi.ogg;
#BANNER:Katachi.png;
#BACKGROUND:Katachi-bg.png;
#CDTITLE:;
#SAMPLESTART:54.563;
#SAMPLELENGTH:8.226;
#SELECTABLE:YES;
#OFFSET:1.082;
#BPMS:0.000=124.000;
#STOPS:;
#LASTBEATHINT:0.169467;
#BGCHANGES:2.000=Katachi.avi=1.000=0=0=0=StretchNoLoop====,
99999.000=-nosongbg-=1.000=0=0=0=StretchNoLoop====
;
#FGCHANGES:;

//--------------- dance-single - ----------------
#NOTES:
     dance-single:
     :
     Medium:
     10:
     0,0,0,0,0:
0000
0000
0000
0000
,
0101
0000
1100
0000
1000
0000
0001
1000
,
0100
0000
0110
0000
0001
0000
1000
0010
,
0100
0000
1010
0000
0001
0000
0100
0001
,
1000
1100
0011
0100
,
0110
0000
1001
0000
1000
0000
0100
0010
,
0100
0000
1001
0000
0001
0100
0010
0100
,
0001
0000
0101
0000
0010
0000
1000
0001
,
0010
0000
1100
0000
1000
0100
0010
0001
,
1000
0000
0001
0100
0010
0000
0100
0000
,
0001
0000
1000
0010
0100
0000
0001
0000
,
0011
0100
1100
1000
,
0001
1000
0001
0000
1000
0001
1000
0000
,
0010
0000
0100
0010
0100
0000
0001
0000
,
0010
0000
0100
1000
0001
0000
0100
0000
,
1010
0000
1000
0001
0010
0000
0010
0100
,
0010
0001
1000
0000
0010
0000
0100
0000
,
0101
0000
0001
1000
0100
0000
0010
0000
,
0100
0000
1000
0001
0100
0000
0010
0000
,
1000
0000
1000
0100
1000
0000
0001
0100
,
0001
0000
0010
0000
0100
1000
0001
0000
,
0100
0000
1000
0100
0001
0000
1001
0000
,
1000
0000
0100
0001
0100
0000
1000
0000
,
1010
0000
1000
0001
0100
0000
0010
1000
,
0001
0010
0100
0000
1000
0000
1001
0000
,
0001
0000
0100
0010
0000
1000
0001
0000
,
0011
0000
0010
0100
0000
1000
0001
0000
,
1010
0000
0110
0000
0100
0001
1000
0100
,
0110
0011
1100
1001
,
0001
0000
0001
0000
1000
0010
1000
0010
,
0100
0000
0010
1000
0100
0000
0011
0000
,
1100
0000
1000
0010
0001
0000
1000
0100
,
0001
0010
1000
1010
,
0010
0000
0001
0100
0010
0000
0100
0001
,
1000
0000
0100
0000
1001
0000
0001
1000
,
1100
0000
0101
0000
1001
0000
1000
0001
,
0101
1100
1001
0110
,
0001
0010
0100
1000
0010
0000
0100
0000
,
1001
0000
1000
0000
0010
1000
0001
0010
,
1100
0011
0101
1010
,
0110
1000
0001
0000
1000
0001
0010
0000
,
0011
1100
1010
0101
,
1001
0001
1000
0100
,
0011
1000
0010
0100
,
0101
1000
0001
0010
,
1100
0000
1000
0000
0001
0000
0100
0010
;

//--------------- dance-single - ----------------
#NOTES:
     dance-single:
     :
     Hard:
     14:
     0,0,0,0,0:
0000
0000
0000
0000
,
0011
0000
0000
0000
0101
0000
0000
0001
1000
0000
0100
0000
0001
0000
0100
0000
,
1000
0000
0000
0000
1010
0000
0000
1000
0010
0000
0100
0000
0001
1000
0001
1000
,
0001
0000
0000
0000
1100
0000
0000
1000
0001
0000
0100
0000
1000
0000
0100
0000
,
0001
0000
0000
0000
0101
0000
0000
0001
1000
0000
0001
0000
0010
0100
0010
0100
,
0010
0000
0000
0000
1001
0000
0000
0001
1000
0000
0010
0000
0100
0000
0001
0010
,
0100
0000
0000
0000
1001
0000
0000
1000
0010
0000
0100
0001
1000
0000
0100
0000
,
0010
0000
0000
0000
0011
0000
0000
0001
1000
0000
0100
0000
0010
0000
0001
0100
,
0010
0000
0000
0000
0110
0000
0000
0100
0001
0000
1000
0100
1000
0000
0001
0100
,
0010
0000
0000
0010
0100
0000
0001
0000
1000
0000
0000
0000
1000
0000
0100
0000
,
0001
0000
0001
0100
1000
0000
0100
0000
,
1001
0000
0001
0100
0010
0000
0010
1000
,
0001
0000
1000
0000
0001
0100
0001
0000
1000
0000
0001
0010
0001
0000
1000
0000
,
0010
0000
0000
0010
0100
0000
0001
0000
1000
0000
0000
0000
0001
0000
0010
0000
,
1000
0000
0001
0100
1000
0000
0001
0000
,
1001
0000
0000
0000
1000
0000
0010
0000
0100
0000
0010
1000
0001
0000
0010
0000
,
1000
0000
0010
0000
0100
0000
1000
0100
1000
0000
0001
0000
1000
0010
0100
0000
,
0010
0000
0000
0100
0001
0000
1000
0000
0100
0000
0010
0000
1000
0000
0010
0000
,
0001
0000
0000
0001
0100
0000
1000
0000
0100
0001
1000
0000
0100
0000
0010
0000
,
0100
0000
0000
0000
0010
0000
0001
0000
1000
0000
0000
0000
0001
0010
0100
0000
,
0010
0000
0100
1000
0001
0000
0100
0010
0100
0010
0100
0001
1000
0000
0100
0000
,
0110
0000
0000
0010
0001
0000
1000
0000
0010
0000
0001
0000
0010
0000
1000
0000
,
0100
0000
0000
0000
0100
0000
1000
0000
0001
0000
0000
0000
1000
0100
1000
0100
,
0010
0000
0000
0000
0010
0000
0001
0000
1000
0000
0010
0100
0010
0000
1000
0000
,
0001
0000
0010
0000
0100
0000
1000
0001
1000
0001
1000
0010
0100
0000
0010
0000
,
1000
0000
0001
0100
0001
0100
0001
0000
0010
0000
0100
0000
1100
0000
0000
0000
,
1100
0000
1000
0100
1000
0100
1000
0000
0010
0000
0100
0000
0101
0000
0000
0000
,
0001
0000
0100
0010
0100
0000
0000
0001
1000
0000
0100
0000
0010
0000
0100
0000
,
1000
0000
0001
0100
0001
0000
1000
0100
1000
0000
0000
0000
1100
0000
0000
1000
,
0100
0000
0010
0000
0100
0000
1000
0001
1000
0001
0010
0100
1000
0000
0010
0000
,
0100
0000
0001
0010
0100
0000
1000
0000
1100
0000
0100
0010
0100
0000
1000
0000
,
1001
0000
0001
0100
0010
0000
0010
1000
0001
0000
0010
0000
0100
0010
0100
0010
,
0001
0000
1000
0100
0010
0000
0010
0001
1000
0000
0010
0100
0000
0000
0001
0000
,
0101
0000
0001
0010
0100
1000
0010
0000
1010
0000
1000
0010
0100
0001
0010
0000
,
0011
0000
0100
0000
0110
0000
0000
0000
1001
0000
0001
0100
0010
0000
0100
0000
,
0101
0000
0000
0000
0011
0000
0000
0000
1100
0000
1000
0010
1000
0000
0010
0100
,
0010
0000
0100
0001
0100
0000
0001
1000
0001
0000
0000
0001
0010
0000
0100
0000
,
1000
0100
1000
0100
0010
0001
1000
0010
0100
0000
0010
0100
0010
1000
0001
0000
,
1001
0000
1000
0100
0010
0000
0100
1000
0010
0000
0100
0001
1000
0001
1000
0100
,
0010
0001
1100
1000
0101
0001
1100
0100
,
0110
0000
0010
0001
1000
0000
1000
0000
0001
0100
0001
0100
1000
0000
0100
0000
,
0101
0000
0001
0000
1001
0000
1000
0000
1100
0000
0100
0000
0010
0001
1000
0001
,
1000
0000
0000
0000
0010
0000
0000
0100
0000
0000
0100
0000
0001
0000
1000
0000
,
1100
0000
0000
0000
1000
0000
0000
0010
0000
0000
0010
0000
0100
0000
0001
0000
,
0101
0000
0000
0000
0001
0000
0000
0010
0000
0000
0010
0000
0100
0000
1000
0000
,
1100
0000
0000
0000
1000
0000
0000
0010
0000
0000
0010
0000
1000
0000
0001
0000
;

//--------------- dance-single - ----------------
#NOTES:
     dance-single:
     :
     Challenge:
     17:
     0.570839,0.432817,0,0,0,360,360,0,0,0,0,0.570839,0.432817,0,0,0,360,360,0,0,0,0:
0000
0000
0000
0000
,
1100
0000
0000
0000
0011
0000
0000
0001
1000
0000
0010
0000
1000
0010
0100
0001
,
0101
0000
0000
0000
1010
0000
0000
1000
0001
0010
0100
1000
1100
0000
0010
0000
,
0011
0000
0000
0000
1010
0000
0000
1000
0001
0000
0100
0000
0001
0100
0010
1000
,
1010
0000
0000
0000
0101
0000
0000
0001
0010
0100
1000
0001
0100
0010
0100
0010
,
1010
0000
0000
0000
1000
0000
0100
0000
0010
0000
0000
0000
0100
0000
1000
0000
0001
0000
0100
0000
0010
0000
1000
0000
0001
0000
0000
0000
1000
0100
1000
0100
,
1000
0000
0000
0000
0001
0000
0100
0000
0010
0000
0000
0000
0100
0000
0001
0000
1000
0000
0100
0000
0010
0000
0001
0000
1000
0000
0000
0000
0010
0100
0010
0100
,
0010
0000
0000
0000
1000
0000
0001
0000
0100
0000
0000
0000
0010
0000
1000
0000
0001
0010
0001
0000
1000
0000
0100
0000
0110
0000
0000
0000
0010
0001
1000
0001
,
1000
0000
0010
1000
0100
0000
0010
0000
0100
1000
0010
0100
0001
1000
0100
0010
,
0011
0000
0000
0001
0100
0000
0010
0000
0100
0000
0001
0000
1000
0000
0001
0000
,
1100
0000
0000
1000
0010
0000
0100
0000
0010
0000
0100
0000
0001
1000
0001
1000
,
0110
0000
0000
0000
0001
0000
1000
0000
1100
0000
0000
0000
0001
0100
0010
0000
,
0110
0000
0010
1000
0100
0000
0010
0001
0100
0000
0010
1000
0001
0000
0100
0000
,
0101
0000
0000
0001
0010
0000
0100
0000
0010
0001
0100
0010
0001
0000
0010
0000
,
0110
0000
0000
0100
0001
0000
0010
0000
0100
0000
1000
0100
0010
1000
0010
0100
,
1000
0000
1000
0010
0100
0000
0010
1000
0001
0000
0001
0100
0010
0000
0100
0000
,
0001
0000
1000
0000
0001
0000
0010
0100
0010
0000
0001
0010
0100
1000
0100
0010
,
0001
0000
1000
0010
0100
0000
0010
0000
1000
0001
0100
0001
0010
0000
0100
1000
,
0010
0000
0010
1000
0100
0000
0010
0000
0100
1000
0001
1000
0010
0100
1000
0100
,
0001
0000
0100
0001
0010
0000
0100
0000
1000
0000
1000
0010
0100
0000
0010
1000
,
0001
0000
0010
0100
1000
0001
0100
1000
0100
0001
1000
0001
0010
1000
0010
0000
,
1001
0000
0000
0001
0100
0000
0010
0000
1000
0100
0010
0100
1000
0000
0010
0100
,
0010
0000
0000
1000
0010
0000
0100
0000
0001
0100
0010
0100
0001
0010
0100
1000
,
0001
0000
0100
0010
0100
0000
1000
0000
0001
0000
0010
0100
0010
0000
1000
0000
,
0001
0010
0100
1000
0010
0100
0010
1000
0001
1000
0010
0100
0001
0010
0100
1000
,
1100
0000
1000
0100
0010
0001
1000
0000
1100
0000
1000
0000
1010
0000
0010
0100
,
0001
0000
1000
0100
0010
0000
0001
0010
0100
1000
0001
0000
0101
0000
0001
0000
,
0011
0000
0010
0100
0010
0100
1000
0001
0100
0000
0010
0000
1010
0000
0100
0000
,
0101
0000
0001
0100
1000
0000
0100
0000
0110
0000
0000
0000
0010
0000
0000
1000
,
0100
0000
0000
0000
0100
0000
0010
0000
0001
0000
1000
0000
0001
0100
0001
0100
0010
0000
1000
0000
0001
0000
0010
0000
0100
1000
0100
1000
0001
0000
0100
0000
,
1000
0000
1000
0100
0001
1000
0100
0010
0100
0000
0100
1000
0001
1000
0001
0100
,
0010
0000
0000
0000
0100
0000
0001
0000
1000
0000
0100
0000
0010
0000
0000
0000
0010
0000
0100
0000
1000
0000
0001
0000
0100
0010
0100
0010
1000
0000
0001
0000
,
0010
0000
0100
0010
1000
0001
0100
1000
1001
0000
1001
0001
0010
0100
1000
0100
,
1100
0000
1000
0001
0101
0000
0001
1000
1100
0000
1000
0001
0011
0010
0100
1000
,
1100
0000
0100
0000
1000
0000
0001
0000
0101
0000
0100
0000
0010
0000
0100
0000
1001
0000
0000
0000
0001
0000
0010
0000
0100
0000
1000
0001
1000
0000
0010
0000
,
0100
0000
0000
0000
0010
0000
1000
0000
0001
0010
0001
0010
0100
0000
0000
0000
1100
0000
0000
0000
1000
0000
0001
0000
0100
0000
0000
0000
0001
0010
0100
1000
,
0001
0000
0000
0000
1000
0010
0100
0001
1000
0000
0000
0000
0100
0010
0001
1000
0010
0000
0000
0000
0100
0000
0000
0000
0010
0000
1000
0000
0010
0000
1000
0000
,
0001
0010
0001
0010
0100
0000
0010
0000
0100
1000
0100
1000
0001
0000
1000
0000
0001
0100
0001
0100
0010
1000
0010
1000
0001
0000
0000
0000
1000
0000
0000
0000
,
0110
0000
0000
0000
0001
0000
0010
0000
0100
0000
0000
0000
0010
0000
0001
0000
1000
0000
0000
0000
0010
0000
1000
0000
0001
0000
0000
0000
0100
0001
0010
0001
,
0010
0000
0000
0000
0100
1000
0010
1000
0010
0000
0000
0000
0100
0000
0001
0000
0010
0000
0000
0000
0100
0000
1000
0000
0010
0000
0000
0000
0100
0001
1000
0001
,
1000
0000
0000
0000
0001
0000
0100
0000
1000
0000
0000
0000
1000
0000
0100
0000
0001
1000
0001
1000
0100
0000
0010
0000
0001
0000
0000
0000
1000
0100
0010
0001
,
1000
0000
0010
0100
0010
0000
1000
0001
1000
0000
0001
0000
0010
0100
1000
0001
,
2001
0000
0000
0000
0010
0000
0000
0100
0000
0000
0100
0000
3001
0010
0100
0000
,
0210
0000
0000
0000
0001
0000
0000
0010
0000
0000
0010
0000
1000
0000
1300
0000
,
2010
0000
0000
0000
0001
0000
0000
0100
0000
0000
0100
0000
0010
0000
3001
0000
,
0102
0000
0000
0000
0010
0000
0000
0100
0000
0000
0100
0000
1000
0000
0013
0000
;
