#TITLE:かすかなはな;
#SUBTITLE:;
#ARTIST:キタニタツヤ feat. BABYMETAL;
#TITLETRANSLIT:Kasuka na Hana;
#SUBTITLETRANSLIT:;
#ARTISTTRANSLIT:Kitani Tatsuya feat. BABYMETAL;
#GENRE:ANIME;
#CREDIT:;
#MUSIC:Kasuka na Hana.ogg;
#BANNER:Kasuka na Hana.png;
#BACKGROUND:Kasuka na Hana-bg.png;
#CDTITLE:;
#SAMPLESTART:54.565;
#SAMPLELENGTH:10.598;
#SELECTABLE:YES;
#OFFSET:0.707;
#BPMS:0.000=184.000
,166.000=92.000
,168.000=184.000
,254.000=92.000
,255.000=184.000
;
#STOPS:;
#BGCHANGES:2.000=Kasuka na Hana.avi=1.000=0=0=0=StretchNoLoop====,
99999.000=-nosongbg-=1.000=0=0=0=StretchNoLoop====
;
#FGCHANGES:;

//--------------- dance-single - ----------------
#NOTES:
     dance-single:
     :
     Medium:
     12:
     0,0,0,0,0:
0000
0000
0000
0000
,
0000
0000
0000
0000
,
0000
0000
0000
0000
,
0000
0000
0000
0000
,
0000
0000
0000
0000
0001
0010
0100
0000
,
1100
0000
1000
0010
0100
0000
0101
0000
,
0001
1000
0100
0000
1000
0100
0010
0000
,
0011
0000
0001
0100
0010
0000
1010
0000
,
1000
0100
0100
0100
1000
0010
0100
0000
,
0101
0000
0001
0010
0100
0000
1100
0000
,
1000
0001
0100
0000
0001
0100
0010
0000
,
1010
0000
1000
0100
0010
0000
0011
0000
,
1000
0100
0100
0100
1000
0010
0100
0001
,
0010
2000
0000
3010
0001
1000
0010
0002
,
0000
0023
0000
1030
0000
0001
1000
0100
,
0020
0000
0130
1000
0001
0000
0100
0010
,
0000
0100
0000
0001
1000
0100
0002
0000
,
0103
1000
0001
0100
2000
0000
3100
0020
,
0000
1030
0000
0100
0000
0010
0001
1000
,
0100
0000
1000
0010
0100
0000
0001
1000
,
0000
1100
0011
1100
,
1000
0010
0000
0100
0001
0000
1000
0100
,
0000
1100
0000
0101
0000
0001
0100
0000
,
0010
1000
0100
0010
0001
0000
1000
0010
,
0000
0101
0000
0001
0100
0010
0100
0001
,
0010
0100
0000
1000
0010
0000
0100
0001
,
0000
0101
0000
1100
0000
0100
1000
0100
,
0010
0100
1000
0010
0200
0000
0302
0000
,
1003
0100
0000
0100
0011
0000
0000
0011
,
0010
0100
1000
0100
0100
0001
1000
0010
,
0100
0001
1000
0100
1100
0000
0000
1100
,
0000
0001
0010
0001
0100
0100
1000
0001
,
0100
0010
0000
1000
0001
0000
0001
0000
,
1000
1000
0010
0010
,
0100
0100
0001
0010
,
0100
1000
0001
1000
,
0001
0100
0000
0000
0110
0000
0010
1000
,
0100
0000
1000
0100
0010
0001
1000
0000
,
0010
0100
0001
0010
0200
0000
1300
0001
,
1000
0001
0200
0000
0301
1000
0100
0001
,
0100
1000
0001
0000
1000
0010
0100
0010
,
1000
0000
0000
0000
0000
0000
0000
0000
0000
0000
0000
0000
0000
0000
0000
0000
0000
0000
0000
0000
0000
0000
0000
0000
0100
0000
0000
0000
0000
0000
0000
0000
0000
0000
0000
0000
0000
0000
0000
0000
0000
0000
0000
0000
0000
0000
0000
0000
0010
0000
0000
0000
0000
0000
0000
0000
0000
0000
0000
0000
0000
0000
0000
0000
0000
0000
0000
0000
0000
0000
0000
0000
0100
0000
0000
0000
0000
0000
0000
0000
0000
0000
0000
0000
0000
0000
0000
0000
0000
0000
0000
0000
0000
0000
0000
0000
2000
3000
0000
0000
0000
0000
0000
0000
0000
0000
0000
0000
0000
0000
0000
0000
0000
0000
0000
0000
0000
0000
0000
0000
0000
0000
0000
0000
0000
0000
0000
0000
0000
0000
0000
0000
0000
0000
0000
0000
0000
0000
0000
0000
0000
0000
0000
0000
0000
0000
0000
0000
0000
0000
0000
0000
0000
0000
0000
0000
0000
0000
0000
0000
0000
0000
0000
0000
0000
0000
0000
0000
0000
0000
0000
0000
0000
0000
0000
0000
0000
0000
0000
0000
0000
0000
0000
0000
0000
0000
0000
0000
0000
0000
0000
0000
,
2000
3000
0000
0000
0000
0000
0000
0000
0000
0000
0000
0000
0000
0000
0000
0000
0000
0000
0000
0000
0000
0000
0000
0000
0001
0000
0000
0000
0000
0000
0000
0000
0000
0000
0000
0000
0000
0000
0000
0000
0000
0000
0000
0000
0000
0000
0000
0000
0100
0000
0000
0000
0000
0000
0000
0000
0000
0000
0000
0000
0000
0000
0000
0000
0000
0000
0000
0000
0000
0000
0000
0000
0100
0000
0000
0000
0000
0000
0000
0000
0000
0000
0000
0000
0000
0000
0000
0000
0000
0000
0000
0000
0000
0000
0000
0000
1000
0000
0000
0000
0000
0000
0000
0000
0000
0000
0000
0000
0000
0000
0000
0000
0000
0000
0000
0000
0000
0000
0000
0000
0001
0000
0000
0000
0000
0000
0000
0000
0000
0000
0000
0000
0000
0000
0000
0000
0000
0000
0000
0000
0000
0000
0000
0000
0100
0000
0000
0000
0000
0000
0000
0000
0000
0000
0000
0000
0000
0000
0000
0000
0000
0000
0000
0000
0000
0000
0000
0000
1000
0000
0000
0000
0000
0000
0000
0000
0000
0000
0000
0000
0000
0000
0000
0000
0000
0000
0000
0000
0000
0000
0000
0000
,
0100
0001
0010
0110
0000
1001
0000
0001
,
1000
0100
0100
0001
1000
0100
0001
0100
,
1000
0010
0100
0110
0000
1001
0000
1000
,
0010
0000
0010
0100
0001
1000
0001
0010
,
0100
0000
1000
0001
1000
0000
0101
0000
,
0011
0000
0010
0100
0010
0000
0001
1000
,
0001
0100
0100
0000
0100
0000
0010
1000
,
0001
1000
0100
0100
0001
0010
1000
0010
,
0001
0100
0010
0110
0000
1001
0000
0001
,
0100
0100
1000
0010
0001
0010
1000
0100
,
0110
0000
1001
0001
0000
0001
0010
0100
,
1100
0000
1000
0010
0100
0001
1000
0100
,
0002
0000
0103
1000
0001
0000
0101
0000
,
0010
0000
1001
0100
0010
0000
0010
1000
,
0001
0000
0001
0010
0000
0100
0000
1000
,
0010
0100
0010
1000
0100
0010
0100
1000
,
0010
0100
1000
1100
0000
0101
0000
0001
,
0010
0100
0010
0001
0100
0010
0100
0001
,
0010
0100
0001
0101
0000
1100
0000
1000
,
0010
0010
1000
1000
0001
0001
0010
0010
,
0100
0000
0000
0000
0000
0000
0000
0000
0000
0000
0000
0000
0000
0000
0000
0000
0000
0000
0000
0000
0000
0000
0000
0000
1000
0000
0000
0000
0000
0000
0000
0000
0000
0000
0000
0000
0000
0000
0000
0000
0000
0000
0000
0000
0000
0000
0000
0000
0001
0000
0000
0000
0000
0000
0000
0000
0000
0000
0000
0000
0000
0000
0000
0000
0000
0000
0000
0000
0000
0000
0000
0000
1000
0000
0000
0000
0000
0000
0000
0000
0000
0000
0000
0000
0000
0000
0000
0000
0000
0000
0000
0000
0000
0000
0000
0000
0200
0300
0000
0000
0000
0000
0000
0000
0000
0000
0000
0000
0000
0000
0000
0000
0000
0000
0000
0000
0000
0000
0000
0000
0100
0000
0000
0000
0000
0000
0000
0000
0000
0000
0000
0000
0000
0000
0000
0000
0000
0000
0000
0000
0000
0000
0000
0000
2000
3000
0000
0000
0000
0000
0000
0000
0000
0000
0000
0000
0000
0000
0000
0000
0000
0000
0000
0000
0000
0000
0000
0000
0010
0000
0000
0000
0000
0000
0000
0000
0000
0000
0000
0000
0000
0000
0000
0000
0000
0000
0000
0000
0000
0000
0000
0000
,
0100
0000
1010
0000
0001
0010
0100
0000
,
0011
0000
1000
0001
0100
0000
0001
0010
,
0100
0000
0011
0000
1000
0010
0100
0000
,
1010
0000
0001
0100
0100
0100
0000
0000
;

//--------------- dance-single - ----------------
#NOTES:
     dance-single:
     :
     Hard:
     15:
     0,0,0,0,0:
0000
0000
0000
0000
,
0000
0000
0000
0000
,
0000
0000
0000
0000
,
0000
0000
0000
0000
,
0000
0000
0000
0000
1000
0010
0100
0001
,
0011
0000
0001
0010
0100
1000
1010
0000
,
1000
0000
0001
0010
0200
0000
0000
0000
1300
0000
0010
0000
0100
0000
0001
0000
,
0011
0000
0001
0010
0100
1000
1010
0000
,
1000
0000
0010
0100
0010
0100
0010
0100
0001
0000
0010
0000
0100
0000
1000
0000
,
1010
0000
1000
0010
0100
0001
0011
0000
,
0001
0000
1000
0010
0200
0000
0000
0000
0301
0000
0010
0000
0100
0000
1000
0000
,
1010
0000
0000
0000
1000
0000
0010
0000
0100
0001
1000
0000
0100
0000
0010
0001
,
1000
0000
0001
0100
0001
0100
0001
0100
0001
0000
0010
0000
0100
0000
1000
0000
,
0001
2000
0000
3010
0100
0001
1000
0200
,
0000
1300
0000
0001
0000
0010
0001
1000
,
0010
0000
0010
1000
0002
0000
0013
0200
,
0000
0010
0000
0310
0001
0100
2000
0000
,
3100
0010
1000
0100
0002
0000
0103
0020
,
0000
0032
0000
1000
0000
1003
0010
0100
,
0002
0000
1003
0100
2000
0000
3001
0100
,
0000
0001
0010
0000
1001
0000
0001
0010
,
0100
1000
0100
0010
0001
0010
0100
1100
,
0000
0000
1010
0000
0000
0000
1000
0001
0100
0000
0010
0000
0001
0000
0010
0000
,
0100
1000
0100
0010
0001
1000
0100
0110
,
0000
0000
1001
0000
0000
0000
0001
0010
0100
0000
1000
0000
0100
0000
0010
0000
,
0001
0101
0000
1010
1000
0100
0010
0011
,
0000
1001
0000
0110
0000
0010
1000
0100
,
0001
0000
0100
0000
0001
0000
1000
0000
0010
0000
1000
0000
0010
0000
0001
1000
,
0001
0100
0010
0100
0110
0000
0010
0110
,
0100
0000
0001
0000
1000
0100
0010
0001
1000
0000
0010
0000
0100
0000
1000
0000
,
0100
0000
0010
1000
0001
0000
0010
0000
0110
0000
0000
0000
0100
0000
0110
0000
,
0010
0000
0001
0000
1000
0010
0100
0001
0010
0000
0100
0000
1000
0000
0001
0000
,
0100
1000
0000
0100
0110
0000
1010
0000
,
1100
0011
0101
1100
,
1010
0101
0110
1001
,
0011
0110
1100
1001
,
0100
0010
0000
0000
0110
0000
0001
1000
,
0001
0000
0000
0000
1000
0000
0100
0000
0010
0000
0001
1000
0001
0000
0100
0000
,
0010
0000
1000
0001
1000
0000
0100
0000
0002
0000
0000
0000
0103
0000
1000
0000
,
0010
0000
0100
0000
2000
0000
0000
0000
3100
0000
0001
1000
0100
0000
0010
0001
,
1000
0010
0110
0000
0100
0001
0010
0100
,
0010
0000
0000
0000
0000
0000
0000
0000
0000
0000
0000
0000
0000
0000
0000
0000
0000
0000
0000
0000
0000
0000
0000
0000
0001
0000
0000
0000
0000
0000
0000
0000
0000
0000
0000
0000
0000
0000
0000
0000
0000
0000
0000
0000
0000
0000
0000
0000
0100
0000
0000
0000
0000
0000
0000
0000
0000
0000
0000
0000
0000
0000
0000
0000
0000
0000
0000
0000
0000
0000
0000
0000
0001
0000
0000
0000
0000
0000
0000
0000
0000
0000
0000
0000
0000
0000
0000
0000
0000
0000
0000
0000
0000
0000
0000
0000
2000
3000
0000
0000
0000
0000
0000
0000
0000
0000
0000
0000
0000
0000
0000
0000
0000
0000
0000
0000
0000
0000
0000
0000
0000
0000
0000
0000
0000
0000
0000
0000
0000
0000
0000
0000
1000
0000
0000
0000
0000
0000
0000
0000
0000
0000
0000
0000
0000
0000
0000
0000
0000
0000
0000
0000
0000
0000
0000
0000
0001
0000
0000
0000
0000
0000
0000
0000
0000
0000
0000
0000
0000
0000
0000
0000
0000
0000
0000
0000
0000
0000
0000
0000
0010
0000
0000
0000
0000
0000
0000
0000
0000
0000
0000
0000
,
0200
0300
0000
0000
0000
0000
0000
0000
0000
0000
0000
0000
0000
0000
0000
0000
0000
0000
0000
0000
0000
0000
0000
0000
1000
0000
0000
0000
0000
0000
0000
0000
0000
0000
0000
0000
0001
0000
0000
0000
0000
0000
0000
0000
0000
0000
0000
0000
1000
0000
0000
0000
0000
0000
0000
0000
0000
0000
0000
0000
0000
0000
0000
0000
0000
0000
0000
0000
0000
0000
0000
0000
0100
0000
0000
0000
0000
0000
0000
0000
0000
0000
0000
0000
0000
0000
0000
0000
0000
0000
0000
0000
0000
0000
0000
0000
0010
0000
0000
0000
0000
0000
0000
0000
0000
0000
0000
0000
0000
0000
0000
0000
0000
0000
0000
0000
0000
0000
0000
0000
0001
0000
0000
0000
0000
0000
0000
0000
0000
0000
0000
0000
1000
0000
0000
0000
0000
0000
0000
0000
0000
0000
0000
0000
0001
0000
0000
0000
0000
0000
0000
0000
0000
0000
0000
0000
0000
0000
0000
0000
0000
0000
0000
0000
0000
0000
0000
0000
0100
0000
0000
0000
0000
0000
0000
0000
0000
0000
0000
0000
0010
0000
0000
0000
0000
0000
0000
0000
0000
0000
0000
0000
,
0100
0000
0001
0000
1000
0000
0100
0000
0000
0000
0011
0000
0001
0000
1000
0010
,
1000
0000
0001
0100
0001
0000
0010
0000
0100
0000
1000
0100
1000
0000
0001
0010
,
0001
1000
0010
1010
0000
0101
0000
0001
,
0010
1000
0010
0100
1000
0100
0001
0100
,
1000
0000
0001
0010
0100
0000
1000
0000
0001
0000
1000
0000
1100
0000
0000
0000
,
0001
0000
1000
0010
0100
0000
1000
0000
0100
0000
0001
0010
0100
0000
1000
0000
,
0001
0000
0101
0000
0101
0000
0000
1000
0010
0000
0100
0000
0001
1000
0100
1000
,
0100
0000
1000
0001
0100
0000
0100
0001
0010
0000
0100
1000
0001
0000
0001
0010
,
0100
0000
1000
0000
0001
0000
0101
0000
0000
0000
1010
0000
1000
0000
0001
0010
,
0100
0000
0100
1000
0001
0000
1000
0000
0001
0100
0010
0100
0001
0000
1000
0000
,
1100
0000
0000
0000
0011
0000
0001
0000
1000
0010
1000
0010
0100
0000
0001
0000
,
0101
0000
0100
0001
1000
0010
0100
0001
,
2000
0000
0000
0000
3001
0000
0010
0100
0010
0000
0001
0000
0011
0000
0000
0000
,
1100
0000
1000
0100
0010
0000
0001
0000
1000
0000
0000
0000
0110
0000
1000
0000
,
0001
0000
0000
0100
0001
0000
1000
0000
0001
1000
0100
0000
1000
0000
0001
0100
,
0001
0000
1000
0100
1000
0000
0001
0100
0001
0000
1000
0100
1000
0000
0001
0100
,
0001
0000
1000
0100
1000
0000
0011
0000
0000
0000
1100
0000
1000
0000
0001
0010
,
0001
0000
1000
0010
1000
0000
0001
0010
0001
0000
1000
0010
1000
0000
0001
0010
,
0001
0000
1000
0010
1000
0000
0101
0000
0000
0000
1010
0000
0010
1000
0100
0010
,
0002
0013
0200
0310
2000
3010
0002
0103
,
0010
0000
0000
0000
0000
0000
0000
0000
0000
0000
0000
0000
0000
0000
0000
0000
0000
0000
0000
0000
0000
0000
0000
0000
1000
0000
0000
0000
0000
0000
0000
0000
0000
0000
0000
0000
0001
0000
0000
0000
0000
0000
0000
0000
0000
0000
0000
0000
1000
0000
0000
0000
0000
0000
0000
0000
0000
0000
0000
0000
0001
0000
0000
0000
0000
0000
0000
0000
0000
0000
0000
0000
1000
0000
0000
0000
0000
0000
0000
0000
0000
0000
0000
0000
0001
0000
0000
0000
0000
0000
0000
0000
0000
0000
0000
0000
0200
0300
0000
0000
0000
0000
0000
0000
0000
0000
0000
0000
0000
0000
0000
0000
0000
0000
0000
0000
0000
0000
0000
0000
0010
0000
0000
0000
0000
0000
0000
0000
0000
0000
0000
0000
0000
0000
0000
0000
0000
0000
0000
0000
0000
0000
0000
0000
2000
3000
0000
0000
0000
0000
0000
0000
0000
0000
0000
0000
0000
0000
0000
0000
0000
0000
0000
0000
0000
0000
0000
0000
0010
0000
0000
0000
0000
0000
0000
0000
0000
0000
0000
0000
0000
0000
0000
0000
0000
0000
0000
0000
0000
0000
0000
0000
,
0100
0001
0011
0000
0001
0010
0100
1000
,
1010
0000
0000
0000
1000
0000
0001
0010
0200
0000
0000
0000
1300
0000
0010
0000
,
0100
0001
0011
0000
0001
0010
0100
1000
,
1010
0000
0000
0000
1000
0000
0010
0100
0010
0100
0010
0000
0000
0000
0000
0000
;

//--------------- dance-single - ----------------
#NOTES:
     dance-single:
     :
     Challenge:
     17:
     0.811022,0.644432,0,0,0,512,512,0,0,0,0,0.811022,0.644432,0,0,0,512,512,0,0,0,0:
0000
0000
0000
0000
,
0000
0000
0000
0000
,
0000
0000
0000
0000
,
0000
0000
0000
0000
,
0000
0000
0000
0000
0000
0000
0000
0000
0101
0000
0100
0001
0010
0000
0100
0000
,
1100
0000
0000
0000
1100
0000
0100
1000
0010
0000
0100
0000
0101
0000
0001
0010
,
0100
0000
0010
0100
1000
0000
0000
0000
1100
0000
0100
1000
0010
0000
0100
0000
,
0101
0000
0000
0000
0101
0000
0100
0001
0010
0000
0100
0000
1100
0000
1000
0010
,
0100
0000
0001
1000
0001
1000
0001
1000
0100
0000
0010
0001
0100
0000
0010
0000
,
1010
0000
0000
0000
1010
0000
0010
1000
0100
0000
0010
0000
0011
0000
0001
0100
,
0010
0000
0100
0010
1000
0000
0000
0000
1010
0000
0010
1000
0100
0000
0010
0000
,
0011
0000
0000
0000
0011
0000
0001
0010
0100
1000
0001
0010
0100
0000
1000
0100
,
0010
0001
0100
0010
0100
0010
0100
0010
1000
0000
0000
0000
0001
0000
0010
0000
,
0000
0100
1000
0000
0010
0100
0000
0001
,
1000
0000
1000
0000
0001
0000
0001
0010
,
0000
0100
1000
0000
0010
0100
0000
0001
,
1000
0000
1000
0000
0010
0000
0010
0100
,
0000
0100
0001
0000
0001
1000
0000
1000
,
0010
0000
0100
0000
0001
0000
1000
0100
,
0000
0100
0010
0000
0010
0001
0000
0001
,
1000
0000
0010
0000
0110
0000
1001
0001
,
1000
1100
0000
1000
0010
0100
0101
0001
,
1000
0000
1100
0000
0100
0000
1000
0001
0010
0000
0100
0000
1100
0000
1000
0000
,
0001
0011
0010
0100
1000
0010
0110
0100
,
0001
0000
1001
0000
1000
0010
0100
0001
0010
0000
0100
0000
1100
0000
1000
0000
,
0001
1001
0000
1000
0010
0100
0101
0001
,
1000
1100
0100
0010
0110
0000
1001
0100
,
0001
0000
1001
0000
1000
0000
0001
0000
0100
0000
0001
0100
0001
0000
1000
0100
,
1000
0100
0010
0001
0101
0100
0001
0101
,
0100
0000
0010
0000
1000
0001
0100
0010
1000
0000
0001
0000
0010
0000
0100
0000
,
1000
0000
0001
0100
0010
0000
1000
0000
1100
0000
0100
0000
1000
0000
1100
0000
,
0100
0000
0010
0000
0001
1000
0010
0100
0001
0000
1000
0000
0100
0000
0010
0000
,
0100
1000
0000
0001
0101
0000
0100
0000
,
0001
1000
0110
0001
,
1000
0001
1100
0010
,
1000
0001
1010
0001
,
0110
0000
0000
0000
1001
0000
0001
1000
,
1100
0000
0000
0000
0100
0000
1000
0000
0001
0000
0100
0010
0100
0000
1000
0000
,
0001
0000
0010
0100
0010
0000
1000
0000
0001
0000
0000
0000
0011
0000
0000
0000
,
1100
0000
0000
0000
1000
0000
0010
0000
0100
0001
1000
0001
1000
0001
0010
0100
,
1000
0001
0101
0000
1000
0100
0001
1000
,
0001
0000
0000
0000
0000
0000
0000
0000
0000
0000
0000
0000
0000
0000
0000
0000
0000
0000
0000
0000
0000
0000
0000
0000
0100
0000
0000
0000
0000
0000
0000
0000
0000
0000
0000
0000
0000
0000
0000
0000
0000
0000
0000
0000
0000
0000
0000
0000
1000
0000
0000
0000
0000
0000
0000
0000
0000
0000
0000
0000
0000
0000
0000
0000
0000
0000
0000
0000
0000
0000
0000
0000
0001
0000
0000
0000
0000
0000
0000
0000
0000
0000
0000
0000
0000
0000
0000
0000
0000
0000
0000
0000
0000
0000
0000
0000
0200
0300
0000
0000
0000
0000
0000
0000
0000
0000
0000
0000
0000
0000
0000
0000
0000
0000
0000
0000
0000
0000
0000
0000
0000
0000
0000
0000
0000
0000
0000
0000
0000
0000
0000
0000
0001
0000
0000
0000
0000
0000
1000
0000
0000
0000
0000
0000
0001
0000
0000
0000
0000
0000
0000
0000
0000
0000
0000
0000
0010
0000
0000
0000
0000
0000
0000
0000
0000
0000
0000
0000
0000
0000
0000
0000
0000
0000
0000
0000
0000
0000
0000
0000
0010
0000
0000
0000
0000
0000
0000
0000
0000
0000
0000
0000
,
0200
0300
0000
0000
0000
0000
0000
0000
0000
0000
0000
0000
0000
0000
0000
0000
0000
0000
0000
0000
0000
0000
0000
0000
1000
0000
0000
0000
0000
0000
0000
0000
0000
0000
0000
0000
0001
0000
0000
0000
0000
0000
0000
0000
0000
0000
0000
0000
1000
0000
0000
0000
0000
0000
0000
0000
0000
0000
0000
0000
0000
0000
0000
0000
0000
0000
0000
0000
0000
0000
0000
0000
0010
0000
0000
0000
0000
0000
0000
0000
0000
0000
0000
0000
0100
0000
0000
0000
0000
0000
0000
0000
0000
0000
0000
0000
0001
0000
0000
0000
0000
0000
0000
0000
0000
0000
0000
0000
1000
0000
0000
0000
0000
0000
0000
0000
0000
0000
0000
0000
0010
0000
0000
0000
0000
0000
0000
0000
0000
0000
0000
0000
1000
0000
0000
0000
0000
0000
0000
0000
0000
0000
0000
0000
0100
0000
0000
0000
0000
0000
0000
0000
0000
0000
0000
0000
0010
0000
0000
0000
0000
0000
0000
0000
0000
0000
0000
0000
0001
0000
0000
0000
0000
0000
0000
0000
0000
0000
0000
0000
1000
0000
0000
0000
0000
0000
0000
0000
0000
0000
0000
0000
,
0100
0000
0010
0001
1000
0000
0001
0100
0010
1000
0001
1000
0001
0010
0100
1000
,
0010
0000
0100
0001
1000
0000
0001
0010
0100
1000
0010
1000
0001
0010
0100
1000
,
0010
0000
0100
0001
1000
0010
0100
0010
1000
0001
1000
0100
0010
0000
0001
1000
,
0001
0000
1000
0010
1000
0000
0010
0000
0100
0000
0001
0100
0001
0000
1000
0001
,
1000
0000
0001
0010
0100
0000
1000
0010
0100
0000
0010
0000
0110
0000
0000
0000
,
0101
0000
0001
0010
0100
0000
1000
0000
1100
0000
1000
0010
0100
0000
0001
0000
,
1000
0000
1001
0000
1001
0000
0000
0001
0010
0001
0010
0000
0100
1000
0100
1000
,
0001
0000
0100
0010
0100
0000
0010
1000
0001
0010
0001
1000
0010
0100
0001
0010
,
1000
0000
0010
0001
1000
0000
0001
0100
0010
1000
0001
1000
0100
0000
0100
1000
,
0001
0000
1000
0010
0100
0001
1000
0001
0010
0100
1000
0010
0001
0000
0010
1000
,
0001
0000
1000
0100
0010
0000
0001
0000
1000
0010
0100
0001
0010
0000
0100
0000
,
1100
0000
1000
0001
0100
0000
0010
0000
0100
0000
0001
0000
0101
0000
0100
0000
,
0001
0000
1000
0100
0010
0000
0100
1000
0001
0000
1000
0000
1100
0000
0000
0000
,
0001
0000
1000
0100
0001
0000
0100
1000
0001
0000
1000
0000
0110
0000
0001
0000
,
1000
0000
0001
0100
1000
0000
0100
0001
0010
0000
0100
0000
1000
0001
1000
0001
,
0100
0000
0010
1000
0001
0000
1000
0100
0001
0000
0100
1000
0001
0000
1000
0010
,
0001
0000
0010
1000
0001
0000
1000
0100
0001
0000
0100
0000
1000
0000
0001
0100
,
1000
0000
0100
0001
1000
0000
0001
0010
1000
0000
0010
0001
1000
0000
0001
0100
,
1000
0000
0100
0001
1000
0000
0100
0000
0010
0000
0001
0010
0100
1000
0001
0100
,
0101
1000
1100
0001
0011
1000
1010
0001
,
0110
0000
0000
0000
0000
0000
0000
0000
0000
0000
0000
0000
0000
0000
0000
0000
0000
0000
0000
0000
0000
0000
0000
0000
1000
0000
0000
0000
0000
0000
0000
0000
0000
0000
0000
0000
0001
0000
0000
0000
0000
0000
0000
0000
0000
0000
0000
0000
1000
0000
0000
0000
0000
0000
0000
0000
0000
0000
0000
0000
0001
0000
0000
0000
0000
0000
0000
0000
0000
0000
0000
0000
1000
0000
0000
0000
0000
0000
0000
0000
0000
0000
0000
0000
0001
0000
0000
0000
0000
0000
0000
0000
0000
0000
0000
0000
0200
0300
0000
0000
0000
0000
0000
0000
0000
0000
0000
0000
0000
0000
0000
0000
0000
0000
0000
0000
0000
0000
0000
0000
0010
0000
0000
0000
0000
0000
0000
0000
0000
0000
0000
0000
0000
0000
0000
0000
0000
0000
0000
0000
0000
0000
0000
0000
0220
0330
0000
0000
0000
0000
0000
0000
0000
0000
0000
0000
0000
0000
0000
0000
0000
0000
0000
0000
0000
0000
0000
0000
0100
0000
0000
0000
0000
0000
0000
0000
0000
0000
0000
0000
0001
0000
0000
0000
0000
0000
0000
0000
0000
0000
0000
0000
,
0010
0000
0100
0000
1100
0000
0000
0000
1100
0000
0100
1000
0010
0000
0100
0000
,
0101
0000
0001
0010
0100
0000
0010
0100
1000
0000
0000
0000
1100
0000
0100
1000
,
0010
0000
0100
0000
0101
0000
0000
0000
0101
0000
0100
0001
0010
0000
0100
0000
,
1100
0000
1000
0010
0100
0000
0001
1000
0001
1000
0001
0000
0000
0000
0000
0000
;
