#TITLE:完全放棄宣言;
#SUBTITLE:;
#ARTIST:ナナヲアカリ;
#TITLETRANSLIT:Kanzen Houki Sengen;
#SUBTITLETRANSLIT:;
#ARTISTTRANSLIT:Nanawo Akari;
#GENRE:POP;
#CREDIT:;
#MUSIC:Kanzen Houki Sengen.ogg;
#BANNER:Kanzen Houki Sengen.png;
#BACKGROUND:Kanzen Houki Sengen-bg.png;
#CDTITLE:;
#SAMPLESTART:59.390;
#SAMPLELENGTH:10.105;
#SELECTABLE:YES;
#OFFSET:-0.027;
#BPMS:0.000=190.000;
#STOPS:;
#BGCHANGES:2.000=Kanzen Houki Sengen.avi=1.000=0=0=0=StretchNoLoop====,
99999.000=-nosongbg-=1.000=0=0=0=StretchNoLoop====
;
#FGCHANGES:;

//--------------- dance-single - ----------------
#NOTES:
     dance-single:
     :
     Medium:
     13:
     0,0,0,0,0:
0000
0000
0000
0000
,
0000
0000
0000
0000
0000
0000
0000
0001
,
0100
0000
0000
0010
1000
0000
0000
1000
,
0100
0000
0010
0001
1000
0100
0010
0100
,
1000
0000
0000
0001
0010
0000
0000
0001
,
1000
0000
0010
0100
0001
1000
0001
1000
,
0010
0000
0000
0100
0001
0000
0000
1000
,
0010
0000
0010
0100
0001
1000
0001
0010
,
0110
0000
1100
0000
0101
0000
0001
1000
,
0000
1010
0000
0100
0002
0000
0000
0000
,
1003
0100
0010
0002
0000
1003
0010
0200
,
0000
0301
1000
0001
0000
0100
0001
1000
,
1100
0000
0011
0000
0010
0001
0100
1000
,
0100
0010
1000
0002
0000
0023
0000
0031
,
0100
0010
1000
0200
0000
0310
0001
2000
,
0000
3001
0100
0020
0000
1030
0100
0010
,
0110
0000
1001
0000
0001
1000
0100
0001
,
0100
0000
0010
0000
0001
0000
0100
0000
0010
0000
1000
0001
1000
0000
0010
0100
,
0010
0100
0010
0100
0001
1000
0001
1000
,
0001
0010
0100
1000
0001
0011
0000
1000
,
1010
0010
0100
0001
0100
0010
1000
0001
,
0100
0010
1000
0001
0011
1100
0000
1000
,
0100
0010
0100
1000
0001
1000
0001
0100
,
0010
1000
0010
0100
0001
1000
0001
1000
,
1010
0000
0011
0000
1010
0000
0011
0001
,
0000
0000
1000
0000
0100
0000
2000
0000
0000
0000
3001
0100
0001
0000
1000
0000
,
0001
0100
0010
0100
1000
0100
0001
0010
,
0100
0010
1000
0010
0100
0010
0001
1000
,
0001
0100
0100
1000
0001
0100
0100
1000
,
0001
0010
0010
1000
0001
0010
0010
1000
,
0100
0010
0100
0010
0001
0100
0010
1000
,
0100
0010
0100
0010
0001
1000
0000
0010
,
1010
1100
0011
0101
,
1001
0000
0110
0000
1001
0000
1000
0100
,
0010
0001
1000
0001
0010
0100
1000
0001
,
1000
0010
0100
0010
1000
0000
1000
0100
,
0110
0000
0011
0000
1100
1000
0010
0100
,
0001
1000
0100
0010
0110
0000
1100
0000
,
0101
0000
1010
0000
0011
0000
0010
0100
,
1000
0001
1000
0001
0100
0010
1000
0010
,
0110
0000
0101
0000
1001
0000
0001
0010
,
1000
0010
1000
0001
0100
1000
0100
1000
,
0001
0100
2000
0000
3100
0001
0010
2000
,
0000
0000
3010
0001
0100
2000
0000
3100
,
0001
0010
1000
0002
0000
0103
2000
0000
,
3002
0000
0100
0000
0100
0000
0103
0010
,
2000
0000
3001
0010
0100
0010
0100
0010
,
0011
0101
1100
1010
,
1010
1100
0101
0011
,
0101
0101
1010
1010
,
1001
0000
1001
0000
1001
0000
0001
0010
,
0100
0010
0100
1000
0010
0100
0010
0100
,
0001
0010
0100
0010
0100
1000
0010
0100
,
0020
0000
0001
0000
0100
0000
1000
0031
,
0000
0001
1000
0001
0000
1000
0100
0010
,
0011
0101
1100
1010
,
1010
1100
0101
0011
,
0101
0101
1010
1010
,
1001
0000
1001
0000
1001
0000
0001
0010
,
1000
0010
1000
0010
0001
0100
1000
0100
,
1000
0100
0001
1000
0000
1000
0100
0010
,
0002
1000
0100
0010
,
2003
0001
0010
0100
,
3010
0100
0010
0100
0001
1000
0001
1000
,
0010
0000
0100
0000
0010
0000
0100
0000
0010
0100
0010
0100
0010
0100
0010
0100
,
0010
1000
0100
0010
0001
1000
0100
0010
,
0001
0100
0010
1000
0001
0100
0010
1000
,
0100
1001
0100
1001
,
1100
0000
0101
0000
1100
0000
0001
1000
,
0000
1001
0000
1000
0100
1000
0010
0100
,
0001
0010
0100
1000
0001
0010
0100
1000
,
0010
1001
0010
1001
,
0011
0000
1000
0001
0000
0001
0100
0010
,
0000
1001
0000
0001
0100
0001
1000
0100
,
1000
0010
0110
0000
0110
0000
1001
0000
,
0100
1001
0010
1001
,
1010
0000
0011
0000
0101
0000
1000
0001
,
0000
1001
0000
1000
0010
1000
0001
0010
,
0001
0100
0010
0100
0110
0000
1100
0101
,
0010
1001
0100
1001
,
1001
0000
0000
0000
1001
0000
1001
0000
1001
0000
0000
0000
0001
1000
0001
1000
,
0001
0000
0000
0010
0001
0000
0000
0001
,
0100
0000
0010
1000
0001
0100
0010
0100
,
0001
0000
0000
1000
0010
0000
0000
1000
,
0001
0000
0010
0100
1000
0001
1000
0001
,
0010
0000
0000
0100
1000
0000
0000
0001
,
0010
0000
0010
0100
1000
0001
1000
0010
,
0110
0000
0101
0000
1100
0000
1000
0001
,
0000
0011
0000
0110
2002
0000
0000
0000
,
3003
0000
0000
0000
;

//--------------- dance-single - ----------------
#NOTES:
     dance-single:
     :
     Hard:
     15:
     0,0,0,0,0:
0000
0000
0000
0000
,
0000
0000
0000
0000
0000
0000
0000
0001
,
0020
0000
0130
1000
0020
0000
0130
0001
,
0020
0000
0130
0010
0001
1000
0010
1000
,
0002
0000
0013
0001
0200
0000
0310
1000
,
0200
0000
0310
0100
1000
0001
0100
0001
,
2000
0000
3010
1000
0002
0000
0013
0001
,
2000
0000
3010
1000
0001
0010
0100
0010
,
0110
0000
0011
0000
1100
0000
1000
0001
,
0000
0000
1010
0000
0000
0000
0010
0000
1000
0100
0010
0100
0010
0100
0010
0001
,
1000
0010
0100
0002
0000
1003
0100
0020
,
0000
0031
1000
0001
1000
0010
0100
0001
,
0101
0000
1010
0000
1000
0010
0100
1000
,
0100
0001
0010
0200
0000
2300
0000
3001
,
1000
0100
0010
0002
0000
1003
0010
0200
,
0000
0301
1000
0001
1000
0100
0010
0001
,
0011
0000
1100
0000
1000
0100
0010
1000
,
0010
0000
0001
0000
0100
0000
0010
0000
0100
0000
0001
0010
0001
0010
0100
1000
,
0100
0010
0001
0010
0100
1000
0001
1000
,
0010
0100
0001
0100
0010
1010
0000
0100
,
0101
0001
0010
0100
0001
1000
0010
0001
,
0100
0000
0020
0000
0000
0000
1030
0000
0010
0000
0101
0000
0000
0000
0001
0100
,
0010
0000
0100
0000
0001
0000
1000
0000
0001
0000
1000
0000
0001
0000
0010
0100
,
1000
0010
0100
0010
0100
0010
1000
0010
,
0110
0000
1001
0000
0101
0100
0010
1010
,
0000
0000
1010
0000
0000
0000
0101
0000
0001
0000
0010
0100
0010
0000
0001
0000
,
1000
0100
0010
0001
2000
0000
3001
0100
,
0010
0100
0001
0100
0010
1000
0000
1000
,
0010
0100
0110
0000
0001
0010
0011
0000
,
0100
1000
1100
0100
1000
0001
1001
0000
,
0001
0100
1000
0100
0010
0100
0010
1000
,
0001
0000
0010
0000
0100
0000
0001
0000
0100
1000
0200
0000
0000
0000
1300
0000
,
1010
0000
1100
0000
0101
0000
0001
0010
,
0110
0000
0000
0000
1001
0000
0000
0000
0110
0000
0010
0000
1000
0100
1000
0100
,
0010
0000
0100
1000
0100
0000
0010
0000
0001
0100
0001
0100
0010
0100
0010
1000
,
0001
0010
0100
1000
0001
0000
0100
0001
,
0020
0000
0001
0000
0130
1000
0010
0100
,
0001
1000
0001
0100
0020
0000
1000
0000
,
0230
0000
0001
0000
0310
0000
0010
1000
,
0100
0001
1000
0001
0100
1000
0001
0100
,
0020
0000
1000
0000
0130
0000
0100
0001
,
0010
0000
0100
1000
0100
0000
0010
0100
0010
0000
0001
0010
0001
0000
0100
0010
,
0100
0010
1000
0000
1000
0100
1100
1100
,
0000
0000
0001
0100
0101
0101
0000
0010
,
0100
0010
0110
0110
0000
1000
0001
0000
,
1000
0000
0100
0000
0010
0000
0001
0000
1000
0100
0010
0001
1000
0100
0010
0001
,
2000
0000
0000
0000
3100
0000
0010
0000
0001
0010
0001
0010
0100
1000
0100
1000
,
0001
0000
0000
0010
0001
0000
0100
0000
1000
0000
0100
0000
0110
0000
0000
0000
,
1010
0000
0000
0010
1000
0000
0100
0000
0001
0000
0100
0000
0110
0000
0000
0000
,
0110
0000
0000
0010
0001
0000
0100
0000
0010
0000
0100
0000
0110
0000
0000
0000
,
1001
0000
1001
0000
1001
0000
0100
0010
,
0110
0000
0000
0010
1000
0000
0100
0000
0010
0000
0000
0010
0001
0000
0100
0000
,
0010
0000
0000
0010
1000
0000
0100
0000
0010
0000
0000
0010
0001
0000
0100
0000
,
0010
0000
1000
0001
1000
0000
0100
0010
0100
0000
0010
0001
0010
0001
1000
0000
,
0000
0000
1001
0000
1000
0000
0010
0000
0000
0000
0100
0010
0100
0010
0100
0001
,
0010
0001
0100
1000
0100
0010
0110
0000
,
0010
1000
0100
0001
0100
0010
0110
0000
,
0010
0000
0001
1000
0001
0000
0100
0000
0010
0000
0100
0000
0010
0000
0100
0000
,
1001
0000
0000
0000
1001
0000
0000
0000
1001
0000
0000
0000
0001
0100
0001
0100
,
0010
0000
0000
0010
1000
0000
0100
0000
0001
0000
1000
0000
0010
0000
0001
0000
,
0100
0000
0000
0010
1000
0000
0001
0000
0100
0000
1000
0000
0001
0000
0010
0000
,
1000
0100
0010
0001
0011
0000
0101
0000
,
0001
0100
0010
1000
1010
0000
1100
0000
,
0001
0000
1000
0100
0010
0000
0001
0000
0100
0000
0010
0000
0010
0000
0010
0000
,
1000
0000
0001
0100
0001
0100
0010
1000
0010
1000
0001
0100
0010
0100
0010
0100
,
0001
0010
0100
1000
0001
1000
1010
0000
,
0001
0100
0010
1000
0001
0010
0011
0000
,
0010
0001
0101
0000
0010
1000
1100
0000
,
0011
0000
0101
0000
1010
0000
1000
0100
,
0000
0110
0000
0100
1000
0010
1010
0000
,
1000
0100
0010
0001
0010
0001
0100
0110
,
0010
1000
1100
0000
0010
0001
0101
0000
,
1001
0000
0001
1000
0000
1000
0100
0010
,
0000
0110
0000
0100
0010
0001
1001
0000
,
0001
0100
1010
0000
0101
0000
1001
0000
,
0100
0010
1001
0000
0100
0010
1001
0000
,
0110
0000
1010
0000
0101
0000
1000
0001
,
0000
1001
0000
1000
0001
0010
0100
0010
,
0001
1000
0010
0001
0011
0000
0010
1000
,
0001
1000
0011
0000
0001
0100
1010
0000
,
1001
0000
0000
0000
1001
0000
1001
0000
1001
0000
0000
0000
0010
0100
0010
0100
,
0020
0000
0130
0001
0020
0000
0130
1000
,
0020
0000
0031
0010
1000
0100
0010
0100
,
2000
0000
3010
1000
0200
0000
0310
0001
,
0200
0000
1300
0100
0001
0010
0100
0010
,
0002
0000
0013
0001
2000
0000
3010
1000
,
0002
0000
0013
0001
1000
0010
0100
0010
,
0110
0000
1010
0000
0101
0000
0001
1000
,
0000
0011
0000
0010
2002
0000
0000
0000
,
3003
0000
0000
0000
;

//--------------- dance-single - ----------------
#NOTES:
     dance-single:
     :
     Challenge:
     17:
     0.436945,0.350027,0,0,0,348,348,0,0,0,0,0.436945,0.350027,0,0,0,348,348,0,0,0,0:
0000
0000
0000
0000
,
0000
0000
0000
0000
0000
0000
0000
0001
,
0101
0000
0001
0010
0110
0000
0100
1000
,
1100
0000
1000
0010
1001
0100
0100
0100
,
1001
0000
0010
0100
0101
0000
0100
0010
,
1010
0000
0100
0010
0110
1000
1000
1000
,
0110
0000
0010
1000
1100
0000
0010
0001
,
0101
0000
0010
0100
1010
0001
0001
0001
,
1010
0000
0110
0000
1001
0000
1100
0101
,
0000
0000
1001
0000
0000
0000
0110
0000
0001
0100
0010
0100
0010
1000
0100
0010
,
0001
0000
1000
0100
0010
0000
0200
0000
0000
0000
1300
0010
0100
0000
0020
0000
,
0000
0000
0130
0001
1000
0000
0001
0000
1000
0000
0100
0010
0100
0010
0001
0000
,
1100
0000
0011
0000
0001
0100
1000
0100
,
0010
0000
1000
0100
0010
0000
0001
0010
0100
0000
1000
0010
0100
0000
0001
0000
,
1010
0000
0010
1000
0100
0000
0020
0000
0000
0000
0031
0100
0010
0000
0200
0000
,
0000
0000
0310
1000
0100
0000
0010
0000
0001
0000
0100
0010
0100
0010
1000
0000
,
0101
0000
1010
0000
1000
0010
0001
0010
,
0100
0000
1000
0100
0010
0000
0100
0001
0010
0000
0001
0010
1000
0010
0100
1000
,
0010
0000
0100
0000
0001
0000
0010
0000
0100
0000
1000
0001
1000
0000
0001
0000
,
0010
0010
0100
0100
1000
1010
0000
0010
,
0101
0000
0100
0000
0001
0000
1000
0000
0001
0000
0010
0100
0010
0000
0001
1000
,
0010
0100
0010
0100
0001
0000
0010
0000
1100
0000
0101
0000
0000
0000
0001
0100
,
0001
0000
0100
0000
1000
0100
1000
0000
0100
0010
0100
0000
0001
0000
0010
1000
,
0010
0000
0100
0000
0010
0001
0010
0000
0100
0010
0100
0000
1000
0000
0010
0000
,
1010
0000
0000
0000
1100
0000
0000
0000
0101
0000
0010
1000
0010
0000
0100
0000
,
0011
0000
0000
0000
1100
0000
0000
0000
0011
0000
0010
0100
1000
0000
0010
0000
,
0110
0000
0100
0010
1000
0000
0010
0100
0001
0000
0100
0010
1000
0000
0100
0000
,
1000
0000
0100
0010
0001
0000
0010
0100
1000
0000
0100
0010
0001
0000
1000
0000
,
0001
0000
0100
0010
0100
0000
0001
0000
1000
0000
0100
0010
0100
0000
1000
0000
,
0001
0000
0100
0010
0100
0000
1000
0000
0001
0010
0100
0001
1000
0000
0100
0000
,
0110
0000
0010
0000
0100
0000
0010
0000
0001
1000
0001
0000
0100
0000
0010
0000
,
0110
0000
0010
0000
0100
0000
0010
0000
1000
0001
1000
0000
0100
0000
0010
0000
,
0110
0100
0010
0100
0110
0010
0100
0010
,
1001
0000
0000
0000
0000
0000
0000
0000
0000
0000
0000
0000
1100
0000
0000
0000
0000
0000
0000
0000
0000
0000
0000
0000
0101
0000
0000
0000
0000
0000
0001
0000
0000
0000
0000
0000
1000
0000
0000
0100
0000
0000
0010
0000
0001
0000
1000
0000
,
0100
0000
0010
0001
1000
0000
0100
0000
0010
0001
0010
0001
1000
0100
1000
0100
,
0010
0000
0001
0100
0010
0000
0100
0000
0001
0100
0010
0000
0100
0000
0001
0000
,
1000
0000
0100
0010
0100
0000
1000
0000
0001
0000
1000
0100
1000
0000
0010
1000
,
0010
0000
0100
0001
0100
0000
0001
0010
0001
0000
0100
0010
0100
0000
0010
0000
,
1001
0000
0110
0000
1001
0000
0010
1000
,
0100
0000
0001
0000
0100
0000
0001
0000
0100
0000
1000
0000
0010
0000
0100
0001
,
0100
0000
1000
0100
1000
0000
0100
0001
0010
0000
0100
0000
1100
0000
1000
0100
,
0010
0100
1000
0010
0100
0010
1000
0100
0010
0100
0010
0100
1000
0010
0100
0010
,
0001
0010
1000
0000
1100
0010
0011
1001
,
0100
0000
0101
0010
1010
1001
0100
0001
,
0110
0100
1100
1001
0000
0101
1001
0000
,
1001
0000
1000
0000
0001
0100
0010
1000
0001
0100
0010
1000
0001
1000
0100
0010
,
0002
0000
0000
0000
1003
0000
0001
0000
0010
0100
1000
0001
0010
0100
1000
0100
,
0010
0000
0010
0001
0100
0000
1000
0000
0001
0010
1000
0000
1010
0000
0000
0000
,
1010
0000
0010
1000
0100
0000
0001
0000
1000
0010
0001
0000
0011
0000
0000
0000
,
0011
0000
0010
0001
0100
0000
1000
0000
0001
0010
0100
0001
0010
0100
1000
0000
,
1100
0000
0011
0000
1001
0000
0100
0010
,
0110
0000
0100
0001
0010
0000
1000
0000
0001
0000
0100
1000
0010
0000
0001
0000
,
1000
0000
0100
0001
0010
0000
1000
0000
0001
0000
0100
1000
0010
0000
0100
0000
,
0001
0100
0010
0100
0010
0100
0010
1000
0100
0010
0100
0010
0100
0010
1001
0000
,
0000
0000
1001
0000
1000
0000
0001
0010
0001
0000
1000
0100
1000
0100
0010
0001
,
1000
0000
0010
0000
0100
0001
0010
0000
0011
0000
0110
0000
1100
0000
0000
0000
,
0001
0000
0010
0000
0100
1000
0010
0000
1010
0000
0110
0000
0101
0000
0000
0000
,
0001
0000
0010
0100
0010
0000
1000
0000
0001
0000
0100
0000
1000
0000
0001
0000
,
0110
0000
0000
0000
1001
0000
0000
0000
0110
0000
0000
0000
0100
0010
0100
0010
,
0100
0001
1000
0010
0001
0010
1000
0001
,
0100
1000
0100
0001
0000
1000
0100
0010
,
0001
0100
0010
1000
0001
0100
0010
1000
1010
0000
0000
0000
0101
0000
0000
0000
,
1000
0100
0010
0001
1000
0100
0010
0001
0011
0000
0000
0000
1100
0000
0000
0000
,
0001
0000
1000
0100
0001
0000
0001
0100
1000
0000
1000
0010
0001
0000
0001
0010
,
1000
0000
1000
0010
0100
0010
0100
0001
0010
0100
0010
0100
1000
0001
0010
0100
,
1000
0000
0100
0000
1000
0000
0100
0000
0010
0000
0001
0010
0100
0000
1000
0000
,
0001
0000
0100
0000
0001
0000
0100
0000
0010
0000
1000
0010
0100
0000
0001
0000
,
0100
0010
1001
0100
0010
0100
1001
0100
,
0110
0000
1010
0000
0101
0000
1100
1001
,
0101
0000
1001
0000
0001
0000
0100
0000
0010
0000
1000
0010
0100
0000
0001
0000
,
1000
0000
0100
0000
1000
0000
0100
0000
0010
0000
0001
0010
0100
0000
1000
0000
,
0100
0010
1001
0100
0010
0100
1001
0100
,
0110
0000
0011
1100
0000
1001
0110
1001
,
0000
0000
1001
0000
0010
0000
0100
0000
0010
0000
0100
0001
0010
0000
0100
0000
,
0010
0100
0011
0100
1010
0100
0011
0100
,
0010
0100
1001
0100
0010
0100
1001
0100
,
0110
0000
1010
0000
0101
0000
1100
1001
,
0101
0000
1001
0000
0001
0000
1000
0000
0001
0000
1000
0100
0001
0000
1000
0000
,
0001
0000
1000
0000
0001
0100
1000
0000
0001
0100
1000
0100
0001
0100
1000
0000
,
0001
0000
1000
0000
1001
0000
1000
0100
0001
0000
1000
0000
1001
0000
0001
0000
,
1001
0000
1001
0000
1001
0000
1001
0000
1001
0000
1000
0001
1000
0001
1000
0000
,
1100
0000
1000
0010
0110
0000
0100
0001
,
0101
0000
0001
0010
1001
0100
0100
0100
,
1001
0000
0010
0100
1100
0000
0100
0010
,
0011
0000
0100
0010
0110
0001
0001
0001
,
0110
0000
0010
0001
0101
0000
0010
1000
,
1100
0000
0010
0100
0011
1000
1000
1000
,
0011
0000
0110
0000
1001
0000
0101
1100
,
0000
1001
0000
0110
2002
0000
0000
0000
,
3003
0000
0000
0000
;
