#TITLE:勘冴えて悔しいわ;
#SUBTITLE:;
#ARTIST:ずっと真夜中でいいのに。;
#TITLETRANSLIT:Kan Saete Kuyashiiwa;
#SUBTITLETRANSLIT:;
#ARTISTTRANSLIT:Zutto Mayonaka de Iinoni;
#GENRE:POP;
#CREDIT:;
#MUSIC:Kan Saete Kuyashiiwa.ogg;
#BANNER:Kan Saete Kuyashiiwa.png;
#BACKGROUND:Kan Saete Kuyashiiwa-bg.png;
#CDTITLE:;
#SAMPLESTART:58.815;
#SAMPLELENGTH:13.200;
#SELECTABLE:YES;
#OFFSET:-0.045;
#BPMS:0.000=150.000;
#STOPS:;
#BGCHANGES:2.750=Kan Saete Kuyashiiwa.avi=1.000=0=0=0=StretchNoLoop====,
99999.000=-nosongbg-=1.000=0=0=0=StretchNoLoop====
;
#FGCHANGES:;

//--------------- dance-single - ----------------
#NOTES:
     dance-single:
     :
     Hard:
     12:
     0.619173,0.604907,0.606055,0.330575,0.119374,472,406,66,36,0,0,0.619173,0.604907,0.606055,0.330575,0.119374,472,406,66,36,0,0:
0000
0000
0000
0000
,
0200
0000
0000
0000
0000
0000
0300
0000
1100
0000
0000
0101
0000
0000
2002
0000
,
0000
0000
0000
0000
0000
0000
3003
0000
1010
0000
0000
0101
0000
0000
0001
0000
,
1001
0000
0000
0000
0000
0000
0000
0000
0011
0000
0000
1100
0000
0000
1000
0000
,
0001
0000
1000
0000
0001
0100
0000
0001
0100
0000
0001
1000
0100
0000
0010
0000
,
0100
0000
1000
0000
0001
0000
0000
0000
2000
0000
0000
0001
0000
0000
0010
0000
,
0000
3001
0100
0001
0010
0000
0010
0001
,
1000
0000
0001
0000
0002
0000
0000
0000
0100
0000
0000
1000
0000
0000
0203
0000
,
0000
0301
0100
0010
2000
0000
0001
3002
,
0000
0000
0010
0000
0023
0000
0000
0000
0100
0000
0000
0001
0000
0000
0230
0000
,
0000
1300
0010
0100
0002
0000
0100
0020
,
0003
1000
0130
0002
0000
0010
1000
0203
,
0000
0000
0010
0000
0010
0000
0001
0000
0301
0000
0000
1010
0000
0000
0101
0000
,
0101
0000
0001
0000
0100
0000
0010
0000
2000
0000
0000
0001
0000
0000
3002
0000
,
0000
0000
1003
0000
0010
0000
0100
0000
0020
0000
0000
1000
0000
0000
0230
0000
,
0000
0310
1000
0100
1000
0001
0100
0001
,
0010
0100
1000
1000
0010
1010
0000
0101
,
0000
0000
0001
0000
1000
0000
0020
0000
1000
0000
0000
0100
0000
0000
2030
0000
,
0000
0000
3001
0000
0010
0000
0100
0000
0020
0000
0000
0001
0000
0000
0230
0000
,
0000
1300
0001
0010
0100
0001
0100
1000
,
0100
1000
0001
0100
0001
1000
0010
0100
,
0001
0000
0100
0000
0100
0000
1000
0000
0100
0000
0000
1010
0000
0000
0101
0000
,
0000
0000
1000
0000
0100
0000
0100
0000
0001
0000
0000
0011
0000
0000
1100
0000
,
0000
0001
0100
0100
1000
0001
1000
0100
,
0100
0001
0100
1000
0100
0110
0000
1001
,
0000
0000
1000
0000
0010
0000
0010
0000
0001
0000
0000
0101
0000
0000
1010
0000
,
0000
0000
0001
0000
0010
0000
0010
0000
1000
0000
0000
1100
0000
0000
0011
0000
,
0000
0001
0100
1000
0100
0001
0010
0100
,
2000
3002
2003
3002
,
0013
0001
0100
0000
0010
1000
0100
0000
,
0010
0000
0001
0000
0100
0000
0010
0000
0110
0000
0000
1010
0000
0000
0101
0000
,
0000
0001
0100
0001
0001
1000
0010
1000
,
1000
0000
1001
0000
0110
1000
0001
0000
,
0011
0101
1100
1010
,
0010
0000
0100
0000
0010
0000
0100
0000
1010
0000
0000
1010
0000
0000
1001
0000
,
0000
0000
1001
0000
0000
1000
0100
0010
,
2002
0000
3003
1100
,
1000
0000
0100
0000
0010
0000
0100
0000
2000
0000
0000
0001
0000
0000
3002
0000
,
0000
0100
0013
0110
1010
0000
1001
0000
,
1000
0000
1000
0010
0000
0100
0000
0001
0000
1000
0100
0000
0010
0000
0001
0000
,
0010
0100
0010
0001
1000
0000
1001
0000
,
0001
0000
0100
0000
0001
0000
0100
0000
1010
0000
0000
0101
0000
0000
1010
0000
,
0000
1000
0100
0010
0011
0000
0001
0010
,
0100
0100
0011
0000
0011
0100
0100
1000
,
0001
1000
0001
1000
0001
1000
0010
0000
,
1000
0010
0001
0010
1000
0100
0001
0100
,
1000
0010
0100
0001
1001
0000
0100
1000
,
0010
0010
0001
0100
0100
1000
0010
0010
,
0001
1000
0002
0000
1003
0000
1001
0000
,
0001
0100
1000
0100
0001
0010
1000
0010
,
0001
1000
0020
0000
0100
0000
0130
0001
,
1000
0001
0100
0010
1000
0000
1000
0001
,
0011
0000
0001
1000
1010
0100
0001
0020
,
0000
0100
0100
0130
0110
1000
0001
1000
,
0000
1000
0200
0000
0001
0000
1300
0000
,
1000
0001
0100
0001
1000
1000
0001
0001
,
0011
0000
0001
0010
0100
0000
0100
1000
,
0000
1000
0010
0100
0001
0010
0100
1000
,
0000
0001
1000
0000
1010
0000
1100
0000
,
0010
0001
0100
1000
0100
0001
1000
0100
,
0011
0000
1010
0000
0011
0000
0001
0010
,
0001
1000
0100
1000
0001
0100
0010
0020
,
0000
1000
2030
0000
0001
0000
3001
0010
,
0100
0110
0010
0110
0100
1000
0001
1000
,
1100
0101
0011
1010
,
0010
0100
0010
0100
0010
0100
0010
1001
;

//--------------- dance-single - ----------------
#NOTES:
     dance-single:
     :
     Challenge:
     15:
     0.83431,0.907361,0.560142,0.321393,0.757569,636,575,61,35,0,0,0.83431,0.907361,0.560142,0.321393,0.757569,636,575,61,35,0,0:
0000
0000
0000
0000
0000
0000
0000
0000
0000
0000
0000
0000
0000
0000
0001
1000
,
0200
0000
0000
0000
0000
0000
0300
0000
0110
0000
0000
1001
0000
0000
0220
0000
,
0000
0000
0000
0000
0000
0330
0000
0000
2010
0000
0000
0001
0000
0000
3100
0000
,
0110
0000
0000
0000
0000
0000
0000
0000
0012
0000
0000
1000
0000
0000
0103
0000
,
0001
0000
0100
0000
0010
0000
1000
0000
0000
0000
0000
0000
0001
0000
0000
0100
0000
0000
0000
0000
0000
0001
0000
0000
1000
0000
0000
0000
0000
0000
0100
0000
0000
1000
0000
0000
0010
0000
0000
0000
0000
0000
0100
0000
0001
0000
0010
0000
,
0100
0000
0010
0000
0100
0000
0010
0000
0200
0000
0000
1000
0000
0000
0001
0000
,
0000
0000
0301
0000
0100
0000
1000
0000
0001
0100
0000
0100
0010
0000
1000
0000
,
0002
0000
1000
0000
2003
0000
0000
0000
0100
0000
0000
0001
0000
0000
3010
0000
,
0100
0000
0001
0000
1000
0000
0001
0000
1000
0100
0000
0001
0100
0000
1000
0010
,
0200
0000
0010
0000
0320
0000
0000
0000
1000
0000
0000
0100
0000
0000
2030
0000
,
0000
0000
3200
0000
0320
0000
0032
0000
0103
0001
0000
0001
0010
0000
0200
0000
,
0000
1300
0001
2000
0000
3001
1000
0002
,
0000
0000
1003
0000
0001
0010
0001
0010
0100
0000
0000
0110
0000
0000
0110
0000
,
1001
0000
0001
0100
0001
1000
0100
2000
0001
0000
0000
0001
0000
0000
3002
0000
,
0000
0000
1003
0100
1000
0001
0100
0002
1000
0000
0000
1000
0000
0000
2003
0000
,
0000
0000
3100
0010
0001
0000
0001
0010
0100
0000
1000
0100
0010
0000
0001
0000
,
0100
0000
0010
0000
1000
0010
1000
0000
0101
0000
0000
1001
0000
0000
0011
0000
,
0000
0000
1000
0010
1000
0001
0010
0002
1000
0000
0000
1000
0000
0000
2003
0000
,
0000
0000
3001
0010
0001
1000
0010
2000
0001
0000
0000
0001
0000
0000
3002
0000
,
0000
0000
1003
0000
0100
1000
0010
0000
0100
0000
0001
0010
0100
0000
0001
0000
,
0100
0000
1000
0000
1000
0000
0001
0000
0001
0000
0010
0000
0100
1000
0100
0010
,
0001
0000
0001
0010
0100
1000
0010
0100
0001
0000
0000
1010
0000
0000
0101
0000
,
0001
0000
1000
0010
0100
0001
0010
0100
1000
0000
0001
0010
0000
0001
1000
0000
,
0000
0001
0100
0010
0100
0001
0010
0001
0100
0000
1000
0100
1000
0000
0100
0000
,
0001
0000
0010
0000
0100
0000
1000
0000
0100
0000
0010
0000
0000
0010
0001
0000
,
0000
0000
1000
0100
1000
0010
0100
0010
1000
0000
1000
0001
0000
0001
0100
0000
,
0000
0000
0100
0010
1000
0100
0010
0100
1000
0000
0000
0011
0000
0000
1100
0000
,
0000
0001
0010
0010
0100
0100
1000
0100
,
0020
0032
0203
2300
,
3001
0000
0010
0000
1000
0000
0000
0000
0001
0000
0100
0000
1000
0000
0001
0010
,
0100
1000
0100
0010
0001
0000
0001
0010
0100
0000
0000
1100
0000
0000
0011
0000
,
0000
0000
0001
0000
0010
0000
0001
0000
0001
0010
0100
0010
0001
0000
1000
0100
,
0010
0100
1000
0000
0001
0100
0000
0000
0110
0000
0000
1001
0000
0000
0110
0000
,
0000
0000
1000
0000
0001
0000
0100
0000
0010
1000
0010
0100
0001
0000
0001
0100
,
0010
0000
1001
0000
0001
0010
0100
0000
0001
0000
0100
1000
0000
0000
1001
0000
,
0001
0010
0001
0010
0100
0000
0000
0000
1000
0100
1000
0100
0010
0000
0001
0000
,
2002
0000
3003
0011
,
0001
0000
0100
0000
1000
0000
0100
0000
0001
0000
0001
0010
0000
1000
0010
0000
,
0001
0000
0101
0000
1010
0000
0101
0000
0100
0001
0010
0000
1001
0000
0000
0000
,
0001
0000
0001
0010
0000
1100
0000
1010
0000
0100
0001
0000
0010
0000
1000
0000
,
0010
0001
0010
1000
0001
0000
0110
0000
,
1001
0000
0100
0000
1001
0000
0010
0000
1001
0000
0001
0010
0000
1000
0010
0000
,
0000
0000
0001
0000
0100
0000
0010
0000
0010
1000
0000
1000
0001
0000
0001
0000
,
0010
0000
0010
0000
1100
0000
0000
0000
0011
0000
0001
0100
0010
0000
0100
0000
,
0001
0010
0100
0000
0010
0001
1000
0001
1000
0010
0100
0010
0100
0001
0100
0001
,
1000
0100
0010
0100
1000
0001
0100
0010
,
0100
0000
0001
0000
1000
0000
0001
0000
0001
0010
0000
0001
1000
0000
0001
0000
,
0010
0000
0010
0000
0100
0000
0100
0000
1000
0000
0100
0010
0000
0000
0010
0000
,
0001
0000
0100
0000
0002
0000
0000
0000
1000
1003
0000
0000
1001
0000
0001
0010
,
0100
0010
0100
1000
0001
1000
0001
0100
,
0010
1000
0020
0000
0100
0100
0130
0001
,
1000
0100
1000
0100
0010
0001
0010
0001
1000
0100
0010
0001
1000
0001
0010
0100
,
1000
0000
1100
0000
0001
0000
0101
0000
1000
0000
1001
0000
0001
0100
0010
1000
,
0002
0000
1000
0000
1000
0000
1003
0000
0010
1000
0000
0010
0100
0000
0001
0000
,
0100
0001
1000
0000
0100
0000
0010
0001
0100
0010
0000
0000
0100
0001
1000
0001
,
1000
0000
1000
0000
1000
0000
1000
0100
1000
0000
0001
0000
0001
0000
0001
0100
,
0001
0000
0000
0000
0001
0000
0010
0000
0100
1000
0000
0000
0100
0000
1000
0100
,
0010
0000
1001
0000
0000
0000
1001
0000
0001
1000
0000
0000
1010
0000
0100
0000
,
0001
0000
0010
0000
0100
0000
0001
0000
0100
1000
0000
0000
1010
0000
0100
0000
,
0001
0000
0100
0001
0100
0010
1000
0010
0100
0001
0000
0001
1000
0000
0100
0000
,
0010
0001
0100
0001
0010
0100
1000
0010
1000
0100
0010
0100
1000
0001
0100
0010
,
2000
0000
0001
0000
0001
0000
3001
0000
0001
0100
0000
1000
0100
0001
0010
0001
,
0100
0010
1000
0000
1000
0100
0000
0001
0100
1000
0000
1000
0001
0000
0001
0010
,
0100
0000
0110
0000
0100
1000
0100
1000
0001
0000
0011
0000
1100
0000
0011
0000
,
1100
0000
1010
1000
1001
0000
0011
0000
,
0110
0110
0110
0110
0110
0110
1100
0101
;
