#TITLE:神っぽいな;
#SUBTITLE:;
#ARTIST:ピノキオピー feat. 初音ミク;
#TITLETRANSLIT:Kamippoi na;
#SUBTITLETRANSLIT:;
#ARTISTTRANSLIT:PinocchioP;
#GENRE:POP;
#CREDIT:;
#MUSIC:Kamippoi na.ogg;
#BANNER:Kamippoi na.png;
#BACKGROUND:Kamippoi na-bg.png;
#CDTITLE:;
#SAMPLESTART:51.982;
#SAMPLELENGTH:13.941;
#SELECTABLE:YES;
#OFFSET:-0.021;
#BPMS:0.000=142.029;
#STOPS:;
#DISPLAYBPM:142.000;
#BGCHANGES:1.875=Kamippoi na.avi=1.000=0=0=0=StretchNoLoop====,
99999.000=-nosongbg-=1.000=0=0=0=StretchNoLoop====
;
#FGCHANGES:;

//--------------- dance-single - ----------------
#NOTES:
     dance-single:
     :
     Hard:
     14:
     0,0,0,0,0:
0000
0000
0000
0000
,
0000
0000
0000
0000
,
0000
0000
0000
0000
,
0000
0000
0000
0000
,
0000
0000
0000
0000
,
0001
0000
1000
0100
0000
0000
1000
0000
0001
0000
0100
0010
0000
0000
1000
0100
,
0010
0000
0000
0001
0000
0000
0200
0000
0000
1000
0000
0000
0010
0000
0301
0000
,
1000
0000
0001
0010
0000
0000
0100
0000
0010
0000
0001
1000
0000
0000
0010
0000
,
0100
0000
0000
0001
0000
0000
2000
0000
0000
0000
0001
0000
0001
0000
0000
0000
,
3100
0000
0010
0001
0000
0000
1000
0000
0001
0000
1000
0010
0000
0000
0100
0000
,
0001
0000
1000
0001
0000
0000
0020
0000
0000
0001
0000
0000
0100
0000
1030
0000
,
0010
0000
0001
1000
0000
0000
0001
0000
0100
0000
1000
0100
0000
0100
0001
0000
,
2001
0000
0000
0000
0000
0100
3100
0000
,
0100
0000
1000
0000
0001
0010
0000
0100
0000
0010
0000
1000
0010
0000
1001
0000
,
0000
0000
0001
0000
1000
0010
0000
0100
0000
0010
0000
0001
0010
0000
1001
0000
,
0000
0000
1000
0000
0100
0001
0000
0100
0000
1000
0000
0001
0100
0000
0110
0000
,
0000
1010
0000
0101
0000
0011
0000
1100
,
0000
0000
1000
0000
0001
0100
0000
0010
0000
0100
0000
1000
0100
0000
1001
0000
,
0000
0000
0001
0000
1000
0100
0000
0010
0000
0100
0000
0001
0100
0000
1001
0000
,
0000
0000
1000
0000
0010
0001
0000
0010
0000
1000
0000
0001
0010
0000
0110
0000
,
0200
0000
0000
0001
0000
0000
2300
0000
0000
0000
3001
0100
0010
0000
0000
0000
,
1001
0000
0100
0000
0010
0000
1001
0000
0100
0000
0010
0000
0001
0010
0100
0000
,
1001
0010
0100
1001
0010
0100
1000
0100
,
0011
0101
1010
1100
,
0010
0001
0100
1000
0100
0001
0010
1000
,
0110
0000
0001
0000
1000
0000
0110
0000
0001
0000
1000
0000
0001
0010
0100
0000
,
0110
1000
0001
0110
1000
0001
0010
0100
,
1100
0000
0001
0100
0101
0000
0001
0010
,
0110
1001
0110
1001
,
0220
0000
0000
0000
,
0000
0000
0000
0000
0000
0330
0110
0100
,
1000
0000
0001
0010
0100
0000
1000
0000
0001
0000
0010
0000
1000
0000
0001
0000
,
0100
0000
1000
0001
0100
0000
0010
0000
1000
0000
0001
0000
1001
0000
0100
0000
,
0001
0000
0101
0000
1000
0000
1100
0000
0001
0000
0100
0010
0100
0000
0001
0000
,
1000
0000
0100
0000
0010
0000
0001
1000
0020
0000
0000
0000
0100
0000
0000
0000
,
1030
0000
1000
0010
0100
0000
0001
0000
1000
0000
0010
0000
0001
0000
1000
0000
,
0100
0000
0001
1000
0100
0000
0010
0000
0001
0000
1000
0000
1001
0000
0100
0000
,
1000
0000
1100
0000
0001
0000
0101
0000
1000
0000
0100
0010
0100
0000
1000
0000
,
0101
0000
0000
0000
1010
0000
0000
0000
1001
0000
0000
0000
0001
0010
0100
1000
,
0001
0100
0001
0100
0010
1000
0010
1000
0001
0010
0200
0000
1300
0000
0001
0100
,
0001
0000
1000
0010
1000
0001
0010
0001
0010
0100
1000
0100
1000
0000
0100
0000
,
0001
0100
2000
0001
3001
0100
0010
1000
,
0001
0000
0100
0000
0002
0000
1000
0000
1003
0000
0000
0000
1001
0000
0001
0100
,
0001
0000
0010
0000
0100
1000
0100
1000
0001
0100
0001
0100
0010
0000
1000
0010
,
1000
0010
0100
0010
0100
0001
0100
0001
1000
0001
0010
0001
0010
0000
0100
0000
,
2000
0000
0010
0000
3010
0000
0100
0000
0001
0000
1000
0000
0010
0000
0100
0001
,
0100
0000
1000
0100
1000
0000
0100
0010
1000
0001
1000
0001
1000
0000
1001
0000
,
0000
0000
0001
0000
1000
0010
0000
0100
0000
0010
0000
0001
0010
0000
1001
0000
,
0000
0000
1000
0000
0001
0010
0000
0100
0000
0010
0000
1000
0010
0000
1001
0000
,
0000
0000
0001
0000
0100
1000
0000
0100
0000
0001
0000
1000
0100
0000
0110
0000
,
0000
0011
0000
1100
0000
1010
0000
0101
,
0000
0000
0001
0000
1000
0100
0000
0010
0000
0100
0000
0001
0100
0000
1001
0000
,
0000
0000
1000
0000
0001
0100
0000
0010
0000
0100
0000
1000
0100
0000
1001
0000
,
0000
0000
0001
0000
0010
1000
0000
0010
0000
0001
0000
1000
0010
0000
0110
0000
,
0200
0000
0000
1000
0000
0000
0302
0000
0000
0000
1003
0100
0010
0000
0000
0000
,
1000
0000
0001
0100
0000
0000
0001
0000
1000
0000
0100
0010
0000
0000
0001
0100
,
0010
0000
0000
1000
0000
0000
0200
0000
0000
0001
0000
0000
0010
0000
1300
0000
,
0001
0000
1000
0010
0000
0000
0100
0000
0010
0000
1000
0001
0000
0000
0010
0000
,
0100
0000
0000
1000
0000
0000
0002
0000
0000
0000
1000
0000
1000
0000
0000
0000
,
0103
0000
0010
1000
0000
0000
0001
0000
1000
0000
0001
0010
0000
0000
0100
0000
,
1000
0000
0001
1000
0000
0000
0020
0000
0000
1000
0000
0000
0100
0000
0031
0000
,
0010
0000
1000
0001
0000
0000
1000
0000
0100
0000
0001
0100
0000
0100
1000
0000
,
1002
0000
0000
0000
0000
0100
0103
0000
;

//--------------- dance-single - ----------------
#NOTES:
     dance-single:
     :
     Challenge:
     17:
     0.969762,1.072164,0.960526,0.083122,1.186804,735,631,104,9,0,0,0.969762,1.072164,0.960526,0.083122,1.186804,735,631,104,9,0,0:
0000
0000
0000
0000
,
0000
0000
0000
0000
,
0000
0000
0000
0000
,
0000
0000
0000
0000
,
0000
0000
0000
0000
,
1001
0000
0001
0100
0000
0100
0010
0000
1010
0000
1000
0100
0000
0100
0010
0001
,
0100
0000
1000
0100
0000
0100
0001
0000
0011
0000
0010
0001
0100
0000
1000
0000
,
1100
0000
0100
0010
0000
0010
1000
0000
1100
0000
0100
0010
0000
0010
0001
0000
,
1001
0000
1000
0100
0000
0001
0100
0000
0100
1000
0010
0100
0010
0000
0100
0000
,
0110
0000
0100
0001
0000
0001
1000
0000
1100
0000
0100
0010
0000
0010
0001
0000
,
0011
0000
0010
1000
0000
0010
0001
0000
1001
0000
0001
0100
0010
0000
0100
0000
,
0110
0000
0010
1000
0000
1000
0001
0000
0011
0000
0010
0001
0000
0001
1000
0000
,
0120
0000
0000
0000
0000
0100
0130
0000
,
0110
0000
0000
0000
0000
0000
1000
0000
0000
0000
0000
0000
0001
0000
0000
0100
0000
0000
0000
0000
0000
1010
0000
0000
0000
0000
0000
0101
0000
0000
0000
0000
0000
0100
0000
0000
0001
0000
0000
0000
0000
0000
0001
0000
0010
0000
0100
0000
,
1000
0000
0000
0000
0000
0000
0001
0000
0000
0000
0000
0000
1000
0000
0000
0100
0000
0000
0000
0000
0000
0011
0000
0000
0000
0000
0000
1100
0000
0000
0000
0000
0000
0100
0000
0000
1000
0000
0000
0000
0000
0000
1000
0000
0010
0000
0100
0000
,
0001
0000
0000
0000
0000
0000
1000
0000
0000
0000
0000
0000
0100
0000
0000
0001
0000
0000
0000
0000
0000
0101
0000
0000
0000
0000
0000
1100
0000
0000
0000
0000
0000
1000
0000
0000
0010
0000
0000
0000
0000
0000
0100
0000
0001
0000
0010
0000
,
0100
0000
0000
0110
0000
0000
0000
0000
0000
1001
0000
0000
0000
0000
0000
0110
0000
0000
0000
0000
0000
1000
0100
0010
,
0001
0000
0000
0000
0000
0000
1000
0000
0000
0000
0000
0000
0001
0000
0000
0010
0000
0000
0000
0000
0000
1100
0000
0000
0000
0000
0000
0011
0000
0000
0000
0000
0000
0010
0000
0000
0001
0000
0000
0000
0000
0000
0001
0000
0100
0000
0010
0000
,
1000
0000
0000
0000
0000
0000
0001
0000
0000
0000
0000
0000
1000
0000
0000
0010
0000
0000
0000
0000
0000
0101
0000
0000
0000
0000
0000
1010
0000
0000
0000
0000
0000
0010
0000
0000
1000
0000
0000
0000
0000
0000
1000
0000
0100
0000
0010
0000
,
0001
0000
0000
0000
0000
0000
1000
0000
0000
0000
0000
0000
0010
0000
0000
0001
0000
0000
0000
0000
0000
0011
0000
0000
0000
0000
0000
1010
0000
0000
0000
0000
0000
1000
0000
0000
0100
0000
0000
0000
0000
0000
0010
0000
0001
0000
0100
0000
,
0020
0000
0000
1000
0000
0000
0032
0000
0000
0000
1003
0100
0001
0000
0000
0000
,
0011
0000
0100
0000
1000
0000
0011
0000
0100
0000
1000
0000
0001
0100
0010
0000
,
1010
0100
0001
1010
0100
0001
0010
0100
,
0110
0000
0010
0001
0010
0000
0010
1000
0010
0000
0010
0001
0010
0000
0010
1000
,
0010
0000
0010
0100
1000
0010
0100
0010
0001
0010
0100
0010
0100
1000
0100
0001
,
0101
0000
0010
0000
1000
0000
0101
0000
0010
0000
1000
0000
0001
0010
0100
0000
,
1100
0010
0001
1100
0010
0001
0010
0100
,
1000
0100
0010
0001
0010
0000
0101
0000
0001
0100
0010
1000
0010
0000
1010
0000
,
0110
0000
0100
0001
0100
0000
0100
1000
0100
0000
0100
0001
0100
0000
0100
1000
,
0200
0000
0000
0000
,
0010
0000
0000
0010
0010
0010
0010
0000
0010
0000
0000
0310
0110
0000
0100
0000
,
1001
0000
0000
0000
0000
0000
0001
0000
0000
0010
0000
0000
0100
0000
0000
0010
0000
0000
0001
0000
0000
0010
0000
0000
0100
0000
0000
1000
0000
0000
0010
0000
0000
0100
0000
0000
0010
0000
0000
1000
0000
0000
0010
0000
0100
0000
0001
0000
,
1000
0000
0000
0000
0000
0000
1000
0000
0000
0100
0000
0000
0010
0000
0000
0100
0000
0000
1000
0000
0000
0100
0000
0000
0010
0000
0000
0001
0000
0000
0100
0000
0000
0010
0000
0000
0200
0000
0000
0000
0000
0000
0301
0000
1000
0000
0100
0000
,
0010
0000
0000
0000
0000
0000
1001
0000
0000
0000
0000
0000
0010
0000
0000
0000
0000
0000
1001
0000
0000
0000
0000
0000
0100
0000
0000
0000
0000
0000
1001
0000
0000
0001
0000
0000
1000
0000
0000
0000
0000
0000
0001
0000
0100
0000
0010
0000
,
1000
0000
0000
0000
0000
0000
1100
0000
0000
0000
0000
0000
0010
0000
0000
0000
0000
0000
0101
0000
0000
0000
0000
0000
0001
0000
0000
1000
0000
0000
0001
0000
0010
0000
0100
0000
1000
0000
0100
0000
0010
0000
0001
0000
0010
0000
0100
0000
,
1000
0000
0000
0000
0000
0000
1000
0000
0000
0010
0000
0000
0100
0000
0000
0010
0000
0000
1000
0000
0000
0010
0000
0000
0100
0000
0000
0001
0000
0000
0010
0000
0000
0100
0000
0000
0010
0000
0000
0001
0000
0000
0010
0000
0100
0000
1000
0000
,
0001
0000
0000
0000
0000
0000
0001
0000
0000
0100
0000
0000
0010
0000
0000
0100
0000
0000
0001
0000
0000
0100
0000
0000
0010
0000
0000
1000
0000
0000
0100
0000
0000
0010
0000
0000
0200
0000
0000
0000
0000
0000
1300
0000
0001
0000
0100
0000
,
0010
0000
1001
0000
0100
0000
1001
0000
0010
0000
1001
1000
0001
0000
0100
0010
,
0110
0000
0000
0000
0110
0000
0000
0000
0110
0000
0000
0000
1000
0100
0010
0001
,
0100
0000
0001
0000
0100
0000
0010
0000
1000
0000
0010
0000
1000
0000
0100
0000
0010
0000
0100
0000
0001
0000
0100
0000
1000
0000
0001
0000
0100
0010
0100
0010
,
0100
0000
0010
0000
1000
0000
0010
0000
1000
0000
0001
0000
0010
0000
0001
0000
0010
0000
0100
0000
0010
0000
1000
0000
0010
0000
0001
0000
0100
0010
0100
0010
,
0100
0000
0000
0000
0000
0000
0001
0000
0000
0000
0000
0000
1010
0000
0000
0000
0000
0000
1000
0000
0000
0000
0000
0000
0011
0000
0000
0000
0000
0000
0100
0000
0000
0010
0000
0000
0110
0000
0000
0000
0000
0000
0001
0000
0010
0000
0100
0000
,
1000
0000
0000
0000
0000
0000
0100
0000
0000
0000
0000
0000
1001
0000
0000
0000
0000
0000
0010
0000
0000
0000
0000
0000
0001
0000
0000
1000
0000
0000
0010
0000
0000
0100
0000
0000
0001
0000
0100
0000
0010
0000
1000
0000
0010
0000
0100
0000
,
0001
0000
1000
0000
0100
0000
0010
0000
0001
0000
0010
0000
0001
0000
0100
0000
0010
0000
0100
0000
1000
0000
0100
0000
0001
0000
1000
0000
0100
0010
0100
0010
,
0100
0000
0010
0000
0001
0000
0010
0000
0001
0000
1000
0000
0010
0000
1000
0000
0010
0000
0100
0000
0010
0000
0001
0000
0010
0000
1000
0000
0100
0010
0100
0010
,
0100
0000
1000
0000
0011
0000
0001
0000
1010
0000
0100
0000
1001
0000
0100
0010
,
1001
0000
0000
0000
0000
0000
0100
0000
0000
0010
0000
0000
1001
0000
0000
0000
0000
0000
0100
0000
0000
0010
0000
0000
1001
0000
0000
1001
0000
0000
1001
0000
0000
1001
0000
0000
1001
0000
0000
0000
0000
0000
1000
0000
0100
0000
0010
0000
,
0001
0000
0000
0000
0000
0000
1100
0000
0000
0000
0000
0000
1000
0000
0000
0100
0000
0000
0000
0000
0000
0011
0000
0000
0000
0000
0000
1001
0000
0000
0000
0000
0000
1000
0000
0000
0010
0000
0000
0000
0000
0000
0010
0000
0100
0000
0001
0000
,
0010
0000
0000
0000
0000
0000
0011
0000
0000
0000
0000
0000
0001
0000
0000
0010
0000
0000
0000
0000
0000
1100
0000
0000
0000
0000
0000
1001
0000
0000
0000
0000
0000
0001
0000
0000
0100
0000
0000
0000
0000
0000
0100
0000
0010
0000
1000
0000
,
0100
0000
0000
0000
0000
0000
0110
0000
0000
0000
0000
0000
1000
0000
0000
0001
0000
0000
0000
0000
0000
0110
0000
0000
0000
0000
0000
1001
0000
0000
0000
0000
0000
0100
0000
0000
0010
0000
0000
0000
0000
0000
1000
0000
0001
0000
0010
0000
,
0100
1100
0010
0101
0100
0011
0100
1010
,
0010
0000
0000
0000
0000
0000
1001
0000
0000
0000
0000
0000
0001
0000
0000
0100
0000
0000
0000
0000
0000
1010
0000
0000
0000
0000
0000
1001
0000
0000
0000
0000
0000
0001
0000
0000
0010
0000
0000
0000
0000
0000
0010
0000
0100
0000
1000
0000
,
0010
0000
0000
0000
0000
0000
1010
0000
0000
0000
0000
0000
1000
0000
0000
0010
0000
0000
0000
0000
0000
0101
0000
0000
0000
0000
0000
1001
0000
0000
0000
0000
0000
1000
0000
0000
0100
0000
0000
0000
0000
0000
0100
0000
0010
0000
0001
0000
,
0100
0000
0000
0000
0000
0000
0110
0000
0000
0000
0000
0000
0001
0000
0000
1000
0000
0000
0000
0000
0000
0110
0000
0000
0000
0000
0000
1001
0000
0000
0000
0000
0000
0100
0000
0000
0010
0000
0000
0000
0000
0000
0001
0000
1000
0000
0100
0000
,
0020
0000
0000
0001
0000
0000
2030
0000
0000
0000
3001
0100
1000
0000
0000
0000
,
1001
0000
1000
0100
0000
0100
0010
0000
0011
0000
0001
0100
0000
0100
0010
1000
,
0100
0000
0001
0100
0000
0100
1000
0000
1010
0000
0010
1000
0100
0000
0001
0000
,
0101
0000
0100
0010
0000
0010
0001
0000
0101
0000
0100
0010
0000
0010
1000
0000
,
1001
0000
0001
0100
0000
1000
0100
0000
0100
0001
0010
1000
0010
0000
0100
0000
,
0110
0000
0100
1000
0000
1000
0001
0000
0101
0000
0100
0010
0000
0010
1000
0000
,
1010
0000
0010
0001
0000
0010
1000
0000
1001
0000
1000
0100
0001
0000
0100
0000
,
0110
0000
0010
0001
0000
0001
1000
0000
1010
0000
0010
1000
0000
1000
0001
0000
,
0120
0000
0000
1000
0000
0000
1000
0000
0000
0000
0031
0000
0110
0000
0000
0000
;
