#TITLE:革命道中;
#SUBTITLE:;
#ARTIST:アイナ・ジ・エンド;
#TITLETRANSLIT:Kakumei Douchuu;
#SUBTITLETRANSLIT:;
#ARTISTTRANSLIT:Aina the end;
#GENRE:ANIME;
#CREDIT:;
#MUSIC:Kakumei Douchuu.ogg;
#BANNER:Kakumei Douchuu.png;
#BACKGROUND:Kakumei Douchuu-bg.png;
#CDTITLE:;
#SAMPLESTART:71.525;
#SAMPLELENGTH:10.323;
#SELECTABLE:YES;
#OFFSET:2.030;
#BPMS:0.000=186.000;
#STOPS:;
#LASTBEATHINT:3.107294;
#BGCHANGES:6.250=Kakumei Douchuu.avi=1.000=0=0=0=StretchNoLoop====,
99999.000=-nosongbg-=1.000=0=0=0=StretchNoLoop====
;
#FGCHANGES:;

//--------------- dance-single - ----------------
#NOTES:
     dance-single:
     :
     Hard:
     13:
     0.704892,0.824442,0.498969,0.221764,0.016632,445,400,45,20,0,0,0.704892,0.824442,0.498969,0.221764,0.016632,445,400,45,20,0,0:
0000
0000
0000
0000
,
0000
0000
0000
0000
,
0000
0000
0000
0000
,
2000
0000
3001
0100
0000
0100
0001
0000
,
0001
1000
0000
1000
0100
0000
1100
0000
,
0002
0000
1003
0010
0000
0010
0100
0000
,
0100
0001
0000
0001
1000
0100
0010
0000
,
0110
0000
0001
1000
0000
0010
0000
0100
,
0000
0001
0010
0000
0011
0000
1100
0000
,
1001
0000
1000
0010
0000
0001
0010
0100
,
0000
0001
0000
1000
0001
0010
0100
1000
,
0001
0000
1000
0100
1000
0100
0001
0100
,
0000
1000
0001
1000
0001
0100
1000
0000
,
0100
0000
0001
0010
0000
1000
0010
0000
,
0001
0100
0010
1000
0001
0020
0000
0130
,
2000
0000
0000
3020
0000
0000
0230
0000
,
0000
0000
0000
0302
0000
0000
0000
0000
0000
1003
0000
0000
0100
0000
0000
0000
0010
0000
0000
0000
0000
0001
0000
0000
,
2010
0000
3010
0200
0000
0301
0000
0021
,
0000
0130
1000
0100
1000
0010
0001
0000
,
0020
0000
1030
0002
0000
2003
0000
3020
,
0000
0130
0001
0100
0001
0010
1000
0000
,
1010
0000
0001
1000
0000
0010
0100
0000
,
0001
0100
0100
0100
0010
0100
0110
0000
,
0001
0000
0000
1000
0001
0000
1001
0000
,
0000
1000
0010
0100
0001
1000
0100
0000
,
2100
0000
3001
0100
0000
0100
0010
0000
,
1000
0100
0001
0100
1000
0001
0100
1000
,
0100
0002
0000
0023
0000
0130
1000
0000
,
1100
0000
0101
0000
1000
0001
0110
0000
,
0102
0000
1003
0100
0000
0100
0010
0000
,
0001
0100
1000
0100
0001
1000
0100
0001
,
0100
0000
0100
1000
0000
1000
0001
0010
,
0011
0000
1010
0000
1001
0010
0100
0000
,
1001
0000
1000
0100
0010
0100
1000
0001
,
0000
1000
0010
0100
0010
1000
0001
0010
,
0100
0000
0100
1000
0001
0100
1000
0100
,
0101
0000
0011
1100
0000
1010
0101
0000
,
1001
0000
0001
1000
0010
0100
0001
1000
,
0000
0001
0010
0100
1000
0001
0100
0010
,
1000
0000
0001
0010
0000
0010
0100
1000
,
0001
0000
0001
0000
0001
1000
0001
1000
,
1001
0000
0001
0010
0000
0100
1000
0000
,
0011
0000
1100
0000
1000
0010
0100
0001
,
1000
0000
0001
0100
0000
1000
0100
0000
,
0101
0000
1010
0000
0001
0010
0100
1000
,
0001
0020
0230
2300
,
3020
0230
0302
0023
,
0000
0230
2300
3002
,
0103
1000
0100
0001
1000
0010
0001
0010
,
0110
0000
0010
0100
0001
1000
0001
1000
,
0110
0000
0010
0100
1000
0001
1000
0001
,
0110
0000
0100
0001
0010
1000
0001
0100
,
0000
0100
1000
0001
0100
1000
0100
0000
,
0101
0000
0002
0023
2030
3002
0203
2300
,
3002
0203
0000
2300
3200
0302
0023
2030
,
3002
0000
0203
0000
,
2300
3020
0230
0302
,
1003
0100
0010
0100
1000
0001
0100
1000
,
0100
0001
0010
0100
1100
0000
0011
0000
,
1010
1000
0010
0001
1000
0100
0001
0010
,
1000
0001
0100
1000
0010
0100
0110
0000
,
1001
0000
0001
0100
0000
0010
0000
1010
,
0000
0101
0000
0001
0010
0000
1100
0000
,
0101
1000
0001
0101
1000
0001
1100
0001
,
1000
1100
0001
1000
0010
0100
0010
0100
,
0001
0000
1000
0100
0000
0100
1000
0001
,
0100
1000
0100
0010
1000
0100
0110
0000
,
0011
0000
0010
0100
0000
0100
1000
0001
,
0100
0101
0000
0001
1000
0010
0100
0001
,
1010
0001
1000
1010
0001
1000
0011
1000
,
0001
0000
0000
0000
0000
0000
0011
0000
0000
0000
0000
0000
1000
0000
0000
0000
0000
0000
0100
0000
0000
0000
0000
0000
0010
0000
0000
0000
0000
0000
0000
0000
0001
0000
0000
0000
0000
0000
0000
1000
0000
0000
0000
0000
0000
0000
0000
0000
;

//--------------- dance-single - ----------------
#NOTES:
     dance-single:
     :
     Challenge:
     17:
     1.043875,1.099256,0.898144,0.310469,0.532233,659,578,81,28,0,0,1.043875,1.099256,0.898144,0.310469,0.532233,659,578,81,28,0,0:
0000
0000
0000
0000
,
0000
0000
0000
0000
,
0000
0000
0000
0000
,
2001
0000
3010
0100
0001
1000
0100
0102
,
0000
0103
1000
0010
1010
0000
0101
0000
,
1002
0000
0103
0010
1000
0001
0100
2100
,
0000
3100
0001
0010
0100
1000
0001
0100
,
0120
0000
1030
0001
0010
0100
1000
0120
,
0000
1030
0001
0010
0011
0000
1100
0000
,
1010
0010
0100
0101
0001
1000
1100
0100
,
2000
0001
0010
3100
1000
0001
1000
0001
,
0100
0000
0010
0100
0001
0100
0010
0000
1000
0100
0010
0100
1000
0000
0001
0000
,
0100
0000
0010
0100
0001
0010
0100
0000
1000
0000
0001
0100
1000
0000
0100
0000
,
0001
0010
0100
0010
0001
0000
1000
0010
0100
0010
1000
0000
0010
0000
0100
0000
,
0001
0000
1000
0100
0001
0000
0100
0000
1000
0000
1020
0000
0000
0000
0130
0000
,
0002
0000
0000
0023
0000
0000
0230
0000
,
0000
0000
0000
2300
0000
0000
0000
0000
0000
3001
0000
0000
0010
0000
0000
0000
0100
0000
0000
0000
0000
1000
0000
0000
,
2100
0000
3020
0230
0001
0010
0301
1002
,
0000
0000
1003
0000
0010
0000
0100
0000
0001
0010
1000
0010
0001
0000
0000
0000
,
0210
0000
1300
0010
1000
0010
0100
0101
,
0000
0000
0001
0000
0010
0000
0100
0000
1000
0010
0001
0010
1000
0000
0000
0000
,
2010
0100
3100
0012
0100
0103
2010
0100
,
3100
1001
0100
0100
1001
1001
0110
0000
,
0001
0000
0000
0000
0000
0000
1000
0000
0001
0010
0100
0000
0110
0000
1000
0000
,
0000
0000
1000
0001
0100
0000
0010
0000
0100
0000
0001
0000
0010
0000
0100
0000
,
1200
0000
1300
0001
0100
0110
0001
0010
,
0100
1000
0001
1000
0010
0101
0010
1100
,
1001
0010
0100
0010
0100
1001
0010
0100
,
1100
0000
0101
0000
0110
0110
1001
0000
,
0101
0000
0001
1000
0100
1010
0001
1000
,
0001
0100
0010
0100
0001
0110
0001
1100
,
0101
1000
0010
0100
0001
0110
0001
1000
,
0101
0000
1100
0000
1001
0010
0100
0000
,
0001
0000
1000
0000
0001
0100
0010
0100
0001
0010
1000
0000
0010
0000
0100
0000
,
1000
0001
0100
0000
1000
0000
0100
0010
1000
0100
0010
0000
0001
0000
1000
0000
,
0001
0010
1000
0010
0100
0000
0010
0001
1000
0010
0100
0000
0001
0000
1000
0000
,
1100
0000
0101
0101
0000
0011
1100
0000
,
1000
0100
1000
0100
0001
0000
1000
0001
0100
1000
0001
0000
1000
0000
0001
0100
,
0001
0100
1000
0000
0100
0000
0001
1000
0100
0001
1000
0000
0010
0000
0001
1000
,
0010
0000
0001
0010
1000
0100
0010
0001
1000
0000
0001
0000
1000
0010
0100
0000
,
0001
0000
1000
0100
0010
0001
0100
0010
0100
0010
0100
0010
1000
0100
0010
0001
,
1000
0100
1000
0001
0100
1000
0100
0001
,
0010
0000
0010
0000
0010
0100
1000
1000
,
0010
0100
0001
0010
0100
1000
0010
0100
,
0001
0000
0001
0000
0001
1000
0100
0010
,
0001
0000
0000
0000
0000
0000
1000
0000
0000
0000
0000
0000
0001
0000
0100
0000
0001
0000
0100
0000
0000
0000
0000
0000
0010
0000
0000
0000
0000
0000
1000
0000
0000
0000
0000
0000
0001
0000
0000
0010
0000
0000
0100
0000
0000
0000
0000
0000
,
1000
0001
0100
0010
1000
0001
1000
0100
,
0010
0000
0000
0001
0000
0000
1000
0000
0000
0010
0100
0010
0100
0000
0000
0001
0000
0000
1000
0000
0000
0100
0000
0000
,
0010
0000
0000
0001
0000
0000
1000
0100
1000
0100
0000
0000
0010
0000
0000
0001
0000
0000
1000
0000
0000
0010
0000
0000
,
1010
0000
0101
2010
0001
0100
0001
3100
,
0011
0000
1100
0012
1000
0100
1000
0103
,
1010
1000
0001
0011
0010
0100
1100
1000
,
0101
0001
1000
1100
0100
0010
0110
0000
,
0120
0031
1000
0102
0013
0001
1200
0310
,
1001
0110
0000
1100
0001
1000
0010
0100
,
0020
0000
0230
0000
,
0301
0000
0000
0000
0000
0000
0010
0000
0000
0000
0000
0000
0100
0000
0000
0000
0000
0000
1000
0000
0000
0001
0000
0000
1000
0000
0000
0001
0000
0000
1000
0000
0100
0000
0010
0000
0001
0000
0000
0000
0000
0000
0100
0000
0000
0010
0000
0000
,
0100
0000
0001
0000
0101
0000
0100
0001
0010
0100
0001
0000
0101
0000
0100
1000
,
0010
0100
1000
0000
1100
0000
0100
0010
1000
0001
0010
0000
0100
1000
0010
0000
,
0100
0000
0001
0000
0011
0000
0010
0001
0100
0010
0001
0000
0011
0000
0010
1000
,
0100
0010
1000
0000
1010
0000
0010
0000
0001
0010
0100
1000
1001
0000
0000
0000
,
1001
0000
0001
0100
1000
0000
0100
0001
1000
0000
0001
0010
0100
0000
0110
0000
,
0000
0000
1001
0000
1000
0000
0100
0000
1000
0010
0100
0000
0001
0010
0100
0000
,
1100
0000
1000
0010
0100
0000
0101
0000
0001
0010
0100
0000
1100
0000
1000
0010
,
0100
0101
0001
1000
0001
0100
0010
1000
,
1001
0000
0001
0100
1000
0100
0010
0000
0100
0001
1000
0000
0001
0010
1000
0010
,
0100
0000
0010
0001
1000
0000
0001
0100
1000
0000
0001
0010
1000
0000
0001
0000
,
1000
0100
0001
0000
1001
0000
1000
0010
0001
0000
1001
0000
1000
0010
0001
0000
,
1001
0000
1000
0100
0001
0000
1000
0000
0100
0000
0010
0000
1001
0000
0000
0000
,
0012
0100
0103
2010
0100
3100
0012
0100
,
0103
0000
0000
0000
0000
0000
1001
0000
0000
0000
0000
0000
1000
0000
0000
0010
0000
0000
0001
0000
0000
1000
0000
0000
0100
0000
0000
0000
0000
0000
0000
0000
0001
0000
0000
0000
0000
0000
0000
1001
0000
0000
0000
0000
0000
0000
0000
0000
;
