#TITLE:快眠!安眠!スヤリスト生活;
#SUBTITLE:;
#ARTIST:スヤリス姫;
#TITLETRANSLIT:Kaimin! Anmin! Suyarisuto Seikatsu;
#SUBTITLETRANSLIT:;
#ARTISTTRANSLIT:Suyarisu Hime;
#GENRE:ANIME;
#CREDIT:;
#MUSIC:Kaimin! Anmin! Suyarisuto Seikatsu.ogg;
#BANNER:Kaimin! Anmin! Suyarisuto Seikatsu.png;
#BACKGROUND:Kaimin! Anmin! Suyarisuto Seikatsu-bg.png;
#CDTITLE:;
#SAMPLESTART:55.548;
#SAMPLELENGTH:13.617;
#SELECTABLE:YES;
#OFFSET:0.401;
#BPMS:0.000=141.000;
#STOPS:104.000=0.213
,104.500=0.213
,105.000=0.213
,105.500=0.213
;
#BGCHANGES:0.500=Kaimin! Anmin! Suyarisuto Seikatsu.avi=1.000=0=0=0=StretchNoLoop====,
99999.000=-nosongbg-=1.000=0=0=0=StretchNoLoop====
;
#FGCHANGES:;

//--------------- dance-single - ----------------
#NOTES:
     dance-single:
     :
     Hard:
     12:
     0.574163,0.630489,0.466309,0.410796,0.160988,362,320,42,37,0,0,0.574163,0.630489,0.466309,0.410796,0.160988,362,320,42,37,0,0:
0000
0000
0000
0000
,
0000
0000
0000
0000
,
0000
0000
0000
0000
0000
0000
0000
1001
,
0000
0000
1000
0000
0010
0000
0100
0000
0010
0000
0000
0110
0000
0000
1001
0000
,
0000
0000
0001
0000
0010
0000
0100
0000
0010
0000
0000
0110
0000
0000
1001
0000
,
0000
1000
0010
1000
0010
0100
0001
0010
,
0001
1001
0011
1100
,
1000
0100
0010
0001
1000
0010
0100
0001
,
1000
0000
1000
0010
0100
0001
1001
0000
,
2002
0000
0000
0000
3003
0010
0100
0010
,
0200
0001
1000
0001
,
0310
0000
0001
0100
0001
0000
0010
0000
0100
1000
0100
0000
1000
0000
0000
0000
,
0001
0000
1000
0100
1000
0000
0010
0000
0100
0001
0100
0000
0001
0000
0000
0000
,
0001
0000
1000
0010
1000
0000
0100
0000
0010
0001
0010
0000
0001
0000
0000
0000
,
1000
0000
0001
0010
0001
0000
0100
0000
0010
1000
0010
0000
1000
0000
0000
0000
,
1001
0000
1000
0010
0100
0000
0001
0100
,
0100
1000
0100
0100
0001
0000
1001
0000
,
0011
0000
0010
0100
1000
0000
1000
0001
,
1000
0000
0001
1000
0001
0000
1001
0000
,
1000
0100
0010
0001
1000
0010
0100
0001
,
1000
0001
1000
0001
0100
0010
1000
0100
,
0010
0100
1000
0001
0100
0010
0100
0001
,
0020
0230
2300
3200
0320
0030
1001
0000
,
0002
0000
0000
0203
0000
0000
0320
0000
2030
0000
3100
1000
0000
0100
1000
0000
,
2000
0000
0000
3020
0000
0000
0230
0000
0302
0000
0103
0001
0000
0100
0001
0000
,
2000
0000
0000
3002
0000
0000
0023
0000
0130
0000
1000
0000
0100
0000
1000
0000
,
0002
0003
2000
3000
0002
0003
2000
3000
1001
0000
0000
1001
0000
0000
0001
0000
,
0020
0000
0100
0000
0130
0000
0000
0000
1001
0000
0000
1001
0000
0000
0100
0000
,
0020
0100
0130
0000
0001
0100
1000
0100
,
0001
0010
1000
0010
0001
0010
0001
0010
,
0100
1000
0100
1000
2001
0000
3002
0000
,
0023
0230
2300
3200
,
0320
0000
0130
1001
0000
1000
0010
1000
,
1010
0000
0000
0101
0000
0000
1001
0000
0000
0000
0001
0000
0010
0000
0001
0000
,
0011
0000
0000
1100
0000
0000
1001
0000
0000
0000
1000
0000
0010
0000
1000
0000
,
0100
1000
0010
0100
0002
0000
1000
0000
,
0100
0000
1003
0001
0010
0100
1000
0001
,
0010
0100
1000
0100
1000
0010
0100
0001
,
1000
0000
0010
0000
0100
0000
0001
0000
1001
0000
0000
0100
0000
0000
0001
0000
,
1010
0000
0000
0001
0000
0000
0100
0000
1010
0000
0000
0000
0110
0000
0000
0000
,
1001
0000
0010
1001
0000
0001
0100
0010
,
1000
0000
0000
1010
0000
0000
1001
0000
0000
0000
1000
0000
0100
0000
0010
0000
,
0001
0000
0000
0011
0000
0000
1001
0000
0000
0000
0001
0000
1000
0000
0100
0000
,
0010
0001
1000
0001
0200
0000
1000
0000
,
0001
0000
0310
0100
0001
0100
0010
1000
,
0001
0100
0010
1000
0100
0010
0001
1000
,
0100
0010
0001
1000
0002
0000
1000
0000
,
1003
0001
1000
0001
1000
0000
1010
0000
,
0101
0000
0000
0000
0011
0000
0000
0000
1100
0000
1000
0100
1000
0000
0100
0000
,
0010
0001
0010
0000
0100
0000
0000
0000
1000
0000
0001
0100
0001
0000
0100
0000
,
0010
1000
0010
0000
0100
0000
0010
0000
2002
0000
0000
0000
0000
0000
0000
0000
,
0000
0000
0000
0000
0000
3003
0000
0000
;

//--------------- dance-single - ----------------
#NOTES:
     dance-single:
     :
     Challenge:
     15:
     0.759735,0.974392,0.766079,0.111026,0.566233,479,410,69,10,0,0,0.759735,0.974392,0.766079,0.111026,0.566233,479,410,69,10,0,0:
0000
0000
0000
0000
,
0000
0000
0000
0000
,
0000
0000
0000
0000
0000
0000
0000
1001
,
0000
0000
0001
0000
0010
0000
0100
0000
0010
0000
0000
0110
0000
0000
1001
0000
,
0000
0000
1000
0000
0010
0000
0100
0000
0010
0000
0000
0110
0000
0000
1001
0000
,
0000
0000
0001
0000
0010
0000
0001
0000
0010
0000
0100
0000
1000
0100
0010
0001
,
1000
0000
0000
0000
1001
0000
0000
0000
0001
0100
0010
1000
0001
0100
0010
1000
,
0001
0100
0010
1000
0001
0010
0100
1000
,
0001
0000
0001
0010
0100
1000
1001
0000
,
2002
0000
0000
0000
3003
0100
0010
0100
,
0020
0001
1000
0001
,
0130
0000
0001
0100
0001
0000
1001
0000
1000
0100
1000
0100
1000
0000
0001
0000
,
1001
0000
1000
0100
1000
0000
1001
0000
0001
0100
0001
0100
0001
0000
1000
0000
,
1001
0000
0001
0010
0001
0000
1001
0000
1000
0010
1000
0010
1000
0000
0001
0000
,
1001
0000
1000
0010
1000
0000
1001
0000
0001
0010
0001
0010
0001
0000
0011
0000
,
1001
0000
0000
0000
0001
0000
0010
0000
0100
0000
0000
0000
1000
0000
0100
0010
,
0100
0000
0001
0000
0100
0000
1000
0000
0001
0000
0100
0010
0100
0000
0001
0000
,
1000
0000
1000
0100
0010
0000
0010
0001
,
0100
0000
0100
0001
1000
0000
1001
0000
,
0001
0000
0100
0000
0010
0000
1000
0000
0100
0000
0010
0000
0100
0000
1000
0001
,
1000
0000
0001
0000
0100
0000
0001
0000
0100
0000
0010
0000
1000
0000
0100
0010
,
0001
0100
0010
1000
0001
0010
0001
0010
,
0011
0110
1100
0110
1001
0000
1001
0000
,
0012
0000
0000
0100
0000
0000
1000
0000
0103
0000
0001
0100
0001
0000
1000
0010
,
2000
0000
0000
0001
0000
0000
0100
0000
3001
0000
0001
0010
0001
0000
0100
0000
,
0110
0000
0000
1001
0000
0000
0001
0000
1000
0000
0001
0000
1000
0000
0001
0000
,
0011
0000
1100
0000
1010
0000
0101
0000
1001
0000
0000
0001
0010
0000
0100
0000
,
1000
0000
1100
0000
1100
0000
0000
0000
1001
0000
0000
1000
0010
0000
0100
0000
,
0001
0101
0101
0000
0011
0010
0100
1000
,
1100
0100
0010
0001
0011
0001
0101
0001
,
1010
0000
0000
1000
0000
0000
1100
0000
0000
1000
0000
0000
1001
0000
0001
0000
0010
0000
0100
0000
1000
0000
0100
0000
,
0010
0001
1000
0100
1000
0001
1000
0010
0100
0001
0100
0010
,
1000
0000
0010
0000
0100
0000
0001
0000
0000
1001
0000
0000
0000
0000
0000
0001
0000
0000
0010
0000
0000
0001
0000
0000
,
0011
0000
0000
1001
0000
0000
1100
0000
0000
0000
1000
0000
0010
0000
1000
0000
,
1010
0000
0000
1001
0000
0000
0101
0000
0000
0000
0001
0000
0100
0000
0001
0000
,
0100
0010
1000
0010
0200
0000
0001
0000
,
0010
0000
0000
0000
0301
0000
0001
0100
0001
1000
0100
0010
0001
1000
0100
0010
,
0001
0010
0100
1000
0001
0010
0100
1000
0001
0100
0010
1000
0001
0100
0010
1000
,
0010
0100
0001
1000
0010
0100
0001
1000
1001
0000
0000
0011
0000
0000
0011
0000
,
1100
0000
0000
1010
0000
0000
1010
0000
0110
0000
0000
0000
1001
0000
0000
0000
,
0110
0000
0000
0000
0100
0001
1000
0000
0000
0000
1000
0000
0100
0000
1000
0000
,
0100
0000
0010
0001
0000
0010
0100
0000
0000
0000
1000
0000
0001
0000
0100
0000
,
0010
0000
1000
0010
0000
0100
0010
0000
0000
0000
1000
0000
0001
0000
0100
0000
,
0010
0000
1000
0000
0001
0000
1000
0000
0100
0010
0100
0010
0100
0010
0100
0010
,
0200
0000
0000
0000
1300
0000
1000
0100
1000
0001
0010
0100
1000
0001
0010
0100
,
1000
0100
0010
0001
1000
0100
0010
0001
1000
0010
0100
0001
1000
0010
0100
0001
,
0100
0010
1000
0001
0100
0010
1000
0001
2000
0000
0000
0000
0001
0000
0000
0000
,
3001
0000
0001
1000
0001
1000
0001
1000
0001
0000
0000
0000
0011
0000
0000
0000
,
1100
0000
0000
0000
1010
0000
0000
0000
0101
0000
0001
0010
0001
0000
1001
0000
,
1000
0010
1000
0010
1000
0000
1001
0000
0010
0000
1000
0100
1000
0000
1001
0000
,
0001
0100
0001
0100
0001
0000
0110
0000
2002
0000
0000
0000
0000
0000
0000
0000
,
0000
0000
0000
0000
0000
3003
0000
0000
;
