#TITLE:怪物;
#SUBTITLE:;
#ARTIST:YOASOBI;
#TITLETRANSLIT:Kaibutsu;
#SUBTITLETRANSLIT:;
#ARTISTTRANSLIT:YOASOBI;
#GENRE:ANIME;
#CREDIT:;
#MUSIC:Kaibutsu.ogg;
#BANNER:Kaibutsu.png;
#BACKGROUND:Kaibutsu-bg.png;
#CDTITLE:;
#SAMPLESTART:36.196;
#SAMPLELENGTH:11.294;
#SELECTABLE:YES;
#OFFSET:0.498;
#BPMS:0.000=170.000;
#STOPS:;
#BGCHANGES:1.500=Kaibutsu.avi=1.000=0=0=0=StretchNoLoop====,
99999.000=-nosongbg-=1.000=0=0=0=StretchNoLoop====
;
#FGCHANGES:;

//--------------- dance-single - ----------------
#NOTES:
     dance-single:
     :
     Hard:
     12:
     0.585962,0.585803,0.266779,0.711411,0.044463,369,345,24,64,0,0,0.585962,0.585803,0.266779,0.711411,0.044463,369,345,24,64,0,0:
0000
0000
0000
0000
,
0000
0000
0000
0000
,
0001
0100
0010
0100
0001
0100
0010
0100
,
0001
0000
0001
0020
0000
0031
0000
1001
,
0000
1000
0100
0010
0100
1000
0100
0010
,
0100
1000
0000
1000
0010
0100
0001
1000
,
0001
0010
1000
0010
0100
0010
1000
0010
,
0001
0100
0010
0200
0000
1000
0000
0010
,
0010
0320
0000
0001
0000
1000
0000
0031
,
0010
1000
0100
0001
0000
0110
0000
1000
,
0001
1000
0010
1000
0001
1000
0010
1000
,
0100
0000
0010
0001
1000
0001
0000
1001
,
0000
0001
0100
0001
1000
0001
0100
0001
,
1000
0010
0000
0100
0001
0100
0001
0010
,
0100
0001
0100
0010
0100
0001
0100
1000
,
0000
1000
0010
0100
0000
0001
1000
0001
,
0000
2001
0000
0100
0000
0001
0000
0010
,
3020
0000
0230
0000
0001
0001
0302
0000
,
0023
0000
0000
0130
1000
0020
0000
0130
,
0001
1000
0001
2000
0000
3100
0010
0100
,
0110
0000
1100
0000
0011
0001
0000
0001
,
1000
0010
0100
0020
0000
0130
0001
0010
,
2000
0000
3020
0000
0031
0200
0000
0320
,
0000
1030
0001
2000
0000
3010
0100
0010
,
1010
0000
0101
0000
0011
0020
0000
0230
,
0000
1300
0001
1000
0001
0000
0200
0000
,
0301
0100
0000
1000
0100
0000
0001
0010
,
0000
0100
0010
0001
1000
0000
0110
0000
,
1000
0010
0000
0001
0010
0000
1000
0100
,
0000
0010
0001
1000
0001
0010
0100
1000
,
0002
0023
0230
0320
,
0032
0000
0203
0000
0320
0000
2030
3000
,
0101
0000
1010
0000
1100
0000
0011
0002
,
0000
1003
0100
2000
0000
0010
3100
0000
,
1002
0000
0000
0103
0010
0100
0000
0010
,
0100
0010
1000
0002
0000
1003
0100
0002
,
0000
1003
0010
0002
0000
1003
0010
0002
,
0000
1000
2003
0000
3100
0001
0010
0100
,
1000
1100
0001
0101
,
1000
1010
0001
0011
,
0020
0100
0230
1000
,
2300
3020
0230
0302
,
1000
0023
0230
2300
,
0001
3020
0230
0302
,
0203
0320
2030
3200
,
0320
0100
0032
2003
,
3020
0032
0023
0230
,
2300
0000
0000
3200
0000
0310
0001
0010
,
0001
1000
0000
1000
0100
0001
0000
0001
,
0010
0100
1000
0010
0000
0100
0001
0020
,
0000
0130
1000
0020
0000
0130
0001
2000
,
0000
0001
3002
0000
0013
0100
0001
0100
,
1000
1010
0001
0101
,
0010
0110
1000
1001
,
0001
0000
0000
0001
0000
0000
0001
0000
1000
0000
0100
0000
1000
0000
0001
0000
,
0010
0000
0000
0010
0000
0000
0010
0000
0001
0000
1000
0000
0010
0000
1000
0000
,
0100
0000
0000
0100
0000
0000
0100
0000
1000
0000
0001
0000
0100
0000
0010
0000
,
1000
0000
0000
1000
0000
0000
1000
0000
0010
0000
0100
0000
0001
0000
1000
0000
,
0001
0000
0000
0001
0000
0000
0001
0000
0010
0000
0100
0000
0010
0000
1000
0000
,
0010
0000
0000
0010
0000
0000
0010
0000
0001
0000
0100
0000
0001
0000
1000
0000
,
0001
0000
0000
0100
0000
0000
1000
0000
0100
0000
0010
0000
0001
0000
0010
0000
,
1000
0000
0000
0100
0000
0000
0001
0000
1000
0000
0010
0000
0001
0000
1000
0000
,
0001
0000
0000
0000
;

//--------------- dance-single - ----------------
#NOTES:
     dance-single:
     :
     Challenge:
     16:
     0.922612,0.934144,0.800338,0.166737,0.516885,581,509,72,15,0,0,0.922612,0.934144,0.800338,0.166737,0.516885,581,509,72,15,0,0:
0000
0000
0000
0000
,
0000
0000
0000
0000
,
0001
0000
0100
0010
0100
0000
0001
0000
1000
0000
0100
0010
0100
0000
0001
0000
,
0100
0000
1000
1010
0000
1001
0000
0101
,
0000
0000
0001
1000
0001
0000
0010
0000
0100
0000
1000
0001
1000
0000
0010
0000
,
0110
1010
0000
0101
0001
0010
0100
1000
,
0100
0000
1000
0100
1000
0000
0100
0010
0100
0000
1000
0100
1000
0000
0010
0100
,
0010
0001
0010
1010
0000
1100
0000
1000
,
0001
0010
0100
0010
0001
0010
0100
0010
,
0001
0010
1000
0020
0000
0002
0030
0103
,
1000
0100
1001
0010
0100
0010
1001
0100
,
0001
0100
1001
0010
0100
0010
1001
0100
,
1000
0100
1001
0010
0100
0010
1001
0100
,
0001
0100
1001
0010
0100
0010
1001
0100
,
1000
0100
0110
1000
0001
1000
0110
0100
,
0001
0100
0110
0001
1000
0001
0110
0100
,
1000
0100
0110
0000
0011
0100
1000
0001
,
2000
0000
0000
0000
3002
0000
0000
0000
0013
0100
1000
0100
0010
0000
0000
0000
,
0011
0000
1001
0101
0000
0100
1001
0100
,
0000
0000
0110
0110
0000
0100
0011
1001
,
0100
0000
1010
0100
0000
0100
1010
0100
,
0001
0000
0010
0000
1001
0000
0011
0000
0100
0000
1000
0000
0100
0000
0010
0001
,
1000
0001
0101
0100
0001
1000
1010
0010
,
0100
0001
0011
0010
0100
1000
0001
1000
,
1100
0100
0101
0100
1100
0100
0102
0000
,
0100
0100
0203
2300
,
3001
0000
0010
0100
0010
0000
0001
0000
1000
0000
0010
0100
0010
0000
1000
0000
,
0010
0000
0100
0010
0001
0010
0100
0010
0001
0010
1000
0100
0020
0000
0000
0000
,
0130
0000
1000
0001
1000
0000
0010
0000
0100
0000
0001
1000
0001
0000
0020
0000
,
0000
0130
1000
0001
0010
0001
1000
0100
,
0001
0000
1000
0010
0100
0000
1000
0010
0100
0000
0010
1000
0100
0000
0010
0000
,
0001
0000
0100
0010
0001
0000
0010
0100
0001
0000
0010
0001
0100
0000
0010
0000
,
1000
0000
0001
0010
0100
0000
0001
0100
1000
0000
0001
0100
0010
0000
0110
0000
,
0000
0010
1000
0100
0000
0001
0100
0000
,
1001
0000
0000
0010
0001
0000
0100
0000
0110
0000
0000
0010
1000
0000
0100
0010
,
0100
0000
0001
0000
0100
0000
0010
0001
1000
0000
0101
0000
0001
0000
1001
0000
,
0000
1100
1000
1001
0000
0110
0010
2001
,
0000
0000
0001
0000
3001
0000
0000
0000
0001
0000
0010
0100
0010
0000
0100
1000
,
0010
0000
0000
0010
0100
0000
0000
0100
0001
0000
0000
0001
0010
0000
0000
0010
,
1000
0000
0000
1000
0001
0000
0000
0001
0100
0000
0000
0100
2000
0000
0000
0000
,
3001
1000
0010
0010
0100
0001
1000
1000
,
0001
0000
0010
0001
0010
0000
0100
0010
0100
0000
0010
0001
0010
0000
0100
0000
,
1000
0000
0010
0000
0100
0000
0010
0001
0010
0000
1000
0000
0100
0000
0010
0000
,
1000
0000
0010
0001
0010
0000
0100
0000
1000
0000
0010
0000
0100
0000
0001
0000
,
1000
0000
0100
0010
0100
0000
1000
0010
1000
0000
0010
0100
0010
0000
1000
0001
,
1000
0000
0001
0000
0100
0000
0010
1000
0010
0000
0100
0000
0001
0000
0100
0001
,
0010
0000
0100
1000
0010
0000
0010
1000
0100
0000
0010
0001
0100
0000
0010
1000
,
0001
0010
0100
0110
0110
0010
0001
1000
,
0001
0011
0000
0001
0010
1100
0000
0001
,
0100
0000
1000
0000
0100
0000
0001
0000
1000
0000
0001
0010
0100
0000
1000
0100
,
0010
0000
0001
0010
0100
0000
1000
0100
0010
0000
0100
1000
0100
1000
0100
0010
,
0001
1000
0100
0010
0100
0000
0100
1000
0001
0000
0100
0000
0010
0000
1000
0000
,
0001
0100
1001
0000
1000
0100
1001
0000
,
0110
0001
0110
1000
0110
0001
1001
0000
,
1100
0000
0000
0101
0000
0000
1100
0000
0001
0010
0100
0010
0001
0010
0100
1000
,
0020
0000
0000
0100
0000
0000
0130
0000
0010
1000
0001
0000
0001
0010
0100
0000
,
0011
0000
0000
1010
0000
0000
0011
0000
1000
0010
0100
0010
1000
0010
0100
0001
,
0020
0000
0000
0100
0000
0000
0130
0000
0010
0001
1000
0000
1000
0010
0100
0000
,
1010
0000
0000
1100
0000
0000
1010
0000
0100
0001
0010
1000
0010
0001
0100
0010
,
0002
0000
0000
0010
0000
0000
0013
0000
0100
0001
1000
0000
1000
0010
0100
0000
,
1010
0000
0000
0101
0000
0000
1010
0000
1000
0000
0010
0000
0100
0000
0001
0000
,
0020
0000
0000
0100
0000
0000
0130
0000
1000
0000
0100
0000
0010
0000
0001
0000
,
1000
0000
0000
0000
;
