#TITLE:クスシキ;
#SUBTITLE:;
#ARTIST:Mrs. GREEN APPLE;
#TITLETRANSLIT:KUSUSHIKI;
#SUBTITLETRANSLIT:;
#ARTISTTRANSLIT:Mrs. GREEN APPLE;
#GENRE:ANIME;
#CREDIT:;
#BANNER:KUSUSHIKI.png;
#BACKGROUND:KUSUSHIKI-bg.png;
#LYRICSPATH:;
#CDTITLE:;
#MUSIC:KUSUSHIKI.ogg;
#OFFSET:1.064000;
#SAMPLESTART:28.066000;
#SAMPLELENGTH:13.913000;
#LASTBEATHINT:0.099712;
#SELECTABLE:YES;
#BPMS:0.000000=138.000000
,67.000000=69.000000
,67.500000=138.000000
,183.500000=69.000000
,184.000000=138.000000
;
#STOPS:181.500000=0.217000,
181.750000=0.217000
;
#BGCHANGES:2.375=KUSUSHIKI.avi=1.000=0=0=0=====,
99999=-nosongbg-=1.000=0=0=0 // don't automatically add -songbackground-
;
#KEYSOUNDS:;
#ATTACKS:;

//---------------dance-single - ----------------
#NOTES:
     dance-single:
     :
     Hard:
     12:
     0.576586,0.572428,0.199588,0.498969,0.221764,364.000000,346.000000,18.000000,45.000000,0.000000,0.000000,0.576586,0.572428,0.199588,0.498969,0.221764,364.000000,346.000000,18.000000,45.000000,0.000000,0.000000:
0000
0000
0000
0000
,
1010
0000
0000
0000
0101
0000
0000
0001
0010
0000
0100
0000
1000
0000
0000
1000
,
0010
0000
0100
0000
0010
0000
1000
0001
1000
0000
0100
0000
0010
0000
0001
1000
,
0010
0000
0000
0000
0110
0000
0000
1000
0010
0000
0100
0000
0001
0000
0000
1000
,
0100
0000
0001
0000
0100
0000
0000
1000
0001
0000
0100
0000
1000
0000
0100
0000
,
0002
0000
0000
0000
1003
0000
0000
0001
0010
0000
0200
0000
1000
0000
0000
0000
,
0310
0000
0000
0010
0001
0000
1000
0000
0001
0000
0200
0000
0000
0000
0310
0000
,
1000
0000
0000
0001
0010
0000
0000
0010
0100
0000
1000
0000
0001
0000
0100
0000
,
0010
0000
2000
0000
0000
3001
0010
0000
0100
0000
1000
0000
0001
0000
0000
0000
,
0110
0000
0000
1000
0010
0000
0000
1000
0100
0000
0010
0000
0001
0000
0000
1000
,
0100
0000
0001
0000
0100
0000
0000
1000
0010
0000
0100
0000
0001
0000
0000
0000
,
1001
0000
0000
0001
0010
0000
0000
0001
0100
0000
0010
0000
1000
0000
0000
0001
,
0100
0000
1000
0000
0100
0000
0000
0001
0010
0000
0100
0000
1000
0000
0001
0000
,
0010
0000
0000
0000
0110
0000
0000
0100
1000
0000
0001
0000
0010
0000
0100
0000
,
1000
0000
0000
1000
0010
0000
0000
0100
0001
0000
1000
0000
0001
0000
0010
0000
,
2000
0000
3010
0001
0100
0010
1000
0001
,
0101
0000
0000
0000
0000
0000
0000
0000
0000
0000
0000
0000
0000
0000
0000
0000
0000
0000
0000
0000
0000
0000
0000
0000
0000
0000
0000
0000
0000
0000
0000
0000
0000
0000
0000
0000
0000
0000
0000
0000
0000
0000
0000
0000
0000
0000
0000
0000
0011
0000
0000
0000
0000
0000
0000
0000
0000
0000
0000
0000
0000
0000
0000
0000
0000
0000
0000
0000
0000
0000
0000
0000
0000
0000
0000
0000
0000
0000
0000
0000
0000
0000
0000
0000
0000
0000
0000
0000
0000
0000
0000
0000
0000
0000
0000
0000
1100
0000
0000
0000
0000
0000
0000
0000
0000
0000
0000
0000
0000
0000
0000
0000
0000
0000
0000
0000
0000
0000
0000
0000
0000
0000
0000
0000
0000
0000
0000
0000
0000
0000
0000
0000
0000
0000
0000
0000
0000
0000
0000
0000
0000
0000
0000
0000
2000
3000
0000
0000
0000
0000
0000
0000
0000
0000
0000
0000
0000
0000
0000
0000
0000
0000
0000
0000
0000
0000
0000
0000
0002
0003
0000
0000
0000
0000
0000
0000
0000
0000
0000
0000
0000
0000
0000
0000
0000
0000
0000
0000
0000
0000
0000
0000
,
0000
0010
0100
0000
0000
0010
0001
0000
0000
0010
2000
0000
0000
0000
3020
0000
,
0000
0031
0200
1000
0010
0301
1000
0010
,
0000
0100
0010
0000
0000
0100
0001
0000
0000
0100
2000
0000
0000
0000
3200
0000
,
0000
0301
0010
0100
0000
0100
1000
0001
,
0000
0010
0100
0000
0000
0010
0001
0000
0000
0010
1000
0000
0010
0000
0002
0000
,
0000
1003
0001
1000
0010
0100
0001
0010
,
0000
0100
1000
0000
0010
0000
0100
0000
0001
0000
0000
0000
0001
0000
1000
0000
,
0100
0010
0002
0000
0000
1003
0010
0100
,
0000
0100
0001
1000
0100
0000
0010
0001
,
1000
0001
1000
0010
0000
0010
0000
0010
,
1000
0000
0001
1000
0100
0010
0001
0000
,
0001
1000
0001
0000
1000
0010
0000
0100
,
0100
0000
0000
0000
0100
0000
0001
0000
1000
0000
0100
0000
0000
0100
1000
0000
,
0001
0100
0000
0000
0100
0010
0000
1000
,
0001
0010
0100
2000
3200
0320
0032
0000
,
1003
0010
0100
1000
0100
0001
1000
0100
,
0001
0100
1000
0001
2000
3020
0230
0302
,
0000
1003
0000
0110
0002
0023
0230
2300
,
3002
0023
0230
1300
0010
0100
0001
0000
,
0001
1000
0010
0110
0100
0001
0000
1000
,
0100
0000
0000
0000
1000
0000
0010
0000
0100
0000
0001
0000
0000
0010
0100
0000
,
1000
0001
0000
2000
3020
0230
0302
2003
,
3020
0230
0302
1003
0100
0010
0001
0000
,
0001
0010
0100
1100
1000
0010
0100
0101
,
0001
0010
0100
0000
1000
0001
1000
0000
,
0010
0100
0000
0101
0000
1001
0000
1100
,
0000
1001
0000
0110
0000
0010
0100
0000
,
0000
0001
0010
0100
0000
0100
1000
0001
,
0000
0000
0000
0000
0000
0000
0000
0000
0000
0000
0000
0000
0000
0000
0000
0000
0000
0000
0000
0000
0000
0000
0000
0000
0100
0000
0000
0000
0000
0000
0000
0000
0000
0000
0000
0000
0000
0000
0000
0000
0000
0000
0000
0000
0000
0000
0000
0000
0010
0000
0000
0000
0000
0000
0000
0000
0000
0000
0000
0000
0000
0000
0000
0000
0000
0000
0000
0000
0000
0000
0000
0000
2000
3000
0000
0000
0000
0000
0000
0000
0000
0000
0000
0000
0002
0003
0000
0000
0000
0000
0000
0000
0000
0000
0000
0000
2000
3000
0000
0000
0000
0000
0000
0000
0000
0000
0000
0000
0000
0000
0000
0000
0000
0000
0000
0000
0000
0000
0000
0000
0010
0000
0000
0000
0000
0000
0000
0000
0000
0000
0000
0000
0000
0000
0000
0000
0000
0000
0000
0000
0000
0000
0000
0000
0000
0000
0000
0000
0000
0000
0000
0000
0000
0000
0000
0000
0000
0000
0000
0000
0000
0000
0000
0000
0000
0000
0000
0000
0200
0300
0000
0000
0000
0000
0000
0000
0000
0000
0000
0000
0002
0003
0000
0000
0000
0000
0000
0000
0000
0000
0000
0000
,
2000
3000
0000
0000
0000
0000
0000
0000
0000
0000
0000
0000
0000
0000
0000
0000
0000
0000
0000
0000
0000
0000
0000
0000
0000
0000
0000
0000
0000
0000
0000
0000
0000
0000
0000
0000
0000
0000
0000
0000
0000
0000
0000
0000
0000
0000
0000
0000
0001
0000
0000
0000
0000
0000
0000
0000
0000
0000
0000
0000
0000
0000
0000
0000
0000
0000
0000
0000
0000
0000
0000
0000
0000
0000
0000
0000
0000
0000
0000
0000
0000
0000
0000
0000
0010
0000
0000
0000
0000
0000
0000
0000
0000
0000
0000
0000
0100
0000
0000
0000
0000
0000
0000
0000
0000
0000
0000
0000
0000
0000
0000
0000
0000
0000
0000
0000
0000
0000
0000
0000
0000
0000
0000
0000
0000
0000
0000
0000
0000
0000
0000
0000
0000
0000
0000
0000
0000
0000
0000
0000
0000
0000
0000
0000
1000
0000
0000
0000
0000
0000
0000
0000
0000
0000
0000
0000
0000
0000
0000
0000
0000
0000
0000
0000
0000
0000
0000
0000
0000
0000
0000
0000
0000
0000
0000
0000
0000
0000
0000
0000
0010
0000
0000
0000
0000
0000
0000
0000
0000
0000
0000
0000
,
0100
0000
0001
1000
0001
0000
1000
0100
,
0010
0000
0000
0001
1000
0000
0000
0000
0010
0000
0100
0000
0000
0000
0100
0000
,
0010
1000
0001
0010
0100
1000
0100
1000
,
0001
0000
1000
0010
0100
0002
0000
0013
,
0100
1000
0001
2000
0000
3000
0000
0000
;

//---------------dance-single - ----------------
#NOTES:
     dance-single:
     :
     Challenge:
     16:
     0.901312,0.887264,0.443528,0.554410,0.903688,569.000000,529.000000,40.000000,50.000000,0.000000,0.000000,0.901312,0.887264,0.443528,0.554410,0.903688,569.000000,529.000000,40.000000,50.000000,0.000000,0.000000:
// measure 0
0000
0000
0000
0000
,  // measure 1
0110
0000
0000
0000
1001
0000
0000
0001
1000
0000
0010
0000
0100
0000
0000
0001
,  // measure 2
0010
0000
0100
0000
0010
0000
0001
1000
0010
0000
0100
0000
0110
0000
0010
1000
,  // measure 3
0001
0000
0000
0000
0010
0000
0100
1000
0001
0000
1000
0000
1100
0000
0000
0100
,  // measure 4
1000
0000
0000
0010
0000
0000
0100
0000
0000
0001
1000
0001
1000
0000
0000
0100
0000
0000
0010
0000
0000
0001
0000
0000
,  // measure 5
0011
0000
0000
0010
0100
0000
0001
0100
1000
0001
0010
0100
1000
0000
0010
0000
,  // measure 6
1010
0000
0000
0010
0100
0000
1000
0100
0001
1000
0010
0100
0001
0000
1000
0000
,  // measure 7
1001
0000
0000
0001
0010
0100
1000
0001
1000
0100
0010
0001
1000
0000
0010
0000
,  // measure 8
0100
0000
0002
0000
0000
0013
0100
1000
0010
0100
0010
1000
0001
0010
0100
0000
,  // measure 9
0110
0000
0000
1000
0010
0000
0100
0001
0010
0000
0100
0000
1000
0000
0001
0100
,  // measure 10
0010
0000
0000
0000
0000
0000
0100
0000
0000
0001
0000
0000
1000
0000
0000
0000
0000
0000
0001
0000
0010
0000
0100
0000
1000
0000
0000
0000
0000
0000
0001
0000
0000
0000
0000
0000
0101
0000
0000
0000
0000
0000
0000
0000
0000
0000
0000
0000
,  // measure 11
1010
0000
0000
0000
0000
0000
1000
0000
0010
0000
0100
0000
0001
0000
0000
0000
0000
0000
1000
0000
0000
0100
0000
0000
0010
0000
0000
0000
0000
0000
0010
0000
0000
0000
0000
0000
0001
0000
0000
1000
0000
0000
0001
0000
0010
0000
0100
0000
,  // measure 12
1000
0000
0100
1000
0010
0000
0100
0001
0020
0000
0100
0000
0130
0000
1000
0000
,  // measure 13
0001
1000
0101
0010
1100
1100
0010
1000
,  // measure 14
0001
1000
0011
0100
1010
1010
0100
0001
,  // measure 15
0101
0000
0000
0000
0000
0000
0000
0000
0000
0100
0000
0000
0001
0000
0000
0000
0000
0000
1000
0000
0000
0001
0000
0000
1000
0000
0100
0000
0010
0000
0001
0000
0010
0000
0100
0000
1000
0000
0000
0000
0000
0000
0100
0000
0000
0000
0000
0000
,  // measure 16
1100
0000
0000
0000
0000
0000
0000
0000
0000
0000
0000
0000
0000
0000
0000
0000
0000
0000
0000
0000
0000
0000
0000
0000
0000
0000
0000
0000
0000
0000
0000
0000
0000
0000
0000
0000
0000
0000
0000
0000
0000
0000
0000
0000
0000
0000
0000
0000
0101
0000
0000
0000
0000
0000
0000
0000
0000
0000
0000
0000
0000
0000
0000
0000
0000
0000
0000
0000
0000
0000
0000
0000
0000
0000
0000
0000
0000
0000
0000
0000
0000
0000
0000
0000
0000
0000
0000
0000
0000
0000
0000
0000
0000
0000
0000
0000
0110
0000
0000
0000
0000
0000
0000
0000
0000
0000
0000
0000
0000
0000
0000
0000
0000
0000
0000
0000
0000
0000
0000
0000
0000
0000
0000
0000
0000
0000
0000
0000
0000
0000
0000
0000
0000
0000
0000
0000
0000
0000
0000
0000
0000
0000
0000
0000
0002
0003
0000
0000
0000
0000
0000
0000
0000
0000
0000
0000
0000
0000
0000
0000
0000
0000
0000
0000
0000
0000
0000
0000
2000
3000
0000
0000
0000
0000
0000
0000
0000
0000
0000
0000
0000
0000
0000
0000
0000
0000
0000
0000
0000
0000
0000
0000
,  // measure 17
0001
0000
0100
0000
0001
0000
0100
0000
0000
0000
0000
0000
0010
0000
0000
0000
0000
0000
1000
0000
0000
0000
0000
0000
0001
0000
0000
0010
0000
0000
0100
0000
0000
1000
0000
0000
0001
0000
0000
0010
0000
0000
0100
0000
0000
0000
0000
0000
,  // measure 18
1000
0001
0200
1000
0010
0301
1000
0010
,  // measure 19
1000
0000
0100
0000
1000
0000
0100
0000
0000
0010
0000
0000
0001
0000
0000
1000
0000
0000
0001
0000
0000
0000
0000
0000
0100
0000
0000
0010
0000
0000
0100
0000
0000
0000
0000
0000
1000
0000
0000
0000
0000
0000
0100
0000
0000
0001
0000
0000
,  // measure 20
1000
0100
0010
0000
1000
0000
0010
0001
0100
0010
1000
0100
0010
0001
1000
0000
,  // measure 21
0010
0100
0010
0000
1000
0000
0001
0100
0001
0000
0100
0000
1000
0000
0100
0000
,  // measure 22
0001
0010
1000
0000
0001
0100
1000
0000
0001
0010
0100
0000
1000
0000
1200
0000
,  // measure 23
1300
1002
0013
0201
0301
2001
3010
0110
,  // measure 24
0100
0001
1000
0000
1100
0000
0100
0010
0100
1000
0001
0000
0100
0000
0010
0000
,  // measure 25
0000
0010
0000
1000
0000
1000
0000
0001
,  // measure 26
1000
0000
0001
0000
0110
0000
1000
0010
0001
1000
0100
0001
1000
0001
0010
1000
,  // measure 27
0001
0100
1000
0100
0010
0001
1000
0000
0100
0000
1000
0000
0001
0000
0010
0000
,  // measure 28
0100
0000
1000
0001
1000
0000
0100
0000
0010
0000
0001
0000
0000
0001
1000
0000
,  // measure 29
0001
0100
1000
0001
0010
1000
0001
1000
0100
0001
1000
0010
0001
1000
0001
0010
,  // measure 30
0100
0000
0000
1000
0000
0000
0010
0000
0000
0000
0000
0000
0100
0000
0001
0000
0100
0000
0001
0000
0000
0000
0000
0000
1000
0000
0000
0000
0000
0000
0110
0000
0000
0000
0000
0000
0000
0000
0000
0100
0000
0000
0001
0000
0000
0000
0000
0000
,  // measure 31
0010
0100
0010
0000
0001
0000
2000
0000
3200
0000
0320
0000
0032
0000
1003
0000
,  // measure 32
0010
0100
0001
0000
1000
0000
1100
0000
0001
0010
0100
0000
1000
0000
0101
0000
,  // measure 33
1000
0010
0100
0000
0001
0000
1100
0000
0001
0010
0100
1000
0001
1000
0100
0010
,  // measure 34
0001
1000
0020
0000
0000
0000
0130
0000
0002
0100
0023
0100
2030
0100
3020
0100
,  // measure 35
0032
0000
0000
0100
0000
0000
0023
0000
0000
0100
0000
0000
2030
0000
0000
0100
0000
0000
3002
0000
0000
0000
0000
0000
0013
0000
0000
0100
0000
0000
1000
0000
0000
0001
0000
0000
1000
0000
0100
0000
0010
0000
0001
0000
0000
0000
0000
0000
,  // measure 36
1000
0000
0001
0100
0001
0100
0010
0000
1000
0000
0010
0000
0000
0100
0001
0000
,  // measure 37
0001
1000
0100
0000
0010
0000
0200
0010
0302
0010
0203
0010
2300
0010
3200
0010
,  // measure 38
0302
0000
0000
0010
0000
0000
0203
0000
0000
0000
0000
0000
1300
0000
0000
0001
0000
0000
0100
0000
0000
0000
0000
0000
0010
0000
0100
0000
0001
0000
0010
0000
0000
0000
0000
0000
0100
0000
0000
0000
0000
0000
0010
0000
0000
0000
0000
0000
,  // measure 39
0100
1000
0010
0100
0000
0000
0010
0000
0000
0100
0000
0000
0010
0100
0001
0010
0000
0000
0100
0000
0000
0010
0000
0000
,  // measure 40
0100
0000
1000
0000
0010
0000
0100
0000
0000
0001
0000
0000
1000
0000
0000
0001
0000
0000
0010
0000
0000
0000
0000
0000
0000
0000
0000
0000
0000
0000
0110
0000
0000
0000
0000
0000
0000
0000
0000
0000
0000
0000
1000
0000
0000
0000
0000
0000
,  // measure 41
0000
1001
0000
0001
0100
0010
0100
0000
,  // measure 42
0001
0000
0000
0000
0000
0000
1000
0000
0000
0000
0000
0000
0100
0000
0010
0000
0100
0000
0010
0000
0000
0000
0000
0000
0000
0000
0000
0000
0000
0000
0110
0000
0000
0000
0000
0000
0000
0000
0000
0001
0000
0000
2000
0000
0000
0000
0000
0000
,  // measure 43
0000
0000
0000
3020
0000
0000
0000
0000
0000
0230
0000
0000
0000
0000
0000
0301
0000
0000
1000
0100
0010
0001
0000
0000
,  // measure 44
1000
0000
0000
0100
0000
0000
1000
0000
0000
0000
0000
0000
0001
0000
0000
0000
0000
0000
0100
0000
0000
0000
0000
0000
0001
0000
0100
0000
0001
0000
0100
0000
0000
0000
0000
0000
0001
0000
1000
0000
0001
0000
1000
0000
0000
0000
0000
0000
,  // measure 45
0100
0000
0000
0000
0000
0000
0000
0000
1000
0000
0000
0000
0000
0000
0000
0000
0100
0000
0000
0000
0000
0000
0000
0000
1000
0000
0000
0000
0000
0000
0000
0000
0000
0000
0000
0000
0000
0000
0000
0000
0000
0000
0000
0000
0000
0000
0000
0000
0010
0000
0000
0000
0000
0000
0000
0000
0000
0000
0000
0000
0000
0000
0000
0000
0000
0000
0000
0000
0000
0000
0000
0000
0220
0330
0000
0000
0000
0000
0000
0000
0000
0000
0000
0000
0202
0303
0000
0000
0000
0000
0000
0000
0000
0000
0000
0000
2200
3300
0000
0000
0000
0000
0000
0000
0000
0000
0000
0000
0000
0000
0000
0000
0000
0000
0000
0000
0000
0000
0000
0000
1000
0000
0000
0000
0000
0000
0000
0000
0000
0000
0000
0000
0010
0000
0000
0000
0000
0000
0000
0000
0000
0000
0000
0000
0100
0000
0000
0000
0000
0000
0000
0000
0000
0000
0000
0000
0000
0000
0000
0000
0000
0000
0000
0000
0000
0000
0000
0000
0002
0003
0000
0000
0000
0000
0000
0000
0000
0000
0000
0000
2000
3000
0000
0000
0000
0000
0000
0000
0000
0000
0000
0000
,  // measure 46
0002
0003
0000
0000
0000
0000
0000
0000
0000
0000
0000
0000
0000
0000
0000
0000
0000
0000
0000
0000
0000
0000
0000
0000
0010
0000
0000
0000
0000
0000
0000
0000
0000
0000
0000
0000
0100
0000
0000
0000
0000
0000
0000
0000
0000
0000
0000
0000
0010
0000
0000
0000
0000
0000
0000
0000
0000
0000
0000
0000
0000
0000
0000
0000
0000
0000
0000
0000
0000
0000
0000
0000
0100
0000
0000
0000
0000
0000
0000
0000
0000
0000
0000
0000
0000
0000
0000
0000
0000
0000
0000
0000
0000
0000
0000
0000
1000
0000
0000
0000
0000
0000
0000
0000
0000
0000
0000
0000
0001
0000
0000
0000
0000
0000
0000
0000
0000
0000
0000
0000
0100
0000
0000
0000
0000
0000
0000
0000
0000
0000
0000
0000
0010
0000
0000
0000
0000
0000
0000
0000
0000
0000
0000
0000
1000
0000
0000
0000
0000
0000
0000
0000
0000
0000
0000
0000
0000
0000
0000
0000
0000
0000
0000
0000
0000
0000
0000
0000
0000
0000
0000
0000
0000
0000
0000
0000
0000
0000
0000
0000
0001
0000
0000
0000
0000
0000
0000
0000
0000
0000
0000
0000
,  // measure 47
0010
0000
0100
1000
0001
0000
0100
0000
0010
1000
0100
0010
0001
0000
0100
0000
,  // measure 48
0110
0000
0000
0010
0100
0000
1000
0100
0001
0010
2000
0000
0000
0000
3010
0001
,  // measure 49
0100
0000
0010
0000
1000
0000
0001
0000
0010
0001
0100
0010
0100
0010
1000
0100
,  // measure 50
0010
0000
0012
0023
0230
2300
0000
3001
,  // measure 51
2010
3002
0023
0230
0000
0300
0000
0000
;
