#TITLE:KING;
#SUBTITLE:;
#ARTIST:葛葉;
#TITLETRANSLIT:KING;
#SUBTITLETRANSLIT:;
#ARTISTTRANSLIT:Kuzuha;
#GENRE:POP;
#CREDIT:;
#MUSIC:KING.ogg;
#BANNER:KING.png;
#BACKGROUND:KING-bg.png;
#CDTITLE:;
#SAMPLESTART:3.307;
#SAMPLELENGTH:11.024;
#SELECTABLE:YES;
#OFFSET:1.010;
#BPMS:0.000=166.000;
#STOPS:112.000=0.181
,112.500=0.181
,113.000=0.361
;
#LASTBEATHINT:0.095231;
#BGCHANGES:3.000=KING.avi=1.000=0=0=0=StretchNoLoop====,
99999.000=-nosongbg-=1.000=0=0=0=StretchNoLoop====
;
#FGCHANGES:;

//--------------- dance-single - ----------------
#NOTES:
     dance-single:
     :
     Medium:
     13:
     0,0,0,0,0:
0000
0000
0000
0000
,
0000
0000
0000
0000
,
0000
0000
0000
0000
,
2001
0000
3001
0010
0100
1000
0001
0010
,
0100
0010
0001
1000
0010
0000
1010
0000
,
1002
0000
1003
0010
0100
0001
1000
0001
,
0010
0100
0010
0100
0010
0000
0110
0000
,
1002
0000
1003
0100
1000
0001
0100
0001
,
1000
0100
0010
0001
0010
0000
0011
0000
,
2001
0000
3001
0100
0001
1000
0100
1000
,
0010
0100
0010
0100
0010
0000
0110
0000
,
2001
0000
0000
3001
0200
0000
0000
0310
,
0000
1000
0001
0001
0011
0000
1020
0000
,
0230
0000
0301
1000
0100
0000
0001
0200
,
0000
1300
0020
0000
0130
0000
1001
0000
,
2010
0000
0000
3001
0012
0000
0013
0100
,
0000
1000
0100
0010
0002
0000
1003
0001
,
0100
0000
1000
0100
0001
0100
0010
2000
,
0000
3001
0200
0000
0320
0000
2030
0000
,
3000
0100
1000
0100
0000
1000
0010
1000
,
0000
0000
0001
0000
0010
0000
0001
0000
0011
0000
0000
0110
0000
0000
1100
0000
,
0000
1000
0100
1000
0000
0001
0100
0001
,
0000
0000
0010
0000
0001
0000
0010
0000
0110
0000
0000
1100
0000
0000
0101
0000
,
0000
0010
0100
0010
0000
1000
0001
1000
,
0000
0000
0001
0000
1000
0000
0001
0000
1001
0000
0000
0110
0000
0000
1001
0000
,
0000
1000
0010
0100
0000
0001
0100
0010
,
2000
3002
0023
0230
,
2300
0000
0000
3000
,
1001
1001
1001
0000
1001
0000
1100
1000
,
0100
0001
0100
0001
0100
1000
0010
1000
,
0020
0000
0000
0001
0000
0000
0130
0000
1010
0000
0000
0000
0101
0000
0001
0000
,
0100
1000
0100
1000
0100
0001
0010
0100
,
2000
0100
3002
0103
1001
0000
1001
1000
,
0100
0001
1000
0001
0100
1000
0010
0100
,
0002
0000
0000
1000
0000
0000
0103
0000
0000
0000
0000
0000
0001
0000
0100
0000
,
1000
0001
1000
0100
0110
0000
1001
0000
,
0110
1002
1003
1100
,
0001
0000
0101
0000
0000
2001
0000
3001
,
1000
0100
0001
0100
1000
0000
0000
0101
,
0000
1100
0000
0101
0000
2000
3200
0320
,
2030
3020
0230
0300
1000
0000
1010
0000
,
0001
0000
0011
0000
0000
1002
0000
1003
,
0001
0100
1000
0100
0001
0000
0000
1010
,
0000
0011
0000
2010
0000
0001
3001
0000
,
0110
0000
1001
0000
0110
0000
0001
0010
,
0100
1000
0001
0020
0100
0100
0100
0130
,
0110
0000
1010
0000
1002
0000
1003
0001
,
1000
0100
0100
0001
1000
0010
0100
0001
,
1000
0000
1001
0000
2001
0000
3001
1000
,
0001
0010
0010
1000
0010
0100
0010
0100
,
0010
0000
0110
0000
2001
0000
3001
1000
,
0001
0100
0100
1000
0001
0010
0100
1000
,
0001
0000
1001
0000
1002
0000
1003
0001
,
1000
0010
0010
0001
0010
0100
0010
0100
,
0010
0000
0110
0000
1000
1000
0001
0001
,
0100
0000
0001
0000
0011
0000
0000
0000
1000
0100
0000
1000
0001
0000
0100
0000
,
0010
1000
0010
1000
0001
0100
0001
0010
,
0100
0000
0100
0000
0110
0000
0000
0000
0010
0001
0000
0010
0100
0000
1000
0000
,
0001
0001
0101
0000
0001
0100
1000
0100
,
0001
0000
0010
0000
1100
0000
0000
0000
1000
0100
0000
0001
0100
0000
1000
0000
,
0001
0100
0010
2000
0001
0001
3001
0020
,
0100
0000
1000
0000
1030
0000
0000
0000
0010
0001
0000
0001
0100
0000
1000
0000
,
0100
0010
0001
0010
1001
0000
0110
0100
,
0001
0100
0010
1000
0001
0010
0100
1000
,
1100
0000
0000
0011
0000
0000
1100
0000
1001
0000
0000
0000
1000
0000
0100
0000
,
0010
1000
0001
0100
1000
0001
0100
1000
,
0100
0110
0001
0110
1001
0000
1000
0010
,
1000
0010
0100
0001
1000
0100
0010
0001
,
0011
0000
0000
1100
0000
0000
0011
0000
1001
0000
0000
0000
0001
0000
0010
0000
,
1000
0010
0001
0200
0320
0000
2030
0000
,
3002
0203
1300
1100
,
0001
0000
0101
0000
0000
1002
0000
1003
,
0001
0100
1000
0100
0001
0000
0000
1100
,
0000
0101
0000
1100
0000
0002
0023
0230
,
0302
0203
0320
0000
1030
0000
1010
0000
,
0001
0000
0011
0000
0000
2001
0000
3001
,
1000
0100
0001
0100
1000
0000
0000
0011
,
0000
1010
0000
0012
0000
1000
1003
0000
,
1001
0000
0110
0000
1001
0000
0001
0010
,
0100
1000
0001
2000
0001
3002
1000
1003
,
1001
0000
0110
0000
1001
0000
0001
1000
,
0010
0001
0010
0100
0001
0010
0100
0001
,
0100
0000
1001
0000
0110
0000
0001
1000
,
0010
0100
1000
0001
1000
0100
1000
0100
,
2000
0000
3200
0000
0302
0000
1003
0001
,
0010
1000
0010
0100
1000
0010
0100
1000
,
0100
0000
1001
0000
0110
0000
1000
0001
,
0010
0100
0001
1000
0001
0100
0001
0100
,
0010
0001
0100
0010
2000
0000
3020
0100
,
0000
0100
0000
0130
0002
0000
0023
0100
,
0000
0100
0000
0130
2000
0000
3020
0100
,
0000
0100
0000
0130
0002
0000
0023
0100
,
0000
0100
0000
0130
0000
0000
0000
0000
;

//--------------- dance-single - ----------------
#NOTES:
     dance-single:
     :
     Hard:
     15:
     0.82209,0.89054,0.793486,0.482024,0.341125,776,669,107,65,0,0,0.82209,0.89054,0.793486,0.482024,0.341125,776,669,107,65,0,0:
0000
0000
0000
0000
,
0000
0000
0000
0000
,
0000
0000
0000
0000
,
2001
0000
0000
0000
3001
0000
0100
0000
0001
0000
1000
0100
1000
0000
0010
0000
,
1000
0100
0010
0001
0011
0000
1100
0000
,
0012
0000
0000
0000
1003
0000
0010
0000
1000
0000
0001
0100
0001
0000
1000
0000
,
0010
0100
0010
0100
0010
0000
0110
0000
,
1002
0000
0000
0000
1003
0000
0100
0000
1000
0000
0001
0100
0001
0000
0010
0000
,
0001
0100
0010
1000
1010
0000
0101
0000
,
2010
0000
0000
0000
3001
0000
0010
0000
0001
0000
1000
0100
1000
0000
0001
0000
,
0010
0100
0010
0100
0010
0000
0110
0000
,
1001
0000
0000
0000
0100
0000
0001
0000
0010
0000
0000
0000
0100
1000
0200
0000
,
0000
0000
0310
0000
0001
1000
0001
0000
0101
0000
0000
0000
1020
0000
0000
0000
,
0230
0000
0000
0000
0301
0000
0010
0001
0010
0000
0100
0010
0100
0000
2000
0000
,
0000
0000
0001
0000
3002
0000
0000
0000
0103
0001
0100
0001
1000
0010
1000
0010
,
0100
0000
0010
0000
1000
0000
0001
0000
0012
0000
0000
0000
0013
0000
0100
1000
,
0000
0000
1000
0010
0100
0000
0001
0000
0102
0000
0000
0000
0103
0000
0001
0000
,
1000
0000
1000
0100
0001
0100
0010
0200
,
0000
1300
2000
0000
3020
0000
0230
0300
,
0101
0100
0001
0100
0110
0010
0100
0010
,
1010
0000
1000
0000
0010
0000
1000
0000
1001
0000
0000
0011
0000
0000
0110
0000
,
1100
1000
0100
1000
1001
0001
1000
0001
,
0101
0000
0001
0000
0010
0000
0100
0000
0110
0000
0000
1100
0000
0000
0101
0000
,
1010
0010
1000
0010
0110
0100
0010
0100
,
0101
0000
0001
0000
1000
0000
0001
0000
0011
0000
0000
1100
0000
0000
0110
0000
,
0011
0001
0010
0001
0101
0100
0001
0100
,
0020
1000
0230
0001
2300
0010
3002
0100
,
0023
0000
0000
0000
0000
0000
0000
0030
,
0110
0110
0110
0000
1001
0000
0101
0001
,
2000
0000
0000
0100
0000
0000
0010
3000
0100
0000
0001
0000
0010
0000
1000
0000
,
0020
0000
0000
0001
0000
0000
0130
0000
1100
0000
0000
0000
1010
0000
1000
0000
,
0020
0000
0000
0100
0000
0000
1000
0030
0010
0000
0001
0000
0010
0000
0100
0001
,
2000
0100
3002
0100
1003
0000
1001
0001
,
0200
0000
0000
0001
0000
0000
1300
0000
0100
0000
0001
0000
0010
0000
0100
0000
,
2000
0000
0000
0001
0000
0000
3100
0000
0110
0000
0000
0000
0010
0000
0100
0000
,
1001
0010
0100
0010
0110
0000
1001
0000
,
0110
0000
0000
0000
1002
0000
0000
0000
1003
0010
1000
0000
1000
0100
1000
0000
,
0001
0010
0001
0000
0001
0100
0001
0000
0010
0000
2001
0000
0000
0000
3001
0000
,
1000
0100
0001
0100
1000
0001
1000
0101
,
0000
1100
0000
0101
0000
2000
3200
0320
,
0032
0000
0023
0000
0230
0000
0300
0000
1000
0100
1000
0000
1000
0010
1000
0000
,
0001
0100
0001
0000
0001
0010
0001
0000
0100
0000
1002
0000
0000
0000
1003
0000
,
0001
0100
1000
0100
0001
1000
0001
1100
,
0000
0101
0000
2100
0000
0001
3001
0000
,
1010
0000
0101
0000
1001
0000
0001
0010
,
0100
1000
0001
0200
0010
0010
0010
0310
,
0110
0000
1010
0000
1002
0000
1003
0001
,
1000
0000
0100
0010
0100
0000
0001
0000
0100
0000
1000
0000
0010
0000
0100
0001
,
0010
0000
1001
0000
2001
0000
3001
0100
,
0010
0000
1000
0100
1000
0000
0001
0000
0010
0000
0100
0000
0010
0000
0100
1000
,
0010
0000
0110
0000
2001
0000
3001
1000
,
0001
0000
0100
0010
0100
0000
1000
0000
0100
0000
0001
0000
0010
0000
0100
1000
,
0010
0000
1001
0000
1002
0000
1003
0100
,
0010
0000
0001
0100
0001
0000
1000
0000
0010
0000
0100
0000
0010
0000
0100
0001
,
0010
0000
0000
0000
0110
0000
0000
0000
0100
1000
0100
1000
0001
1000
0001
0000
,
0100
0000
0001
0000
0011
0000
0010
0000
0100
1000
0000
0100
0010
0000
0001
0000
,
1000
0000
1000
0000
0001
0000
0001
0000
0100
0001
0100
0001
0100
0001
0010
0000
,
0100
0000
1000
0000
1001
0000
0001
0000
0010
0001
0000
0010
0100
0000
0010
0000
,
0100
0000
1000
0000
1010
0000
0010
0000
0100
0001
1000
0100
1000
0001
0100
0000
,
0010
0000
0010
0000
1001
0000
0001
0000
1000
0100
0010
0001
1000
0001
0010
0100
,
1000
0001
1000
0002
1000
1000
1003
0200
,
0310
0000
0110
0000
0110
0000
0000
0000
1000
0100
0000
0001
0100
0000
1000
0000
,
0001
0000
0010
0000
0100
0000
1000
0000
1001
0000
0001
0000
0100
0010
0100
0000
,
1000
0100
0010
1000
0001
0010
0100
1000
,
1100
0000
0000
0011
0000
0000
1100
0000
1001
0000
0000
0000
1000
0010
0100
0000
,
0010
0000
1000
0000
0001
0000
0010
0000
1000
0000
0001
0000
0100
0000
1000
0010
,
0100
0000
0101
0000
1000
0000
1010
0000
0110
0000
0000
0000
0100
0001
0010
0000
,
0100
0010
0100
0010
0001
0001
1000
1000
,
0110
0000
0000
1010
0000
0000
0101
0000
1001
0000
0000
0000
1000
0000
0010
0000
,
0100
0010
1000
0002
0023
0000
0230
0000
,
2300
0000
0000
0000
3020
0000
0000
0000
0130
1000
0100
0000
0010
1000
0010
0000
,
0100
0001
0100
0000
0010
0001
0010
0000
0100
0000
1001
0000
0000
0000
1000
0000
,
0001
0000
0010
0100
0001
0000
0001
0100
2000
0000
3100
0000
0000
0000
0011
0000
,
0000
1010
0000
0011
0000
1000
0100
0010
,
0001
0000
0010
0000
0200
0000
0000
0000
0310
1000
0010
0000
0100
1000
0100
0000
,
0010
0001
0010
0000
0100
0001
0100
0000
0010
0000
1001
0000
0000
0000
0001
0000
,
0100
0010
1000
0010
0100
0001
0000
0011
,
0000
1010
0000
0012
0000
1000
1003
0000
,
1010
0000
0110
0000
1001
0000
1000
0100
,
0010
0001
1000
0002
1000
2003
0001
3001
,
1001
0000
0110
0000
1001
0000
0001
1000
,
0010
0000
0001
0010
0100
0000
0001
0000
1000
0100
1000
0000
0001
0010
0100
1000
,
0001
0010
0011
0000
1100
0000
1000
0010
,
0100
0000
1000
0100
0010
0000
1000
0000
0001
0010
0100
0010
0001
0010
0100
0010
,
0002
0000
2003
0000
3020
0000
0130
0001
,
1000
0000
0100
1000
0010
0000
0100
0000
1000
0100
0001
0000
0010
0001
0100
0010
,
1000
0100
1100
0000
0011
0000
1000
0010
,
0100
0000
0001
0010
0100
0000
0001
0000
0100
1000
0100
0010
0100
1000
0100
0010
,
0001
0010
0100
1000
1002
0000
0023
0100
,
0000
0100
0000
0130
2000
0000
3020
0100
,
0000
0100
0000
0130
0002
0000
0023
0100
,
0000
0100
0000
0130
2000
0000
3020
0100
,
0000
0100
0000
0130
0000
0000
0000
0000
;

//--------------- dance-single - ----------------
#NOTES:
     dance-single:
     :
     Challenge:
     17:
     1.027612,1.061797,1.386747,0.348541,0.760115,970,783,187,47,20,0,1.027612,1.061797,1.386747,0.348541,0.760115,970,783,187,47,20,0:
0000
0000
0000
0000
,
0000
0000
0000
0000
,
0000
0000
0000
0000
,
2001
0000
0000
0000
3010
0000
0100
0000
0010
0000
1000
0001
1000
0000
0100
0000
,
0010
0000
0001
0000
1000
0100
0010
0001
1000
0000
0000
0000
1001
0000
0000
0000
,
1020
0000
0000
0000
0130
0000
0001
0000
1000
0000
0010
0100
0010
0000
1000
0000
,
0001
0010
0100
0010
0001
0010
0100
0010
0001
0000
0000
0000
0101
0000
0000
0000
,
2100
0000
0000
0000
3010
0000
0100
0000
0001
0000
1000
0100
1000
0000
0010
0000
,
0100
0001
0010
0000
0100
1000
0010
0100
0001
0000
0000
0000
1001
0000
0000
0000
,
1020
0000
0000
0000
0130
0000
0001
0000
1000
0000
0010
0100
0010
0000
0001
0000
,
0010
1000
0010
0100
0010
1000
0010
0100
0001
0000
0010
0000
1001
0000
0000
0000
,
1010
0000
0000
0000
0100
0000
0001
0010
0001
0000
1000
0100
0010
0100
2000
0000
,
0000
3100
0010
0001
0101
0000
1020
0000
,
0130
0000
0000
0000
0101
0000
0100
0001
1000
0010
0100
0010
1000
0000
2010
0000
,
0000
0000
0100
0000
3200
0000
0000
0000
0310
0001
1000
0100
0010
0100
1000
0001
,
0100
0000
0010
0000
1010
0000
0001
0000
0021
0000
0000
0000
0130
1000
0001
0100
,
0010
0100
0001
1000
0100
0000
0010
0000
0120
0000
0000
0000
0130
0000
1000
0000
,
0001
0000
0000
0000
0101
0000
1000
0000
0001
0000
0100
0010
1000
0010
2000
0000
,
0000
3100
1100
0000
0110
0000
0011
0000
,
0101
0000
0100
0001
0010
0000
0100
0000
0110
0000
0100
1000
0001
0000
0100
0000
,
0101
0000
0001
0100
0010
0000
0010
1000
1100
0000
0000
0011
0000
0000
1100
0000
,
1001
0000
1000
0010
0100
0000
0010
0000
0110
0000
0100
0001
0010
0000
0100
0000
,
1000
0001
0010
0001
1000
0010
0100
0010
0110
0000
0000
1010
0000
0000
0101
0000
,
0110
0000
0010
1000
0001
0000
0010
0000
1100
0000
0100
1000
0001
0000
0010
0000
,
0100
1000
0001
0100
0010
0001
0010
0100
0101
0000
0000
0011
0000
0000
1100
0000
,
1001
0000
0001
0010
0100
0000
1000
0000
1001
0000
1000
0010
0100
0000
0001
0000
,
2010
3001
2100
3001
0012
1003
0102
1003
,
0220
0000
000M
M000
000M
M000
000M
M330
,
0110
0110
0110
0000
0011
0000
0011
0100
,
1010
0000
0000
0110
0000
0000
0101
0000
0110
0000
0001
0000
1000
0000
0010
0000
,
1010
0000
0000
0101
0000
0000
1010
0000
1001
0000
0000
0000
0011
0000
0100
0000
,
1010
0000
0000
0000
0000
0000
0000
0000
0000
0110
0000
0000
0000
0000
0000
0000
0000
0000
0101
0000
0000
0000
0000
0000
0011
0000
0000
0000
0000
0000
0100
0000
0000
0000
0000
0000
1000
0000
0000
0000
0000
0000
1000
0000
0100
0000
0010
0000
,
0001
0001
1010
1000
1001
0000
1010
0010
,
0101
0000
0000
0011
0000
0000
1010
0000
1100
0000
0010
0000
0001
0000
0010
0000
,
1100
0000
0000
0011
0000
0000
1100
0000
0110
0000
0000
0000
1001
0000
0100
0000
,
1001
0000
0000
1010
0000
0000
0101
0000
0011
0000
0000
0000
1010
0000
0000
0000
,
1100
0000
0000
0000
0001
0100
0001
0100
0010
1000
0010
0100
1000
0100
0010
1000
,
0100
0001
0100
0010
0001
0010
0100
1000
0001
0000
2001
0000
0000
0000
3001
0000
,
1000
0010
1000
0010
0100
0000
0100
0001
1000
0000
0001
0000
0010
0000
0011
0000
,
0000
0000
1010
0000
0000
0000
0011
0000
0000
0000
1001
0000
1000
0010
0100
0000
,
1000
0100
0001
0000
0010
0000
0110
0000
0100
1000
0100
0010
1000
0010
0100
1000
,
0010
0001
0010
0100
0001
0100
0010
1000
0001
0000
2001
0000
0000
0000
3100
0000
,
1000
0010
1000
0010
0100
0000
0100
0001
0020
0000
0130
0000
0000
0000
1100
0000
,
0000
0101
0000
2100
0000
0001
3001
0000
,
1010
0000
0101
0000
1001
0000
00M2
0M23
,
M230
230M
30M2
0013
0110
0110
0110
0110
,
0110
0000
1100
0000
1002
0000
0103
0001
,
1000
0000
0100
0010
0100
0000
0001
0000
0100
0010
0100
0000
1000
0010
0100
0001
,
1000
0000
1001
0000
0012
0000
1003
0010
,
0100
0000
0010
1000
0001
0000
0010
0000
0100
1000
0100
0010
0100
1000
0100
0010
,
0001
1000
1100
0000
2001
0000
3100
1000
,
0001
0000
0100
0010
0100
0000
1000
0000
0100
0010
0100
0000
0001
0010
0100
1000
,
0001
0000
1001
0000
2010
0000
3001
0010
,
0100
0000
0010
0001
1000
0000
0010
0000
0100
0001
0100
0010
0100
0001
0100
0010
,
1000
0000
0001
0000
0101
0000
0000
0000
0002
0010
0203
1000
0320
0100
0031
0000
,
1010
0000
0000
0101
0000
0000
1010
0000
0000
1000
0000
0000
0001
0100
0001
0000
1000
0100
1000
0000
0000
0001
0000
0000
,
1001
0000
0011
0000
1001
0000
1010
0000
2000
0001
3020
0001
0230
0010
1300
0000
,
1010
0000
0000
1010
0000
0000
0101
0000
0000
0001
0000
0000
1000
0100
1000
0000
0001
0100
0001
0000
0000
0010
0000
0000
,
1100
0000
1001
0000
0101
0000
0010
0000
2000
0100
3020
0001
0230
0010
1300
0000
,
1MM1
0000
0010
0000
1001
0000
0001
0000
1000
0100
0010
0100
0010
0001
0100
0010
,
1010
0100
0101
0200
1000
1000
1300
0200
,
0301
0000
0000
0011
0000
0000
0011
0000
0000
0000
0000
0000
0100
1000
0010
0000
0100
0001
0010
0000
0000
0100
0000
0000
,
1000
0000
0011
0000
0110
0000
1100
0000
1001
0000
0010
0000
0110
1000
0001
0000
,
0011
0000
0000
1100
0000
0000
0011
0000
1010
0000
1010
0100
0001
0000
0001
0010
,
0110
0000
0000
0011
0000
0000
1100
0000
0011
0000
0000
0000
1001
0000
0101
0010
,
1000
0000
0000
0000
0000
0000
0000
0000
0000
1010
0000
0000
0000
0000
0000
0000
0000
0000
0101
0000
0000
0000
0000
0000
0010
0000
0000
0000
0000
0000
1000
0000
0000
0000
0000
0000
0010
0000
0000
0000
0000
0000
0100
0000
0001
0000
1000
0000
,
0001
0000
0101
0000
1000
0000
1100
0000
0110
0000
0000
0000
1100
0000
1001
0010
,
0100
0000
0000
1100
0000
0000
1010
0000
0101
0000
0100
0000
0001
0000
0010
0000
,
0110
0000
0000
0011
0000
0000
1100
0000
1001
0000
0000
0000
1010
0000
0010
0000
,
0110
0000
0000
1001
0000
0000
0110
0000
1000
0000
0001
0000
1000
0000
0001
0000
,
0100
0000
0010
0000
0100
0001
0100
0001
0010
0100
1000
0010
0100
1000
0100
0010
,
0001
0010
0100
0001
0010
0100
0001
0100
1000
0000
0002
0000
0000
0000
0103
0000
,
0001
1000
0010
0100
0001
0000
1000
0100
0020
0000
0130
0000
0000
0000
0011
0000
,
0000
0000
1010
0000
0000
0000
0011
0000
0000
0000
1000
0100
0010
0001
1000
0001
,
0010
0100
1000
0010
0001
0000
0010
0000
0100
0010
1000
0100
0010
1000
0010
0100
,
0001
0100
0010
0001
0100
0010
0001
0010
1000
0000
0010
0000
0000
0000
1000
0000
,
0100
0010
0001
0000
0001
0010
0100
1000
1001
0000
0100
0000
0000
0000
1010
0000
,
0000
0011
0000
2010
0000
0001
3001
0000
,
0011
0000
0110
0000
1001
0000
2M00
32M0
,
032M
M032
2M03
31M0
1100
1100
0011
0011
,
1001
0000
0110
0000
1001
0000
0001
1000
,
0010
0100
0001
0010
0100
1000
0100
1000
0001
0100
0001
0100
0010
1000
0001
0100
,
0010
1000
1001
0000
1001
0000
1000
0001
,
0010
0100
1000
0010
0100
0001
0100
0001
1000
0100
0001
0100
1000
0100
0001
0100
,
1100
0000
0011
0000
1001
0000
0001
1000
,
0100
0010
0001
0100
0010
1000
0010
1000
0001
0010
0001
0010
0100
1000
0001
0010
,
0100
1000
1001
0000
1001
0000
1000
0001
,
0100
0010
1000
0100
0010
0001
0010
0001
1000
0010
0001
0010
1000
0010
0001
0010
,
1000
0010
0100
0001
2001
0000
3020
0100
,
0000
0100
0000
0130
1002
0000
0023
0100
,
0000
0100
0000
0130
2001
0000
3020
0100
,
0000
0100
0000
0130
1002
0000
0023
0100
,
0000
0100
0000
0130
0000
0000
0000
0000
;
