#TITLE:KICK BACK;
#SUBTITLE:;
#ARTIST:米津玄師;
#TITLETRANSLIT:KICK BACK;
#SUBTITLETRANSLIT:;
#ARTISTTRANSLIT:Yonezu Kenshi;
#GENRE:Anime;
#CREDIT:;
#MUSIC:KICK BACK.ogg;
#BANNER:KICK BACK.png;
#BACKGROUND:KICK BACK-bg.png;
#CDTITLE:;
#SAMPLESTART:52.080;
#SAMPLELENGTH:9.706;
#SELECTABLE:YES;
#OFFSET:0.567;
#BPMS:0.000=204.000;
#STOPS:;
#BGCHANGES:1.750=KICK BACK.avi=1.000=0=0=0=StretchNoLoop====,
99999.000=-nosongbg-=1.000=0=0=0=StretchNoLoop====
;
#FGCHANGES:;

//--------------- dance-single - ----------------
#NOTES:
     dance-single:
     :
     Medium:
     13:
     0.781532,0.886496,0.821164,0.466066,0,493,419,74,42,0,0,0.781532,0.886496,0.821164,0.466066,0,493,419,74,42,0,0:
0000
0000
0000
0000
,
0101
0000
0100
0001
1000
0100
0000
0011
,
0000
1100
0000
1010
0000
0010
1000
0001
,
0010
0000
0100
1000
0001
0100
0000
1010
,
0000
0101
0000
0100
0001
1000
0020
0000
,
0130
0000
0001
1000
0100
0010
0000
1100
,
0000
0011
0000
0010
0001
1000
0001
1000
,
1100
0000
0001
1000
0010
0100
1000
0001
,
1000
0100
0001
0010
1000
0001
1000
0010
,
0011
0000
0001
1000
0010
0000
0100
0001
,
0010
0100
2000
0000
3010
0000
0110
0000
,
1001
0000
1000
0001
0100
0000
0010
1000
,
0100
0010
0002
0000
1003
0000
0201
0000
,
0310
0000
0010
1000
0001
0000
0010
0100
,
1000
0001
0200
0000
2300
0000
3100
0010
,
0100
0001
0100
0001
1000
0100
1000
0100
,
0020
0032
2003
3020
0230
0302
0023
0230
,
1300
0000
1001
0000
0001
0100
0000
0010
,
0000
1000
0100
0010
0100
1000
0001
0101
,
0000
1100
0000
1001
0000
0001
0100
0000
,
0010
1000
0100
0010
0000
0100
1000
0001
,
0101
0000
1010
0000
1000
0100
0000
0110
,
0000
0010
0001
1001
0000
1000
0010
0110
,
0000
0100
0001
0011
0000
0010
0100
1100
,
0000
0110
0000
0011
0000
1001
0000
1000
,
0010
0100
0000
0001
0010
0100
0000
1001
,
0000
1000
0010
1000
0100
2000
0000
3020
,
0000
0130
0001
0010
0100
0010
0001
0200
,
0000
0320
2030
3200
0302
2003
3020
0032
,
0103
0000
1001
0000
0100
0010
0100
0010
,
1001
0000
0101
0001
2000
0000
3002
0000
,
0013
0001
0100
0010
1000
0001
0010
0200
,
0000
1300
0010
0001
0010
1000
0100
0010
,
0011
0000
0001
0100
0001
0100
0001
0000
,
1000
0100
0000
0001
0100
0000
1000
0000
,
1001
0000
0100
0010
0100
0000
0110
0000
,
0010
1000
0000
0001
0010
0100
1000
0001
,
0100
0001
0010
0000
1100
0000
0011
0000
,
0001
0010
0000
1000
0010
0000
0002
0000
,
2003
3020
0230
0302
,
2003
0010
3002
0010
,
0203
0010
0302
0010
,
2003
0010
0002
0000
,
0000
0000
0000
0000
,
3003
0000
0000
0110
,
1001
0000
1000
0000
0001
0010
0100
1000
,
0010
0100
0010
0100
0001
1000
1100
0000
,
1000
0001
0101
0000
0001
1000
1010
0020
,
0000
0130
0001
1000
0100
0010
1100
0000
,
1000
0100
0001
0000
0001
0100
1000
0010
,
0001
0000
0001
0010
1000
0000
1001
0000
,
0001
0100
1000
0100
0001
0001
0010
0010
,
0100
0100
1000
1000
0001
0001
0100
0100
,
0110
0000
1001
0000
1000
0100
0010
0100
,
1000
0010
0001
0010
0100
0001
1000
0000
,
0110
0000
1001
0000
1000
0100
1000
0100
,
0010
0100
1000
0010
0001
1000
0100
0001
,
0010
1001
0101
1001
,
0101
0000
0011
0000
0001
1000
1100
0000
,
0110
1001
1100
1001
,
1100
0000
1010
0000
1000
0001
0110
0000
,
0101
0001
0100
0001
1001
1000
0100
1000
,
1010
0010
0100
0010
0110
0100
0001
1000
,
1002
0000
0100
0000
1000
0000
0103
0001
,
0020
0000
0000
0000
0130
1000
0001
0010
,
1100
0000
1000
0010
0100
0000
0100
0001
,
0010
0100
1000
0010
0100
0001
1001
0000
,
1001
0000
0001
0010
0100
0000
0100
1000
,
0010
0100
0001
0010
0100
1000
0020
0000
,
0130
0000
1001
0000
0001
0100
0010
0100
,
1000
0001
0010
0100
0010
1000
0001
0010
,
1100
0000
1000
0100
0010
0001
1000
1001
,
0000
0110
0000
1001
0000
0110
0000
0000
;

//--------------- dance-single - ----------------
#NOTES:
     dance-single:
     :
     Hard:
     16:
     0.944814,1.047678,0.776777,0.266323,0.388388,596,526,70,24,0,0,0.944814,1.047678,0.776777,0.266323,0.388388,596,526,70,24,0,0:
0000
0000
0000
0000
,
0101
0000
0001
0010
0100
1000
0000
1100
,
0000
0101
0000
1100
0000
1000
0010
0100
,
0001
0000
1000
0100
0010
0001
0000
0011
,
0000
1010
0000
0011
0001
1000
0020
0000
,
0130
0000
0100
0001
1000
0100
0000
0110
,
0000
1001
0000
0001
1000
0010
0100
0010
,
0110
0000
0100
0001
0010
0100
1000
0001
,
1000
0100
1000
0000
0001
0100
0001
0000
1000
0100
0010
0001
1000
0000
0010
0000
,
1010
0000
0000
0000
0101
0000
0100
0000
0001
1000
0001
0000
0010
0000
0100
0000
,
1000
0000
0010
0000
0001
0000
1000
0000
0100
0001
0010
0000
0100
0000
1000
0000
,
1100
0000
0000
0000
0011
0000
0001
0000
0100
0010
0100
0000
1000
0000
0001
0000
,
0010
0000
1000
0000
0100
0000
0010
0000
0001
0100
0010
0000
1000
0000
0010
0000
,
1010
0000
0000
0000
0101
0000
0100
0000
0001
1000
0001
0000
0010
0000
0100
0000
,
1000
0000
0001
0000
0010
0000
1000
0000
0001
0100
0010
0000
0001
0000
0010
0000
,
0100
1000
0100
1000
0001
0100
0001
0100
,
0020
2030
3200
0320
0032
0203
0320
2030
,
3100
0000
1001
0000
0001
0100
0001
2000
,
0000
0000
3100
0000
0001
0000
0100
0010
0000
0001
1000
0000
0010
0000
1010
0000
,
0000
0000
0101
0000
0100
0000
0001
0010
0100
0000
1000
0000
0001
0000
1000
0010
,
0100
0000
0001
0000
0010
0000
0100
1000
0000
0001
0100
0000
0010
0000
1000
0000
,
1100
0000
1001
0000
0001
0100
1000
1100
,
0000
0000
0100
0000
0001
0000
0011
0000
0000
0000
0001
0000
0010
0000
0100
1000
,
0010
0000
0001
0000
1000
0000
0100
0001
0010
0000
0100
0000
1000
0000
0001
0010
,
0001
0000
1000
0100
1000
0000
0010
1000
0001
0000
0200
0000
0000
0000
0310
0000
,
1000
1100
0000
0010
0001
0101
0000
0110
,
0000
0000
1000
0000
0001
0000
1000
0000
0100
0000
1000
0001
0100
0000
0020
0000
,
0000
0000
0130
0000
0001
0000
0010
0000
0100
0000
1000
0100
1000
0000
0002
0000
,
0000
0203
2300
3200
0302
0023
0230
2300
,
3001
0000
0000
0000
1010
0000
0000
0000
0101
0000
0001
0000
0010
0000
0100
1000
,
0001
0000
0000
0000
0011
0000
0010
0000
0100
0000
1000
0001
0100
0000
0010
0000
,
1000
0000
0001
0010
0100
0000
0010
0100
1000
0000
0001
0010
0100
1000
0002
0000
,
0000
1003
0010
0100
0010
0001
0010
1000
,
1100
0000
0011
0000
,
0001
0100
0000
1000
0100
0000
0001
1000
,
1001
0000
0110
0000
,
1000
0100
0000
0001
0100
0000
1000
0001
,
0110
0000
1001
0000
,
0001
0000
0010
0000
0000
0000
1000
0000
0010
0000
0000
0000
0001
0000
1000
0010
,
0100
1000
0100
0010
1000
0100
0010
0001
,
1000
0000
0001
0000
0100
0000
1000
0000
0001
0000
1000
0000
0100
0000
0001
0010
,
1000
0000
0000
0010
0000
0000
0001
0000
0000
1000
0000
0000
0001
0000
0000
0100
0000
0000
0010
0000
1000
0000
0100
0000
,
1000
0001
0100
0001
0010
0100
2000
0000
0000
0000
0000
0000
,
0000
0000
0000
0000
,
3000
0000
0000
0110
,
1001
0000
0001
0000
1000
0000
0010
0100
0001
0000
0010
0000
1000
0000
0010
0000
,
0001
0001
1000
1000
0010
0100
0110
0000
,
1000
0001
0011
0000
0001
1000
1010
0020
,
0000
0000
1030
0100
0010
0000
0100
1000
0001
0000
0100
0000
0110
0000
0000
0000
,
0100
0001
0010
0000
0010
0001
1000
0010
,
0001
0000
0001
0010
1000
0000
1001
0000
,
1100
1000
0011
0001
1010
1000
0101
0001
,
1001
0000
1000
0010
0100
0000
0010
0000
1000
0100
0010
0001
1000
0000
0000
0000
,
0010
0000
0100
0000
1001
0000
0001
0000
0010
0000
0100
1000
0001
0000
0100
0000
,
1000
0000
0100
0001
1000
0000
0100
0000
0001
0000
0100
1000
0001
0000
0000
0000
,
1001
0000
0000
0000
0110
0000
0000
0000
0001
0000
1000
0010
1000
0000
0100
1000
,
0001
0000
0010
0001
1000
0000
0001
0100
0010
0100
0010
0100
1000
0000
0000
0000
,
0100
0000
1001
0000
0001
0010
0110
0000
,
0100
1000
1100
0001
0101
1000
1001
0000
,
0010
0000
1001
0000
1000
0010
1010
0000
,
0101
0000
0000
0001
0010
0000
0100
0000
0100
1000
0000
1000
0001
0000
0100
0000
,
0101
0000
0001
0100
0001
0000
0100
0001
1000
0000
0100
1000
0100
0000
0010
0001
,
1000
0000
0010
1000
0001
0000
1000
0100
0010
0001
1000
0100
0010
0001
1000
0100
,
0010
0000
1001
0000
1001
0001
0100
0001
,
0020
0000
0000
0000
0130
1000
0001
0010
,
1100
0000
0000
0000
1000
0000
0010
0000
0100
0001
0100
0000
0010
0000
1000
0000
,
0100
0000
0001
0000
1000
0000
0010
0000
0001
0100
0010
0000
0110
0000
0000
0000
,
1001
0000
0000
0000
0001
0000
0100
0000
0010
1000
0010
0000
0100
0000
0001
0000
,
0010
0000
1000
0000
0001
0000
0100
0000
1000
0010
0100
0000
0010
0000
0100
0001
,
0010
0000
0000
0000
0110
0000
0100
0000
1000
0001
1000
0000
0010
0000
0010
0000
,
0100
0000
0010
0000
1000
0000
1000
0000
0001
0010
0100
0000
1000
0000
0010
0000
,
0110
0000
1000
0001
0001
1000
0100
0011
,
0000
0101
0000
1100
0000
1001
0000
0000
;

//--------------- dance-single - ----------------
#NOTES:
     dance-single:
     :
     Challenge:
     18:
     1.206382,1.289449,1.032003,0.155355,0.976519,761,668,93,14,0,0,1.206382,1.289449,1.032003,0.155355,0.976519,761,668,93,14,0,0:
0000
0000
0000
0000
,
0101
0000
0001
0010
0001
0100
0000
1010
,
0000
0101
0000
1100
0000
0001
0010
0100
,
1100
0000
1000
0010
1000
0100
0000
0011
,
0000
0000
1100
0000
0000
0000
0101
0000
1000
0000
0001
0100
0020
0000
0000
0000
,
1030
0000
0001
0010
0001
0100
0000
1010
,
0000
0000
1100
0000
0000
0000
1000
0001
0100
0000
0010
0000
1000
0001
0010
0000
,
0110
0000
0000
0000
1001
0000
0001
0000
1000
0010
1000
0010
0100
0000
0010
0000
,
1000
0001
1000
0001
0010
0000
0001
0000
0010
0100
0010
0100
1000
0000
0001
0000
,
0101
0000
0000
0000
1100
0000
1000
0100
0010
0001
1000
0000
1010
0000
0010
0000
,
0100
0000
0010
0000
0101
0000
1000
0000
0001
1000
0100
0000
1100
0000
0000
0000
,
1001
0000
0000
0000
0101
0000
0001
0100
0010
1000
0001
0000
0011
0000
0010
0000
,
0100
0000
1000
0000
0101
0000
1000
0000
0001
0100
0010
0000
2001
0000
0000
0000
,
3100
0000
0000
0000
0011
0000
0001
0010
0100
1000
0001
0000
0101
0000
0100
0000
,
0010
0000
1000
0000
0101
0000
0001
0000
1000
0100
0010
0000
0110
0000
0000
0000
,
1001
0000
1000
0000
0001
0000
1000
0010
0100
0010
0001
0000
1000
0000
0100
0001
,
2000
0000
3200
0000
0310
0001
1000
0000
0010
0000
0100
0001
0010
0100
1000
0100
,
0010
0000
0000
0000
1001
0000
1000
0010
0100
0000
0010
0000
0101
0000
0002
0000
,
0000
0000
0103
0000
0010
0000
0100
0001
0000
0001
1000
0000
1100
0000
0100
0000
,
0010
0001
1000
0000
1000
0000
0010
1000
0001
0000
0001
0000
1000
0000
1000
0010
,
0100
0000
0000
0000
0000
0000
0100
0000
0000
0001
0000
0000
0010
0000
0000
0100
0000
0000
1000
0000
0000
0000
0000
0000
0001
0000
0100
0000
0001
0000
0100
0000
0000
0000
0000
0000
0010
0000
0000
0000
0000
0000
0010
0000
0000
1000
0000
0000
,
0001
0000
0000
0000
1001
0000
0001
1000
0100
1000
0001
0000
0100
0000
0010
0100
,
0010
0000
1000
0000
0001
0000
0010
0100
0010
0000
0001
0000
0100
0000
0010
1000
,
0010
1000
0001
0000
1001
0000
1000
0100
1000
0100
0010
0000
0110
0000
0100
1000
,
0010
0000
0100
0001
0010
0000
0100
1000
0010
0000
0200
0000
0000
0000
0301
0000
,
1000
0000
1100
0000
0000
0000
1000
0000
0001
0000
0101
0000
0000
0000
1000
0100
,
0010
0001
1000
0000
0001
0000
1000
0100
0010
0100
1000
0001
0010
0100
0010
0001
,
1000
0000
0010
0000
0100
0000
0010
1000
0001
0010
0100
0010
0001
1000
0020
0000
,
0000
0000
0230
0000
0301
0100
0010
0100
0001
0010
0100
1000
0010
0100
0010
1000
,
0001
0000
0000
0000
1010
0000
0010
0100
0010
0100
0001
0000
1001
0000
1000
0100
,
0010
0000
0001
0010
0100
1000
0001
1000
0100
0010
0001
0000
1000
0000
0001
0100
,
0001
0000
1000
0000
0001
0010
0100
1000
0001
0010
0100
1000
0001
0000
0101
0000
,
0000
1010
0100
0001
0110
1000
0001
0010
,
1100
0000
0011
0000
,
1100
1000
0001
0100
0101
0001
1000
0100
,
1001
0000
0110
0000
,
0011
0001
1000
0010
1010
1000
0001
0010
,
0110
0000
1001
0000
,
0101
0000
1001
0000
0000
0000
1100
0000
1001
0000
0001
0000
1000
0000
0010
0100
,
0010
1000
0001
1000
1100
0100
0000
0110
,
0010
0000
0001
0000
0101
0000
1000
0000
1010
0000
0010
0000
0100
0000
0010
1000
,
0001
0000
0000
0010
0000
0000
0100
0000
0000
1000
0000
0000
1001
0000
0000
0001
0000
0000
0010
0000
0100
0000
1000
0000
,
0010
0100
0001
0010
0100
2000
0002
0000
0000
0000
0000
0000
,
0000
0000
0000
0000
,
3003
0000
0000
0110
,
1001
0000
1000
0000
0100
0000
1000
0010
0100
0010
0001
0000
0010
0000
1000
0100
,
0010
0000
0001
0100
0010
0000
1000
0100
0010
0001
1000
0000
0010
0000
0100
0001
,
1000
0000
0000
0000
1001
0000
0001
0010
0100
0010
1000
0000
0001
0000
0100
1000
,
0010
0000
0010
0000
0100
0000
0010
1000
0001
0010
0100
0000
1000
0000
0001
0100
,
0001
0000
0010
0000
1000
0000
0001
0100
0001
0100
1000
0010
0001
0000
1000
0100
,
0010
0000
0100
0001
1000
0100
1000
0001
0010
0100
1000
0001
0010
0000
0001
0100
,
0001
0100
0010
1000
0100
0010
0100
1000
0010
0100
0001
0100
0001
1000
0100
0010
,
0001
0000
1000
0010
0100
0000
0001
0000
1000
0100
1000
0100
0010
0000
0100
1000
,
0001
0000
0100
0000
0101
0000
0001
0010
0100
0010
0001
1000
0010
0000
0100
0001
,
0010
0000
0100
0010
0001
0000
1000
0010
0100
0000
1000
0100
0010
0000
0100
0001
,
0010
0000
0000
0000
1001
0000
0001
0100
0001
0100
1000
0100
1000
0000
0001
0010
,
0001
0010
1000
0010
1000
0000
0001
0010
0100
1000
0001
0000
0100
0000
0010
1000
,
0001
0000
0101
0001
1100
1000
0101
0001
,
0010
0000
0100
0000
1001
0000
0001
0000
0110
0000
0100
0000
1001
0000
0001
0010
,
0100
0000
0000
0000
1100
0000
1000
0000
0101
0000
0001
0000
1001
0000
1000
0010
,
0100
0000
0000
0100
0001
0000
0001
0010
0100
1000
0000
0001
1000
0000
1000
0010
,
0100
0000
0001
1000
0100
1000
0001
0010
0100
1000
0001
0010
0001
1000
0010
0100
,
0001
0010
0001
0100
0001
1000
0010
1000
0100
1000
0010
0100
0001
0010
0100
1000
,
0010
0000
0000
0000
1001
0000
0001
0100
0000
0100
0010
1000
0100
0000
0010
0001
,
2000
0000
0000
0000
3002
0023
0230
1300
,
1001
0000
1000
0000
0010
0000
0100
0001
0010
0100
1000
0000
1100
0000
0001
0000
,
0101
0000
1000
0000
0110
0000
0001
0000
0010
0100
0010
0000
1001
0000
0000
0000
,
1001
0000
0001
0000
0100
0000
0010
1000
0100
0010
0001
0000
0011
0000
1000
0000
,
1010
0000
0001
0000
1001
0000
1000
0010
0100
0010
0100
0000
0010
0000
0100
0001
,
1000
0000
0100
0000
0011
0000
0001
0100
0010
1000
0001
0000
0101
0000
1000
0000
,
1010
0000
0010
0000
0110
0000
0100
0001
1000
0100
0010
0000
1001
0000
0100
0000
,
0110
0000
0001
0000
1000
0000
0001
0010
0100
0010
0001
0000
1000
0000
1100
0000
,
0001
0101
1000
1010
0001
0011
0000
0000
;
