#TITLE:KEMURIKUSA;
#SUBTITLE:;
#ARTIST:ナノ;
#TITLETRANSLIT:KEMURIKUSA;
#SUBTITLETRANSLIT:;
#ARTISTTRANSLIT:nano;
#GENRE:ANIME;
#CREDIT:;
#BANNER:KEMURIKUSA.png;
#BACKGROUND:KEMURIKUSA-bg.png;
#LYRICSPATH:;
#CDTITLE:;
#MUSIC:KEMURIKUSA.ogg;
#OFFSET:-4.454000;
#SAMPLESTART:67.535004;
#SAMPLELENGTH:14.152000;
#SELECTABLE:YES;
#BPMS:0.000000=143.000000
;
#STOPS:
;
#BGCHANGES:0.500=KEMURIKUSA.avi=1.000=0=0=0=====,
99999=-nosongbg-=1.000=0=0=0 // don't automatically add -songbackground-
;
#KEYSOUNDS:;
#ATTACKS:;

//---------------dance-single - ----------------
#NOTES:
     dance-single:
     :
     Hard:
     12:
     0.508058,0.565117,0.219778,0.169828,0.344652,356.000000,334.000000,22.000000,17.000000,0.000000,0.000000,0.508058,0.565117,0.219778,0.169828,0.344652,356.000000,334.000000,22.000000,17.000000,0.000000,0.000000:
0000
0000
0000
0000
,
1100
0000
0000
0100
0000
0000
0010
0000
0001
0000
0010
0000
0100
0000
1000
0000
,
1100
0000
0000
1000
0000
0000
0001
0000
0100
0000
0010
0000
0100
0000
0010
0000
,
1010
0000
0000
0100
0000
0000
0001
0000
0010
0000
0100
0000
1000
0000
0100
0000
,
1100
0000
0000
0001
0000
0000
0100
0000
0010
0000
1000
0000
0100
0000
0010
0000
,
0110
0000
0000
0100
0000
0000
0010
0000
0001
0000
1000
0000
0001
0000
0100
0000
,
0101
0000
0000
1000
0000
0000
0010
0000
0100
0000
0010
0000
1000
0000
0100
0000
,
1100
0000
0000
0001
0000
0000
0001
0000
0010
0000
0001
0000
0010
0000
0100
0000
,
0110
0000
0000
0010
0000
0000
0100
0000
1001
0000
0000
0000
0000
0000
0000
0000
,
0001
0010
0001
0000
0000
0000
1000
0100
1000
0000
0000
0000
0000
0000
0000
0000
,
1000
0100
1000
0000
0000
0000
0001
0100
0001
0000
0000
0010
0000
0000
0100
0000
,
1000
0100
1000
0000
0000
0000
0001
0100
0001
0000
0000
0000
0000
0000
0000
0000
,
0010
0100
0010
0000
0000
0000
1000
0000
0000
0000
0000
0000
1001
0000
0000
0000
,
0001
0000
0000
0100
0000
0000
1000
0000
0000
0100
0000
0000
0010
0000
0100
0000
,
0001
0000
0000
0010
0000
0000
0100
0000
0000
0001
0000
0000
0100
0000
1000
0000
,
0100
0000
0000
0010
0000
0000
0001
0000
0000
0100
0000
0000
0010
0000
0100
0000
,
0010
0000
0000
1000
0000
0000
0100
0000
0010
0000
0000
0001
0000
0000
1000
0000
,
0100
0000
0000
0100
0000
0000
0010
0000
0000
0010
0000
0000
0001
0000
0100
0000
,
1000
0000
0000
1000
0000
0000
0100
0000
0000
0100
0000
0000
0001
0000
0010
0000
,
0100
0000
0000
0100
0000
0000
1000
0000
0000
1000
0000
0000
0010
0000
0001
0000
,
0010
0000
0000
0100
0000
0000
1000
0000
0100
0000
0000
0001
0000
0000
0010
0000
,
1000
0000
0000
1000
0000
0000
0010
0000
0001
0000
0000
0100
0000
0000
1001
0000
,
0000
0000
0001
0000
0100
0000
0000
0000
0010
0000
0000
0010
0000
0000
1001
0000
,
0000
0000
1000
0000
0010
0000
0000
0000
0100
0000
0000
0001
0000
0000
0020
0000
,
1000
0000
0000
0001
0000
0000
0130
0000
1000
0000
0001
0000
1000
0000
0001
0000
,
0100
0000
0000
1000
0000
0000
0100
0000
0010
0000
0000
0001
0000
0000
0010
0000
,
1000
0000
0100
0000
0010
0000
0001
0000
0020
0000
0000
0100
0000
0000
0130
0000
,
1001
0000
0000
0010
0000
0000
0010
0000
1001
0000
0001
0000
0010
0000
0100
0000
,
1000
0000
0000
0001
0000
0000
0001
0000
0010
0000
0100
0000
1000
0000
0100
0000
,
0002
0000
0203
0000
,
2300
0000
3002
0000
,
0203
0000
0320
0000
,
2030
0000
0000
0000
3002
0000
0000
0003
,
0011
0001
0010
0100
1000
0010
0100
0000
,
1001
1000
0010
0100
0001
0010
0100
0000
,
1000
0100
0001
0100
1000
0100
0010
0010
,
0001
0100
1000
0100
0001
0100
0010
0100
,
0001
0010
0000
0010
0100
0000
0100
1000
0000
1000
0001
0000
0010
0000
0100
0000
,
1000
0000
0100
0000
0010
0000
0001
0000
1001
0000
0000
1010
0000
0000
0101
0000
,
0001
0000
0010
0000
0001
0000
0010
0000
1100
0000
0000
0011
0000
0000
1100
0000
,
1000
0000
0100
0000
0010
0000
0100
0000
2000
0000
0000
3002
0000
0000
0013
0000
,
2000
0000
0000
3002
0000
0000
0103
0000
2000
0000
0000
3002
0000
0000
0013
0000
,
0001
0000
0000
0001
0000
0000
1000
0000
0000
1000
0000
0000
0100
0000
0010
0000
,
0001
0000
0000
0001
0000
0000
1000
0000
0001
0000
0100
0000
0000
0000
0100
0000
,
0001
0000
0100
0010
0000
0010
1000
0000
0010
0000
0100
0001
0000
0001
1000
0000
,
0010
0000
0100
0010
0000
0010
0001
0000
0010
0000
1000
0000
0100
0000
0001
0000
,
0100
0000
1000
0000
0010
0000
0100
0000
0001
0000
0000
0001
0000
0000
0001
0000
,
1000
0000
0100
0000
0001
0000
0100
0000
1000
0000
1000
0100
0000
0000
0010
0000
,
0001
0000
0100
0000
1000
0000
0100
0000
0001
0000
0000
0001
0000
0000
0001
0000
,
1000
0000
0000
1000
0000
0000
1000
0000
0100
0000
0000
0100
0000
0000
0100
0000
,
0010
0000
0000
0001
0000
0000
1000
0000
0100
0000
0010
0000
0001
0000
0100
0000
,
0010
0000
0000
1000
0000
0000
0001
0000
0100
0000
0010
0000
1000
0000
0001
0000
,
0020
0000
0000
0000
0000
0000
0000
0000
0000
0000
0000
0000
0000
0000
0000
0030
,
0100
1000
0000
0001
0010
0000
0100
0000
1000
0000
0001
0000
0010
0000
1000
0000
;

//---------------dance-single - ----------------
#NOTES:
     dance-single:
     :
     Challenge:
     15:
     0.697867,0.754363,0.349647,0.239758,0.859132,489.000000,454.000000,35.000000,24.000000,0.000000,0.000000,0.697867,0.754363,0.349647,0.239758,0.859132,489.000000,454.000000,35.000000,24.000000,0.000000,0.000000:
// measure 0
0000
0000
0000
0000
,  // measure 1
0201
0000
0000
0001
0000
0000
0001
0000
0000
0001
0000
0000
0301
0000
0000
0000
,  // measure 2
1200
0000
0000
1000
0000
0000
1000
0000
0000
1000
0000
0000
1300
0000
0000
0000
,  // measure 3
0102
0000
0000
0100
0000
0000
0100
0000
0000
0100
0000
0000
0103
0000
0000
0000
,  // measure 4
2100
0000
0000
0100
0000
0000
0100
0000
0000
3100
0000
0000
1001
0000
0000
0000
,  // measure 5
1001
0000
0000
0010
0000
0000
0100
0000
0000
1000
0000
0000
0110
0000
0000
0000
,  // measure 6
1001
0000
0000
0010
0000
0000
0100
0000
0000
0001
0000
0000
1001
0000
0001
0100
,  // measure 7
0001
0000
0000
0010
0000
0000
0100
0000
0000
1000
0000
0000
1100
0000
1000
0100
,  // measure 8
1000
0000
0000
0010
0000
0000
0100
0000
1001
0000
0000
0000
0000
0000
0000
0000
,  // measure 9
0001
0100
0001
0100
0000
0000
0010
1000
0010
1000
0000
0000
0000
0000
0000
0000
,  // measure 10
0001
0010
0001
0010
0000
0000
0100
1000
0200
0000
0000
0001
0000
0000
1300
0000
,  // measure 11
1000
0100
0010
0001
0000
0000
0001
0010
0100
1000
0000
0000
0000
0000
0000
0000
,  // measure 12
0001
0100
0010
1000
0000
0000
1000
0001
0000
0000
0000
0000
1001
0000
0000
0000
,  // measure 13
0001
0000
0001
0100
0000
0100
1000
0000
1000
0100
0000
0100
0010
0000
1000
0000
,  // measure 14
0100
0000
0100
0001
0000
0001
0100
0000
0100
1000
0000
1000
0010
0100
0001
0000
,  // measure 15
0010
0000
0010
0001
0000
0001
1000
0000
1000
0010
0000
0010
0100
0000
1000
0000
,  // measure 16
0100
0000
0100
0001
0000
0001
0010
0000
0100
0000
0000
0100
1000
0100
1000
0100
,  // measure 17
1000
0000
1000
0001
0000
0001
0100
0000
0100
1000
0000
1000
0100
0000
0001
0000
,  // measure 18
0010
0000
0010
0100
0000
0100
1000
0000
1000
0001
0000
0001
0100
0000
1000
0000
,  // measure 19
0100
0000
0100
0001
0000
0001
1000
0000
1000
0100
0000
0100
0010
0000
0010
0000
,  // measure 20
0001
0000
0000
0000
0000
0000
1000
0000
0000
0000
0000
0000
0010
0000
0000
0100
0000
0000
0010
0000
0000
0000
0000
0000
0100
0000
0000
0000
0000
0000
0001
0000
0010
0000
0001
0000
0010
0000
0000
0100
0000
0000
0010
0000
0000
0100
0000
0000
,  // measure 21
1000
0000
1000
0100
0010
0000
0010
0001
0100
0000
0100
0001
0000
0000
1001
0000
,  // measure 22
0000
0000
0001
1000
0100
0020
0000
0000
0001
0000
0000
1000
0030
0000
0110
0000
,  // measure 23
0000
0000
0100
1000
0010
0200
0000
0000
0310
0000
0100
0010
0000
0100
0020
0000
,  // measure 24
0001
0000
0000
1000
0000
0000
0230
0000
0001
0000
1000
0000
1300
0100
0001
0010
,  // measure 25
0100
0000
0100
1000
0000
0000
1000
0010
0100
0000
0100
0001
0000
0001
1000
0000
,  // measure 26
1001
0000
1000
0100
0010
0100
1000
0001
0200
0000
0000
0010
0000
0000
0310
0000
,  // measure 27
1001
0000
0000
0010
0000
0000
0100
0000
1001
0000
1000
0001
0000
0001
0010
0100
,  // measure 28
1000
0000
1000
0001
0000
0000
0011
0000
0010
0001
0100
1000
0100
0001
1000
0100
,  // measure 29
0002
0000
0203
0000
,  // measure 30
2300
0000
3200
0000
,  // measure 31
0320
0000
0230
0000
,  // measure 32
2300
0000
0000
0000
3002
0000
0000
0003
,  // measure 33
0101
0000
0001
0010
0100
0000
0100
1000
0100
1000
0010
0000
0010
0100
0001
0000
,  // measure 34
1001
0000
1000
0100
0010
0000
0010
0001
0010
0001
0100
0000
0100
0001
0010
0100
,  // measure 35
1000
1100
1000
1100
1000
1100
1000
1001
,  // measure 36
0001
0000
0101
0000
0001
0000
0101
0000
0001
0000
0001
0100
0000
0001
0100
0000
,  // measure 37
0001
0010
0100
1000
0100
0000
0100
0010
0000
0010
0100
0000
1000
0100
1000
0100
,  // measure 38
1000
0000
0100
0000
0010
0000
0001
0000
1001
0000
1000
0010
0000
0100
0001
0000
,  // measure 39
0101
0000
0100
0000
0001
0010
0100
0000
1100
0000
1000
0100
0000
0010
0001
0000
,  // measure 40
0101
0000
1000
0010
0100
0001
1000
0000
0100
0000
1000
0010
0000
0100
0001
0010
,  // measure 41
2000
0000
0000
0001
0000
0000
3001
0100
2000
0000
0000
0001
0000
0000
3100
0000
,  // measure 42
0011
0000
0001
0010
0001
0010
0100
0000
0110
0000
0100
1000
0000
1000
0010
0100
,  // measure 43
0002
0000
0000
1000
0000
0000
1003
0000
0100
0000
0001
0100
0000
0100
1000
0000
,  // measure 44
1001
0000
0001
0010
0100
0010
0001
0000
0010
0000
0100
1000
0000
0100
1000
0000
,  // measure 45
1100
0000
0100
0010
0000
0100
0010
0000
0001
0010
0100
1000
0100
0010
0001
0010
,  // measure 46
0100
0000
1000
0000
0010
0000
0200
0000
1000
0000
0000
0001
0000
0000
1000
0000
,  // measure 47
1300
0000
0100
0000
0001
0000
0010
0000
0200
0000
1000
1000
0000
0000
0310
0000
,  // measure 48
0001
0000
1000
0010
0100
0010
0001
0000
0010
0000
0000
1000
0000
0000
0001
0000
,  // measure 49
0010
0000
0000
1000
0000
0000
0001
0000
0100
1000
0001
1000
0010
0100
0001
0100
,  // measure 50
0010
0000
0000
0010
1000
0000
0100
0000
0100
0001
0100
0010
0100
1000
0001
0100
,  // measure 51
1000
0000
0000
1000
0100
0000
0110
0000
0100
0010
0000
0010
1000
0100
0010
0001
,  // measure 52
2000
0000
0000
0000
,  // measure 53
3001
0100
0000
0100
0001
0000
0001
0100
1000
0001
0010
1000
0001
0010
0100
0010
;
