#TITLE:KEMURIKUSA -Full song-;
#SUBTITLE:;
#ARTIST:ナノ;
#TITLETRANSLIT:KEMURIKUSA -Full song-;
#SUBTITLETRANSLIT:;
#ARTISTTRANSLIT:nano;
#GENRE:ANIME;
#CREDIT:;
#MUSIC:KEMURIKUSA -Full song-.ogg;
#BANNER:KEMURIKUSA -Full song-.png;
#BACKGROUND:KEMURIKUSA -Full song--bg.png;
#CDTITLE:;
#SAMPLESTART:214.659;
#SAMPLELENGTH:13.007;
#SELECTABLE:YES;
#OFFSET:0.173;
#BPMS:0.000=143.000
,480.000=71.500
,496.000=143.000
;
#STOPS:;
#BGCHANGES:1.750=KEMURIKUSA -Full song-.avi=1.000=0=0=0=StretchNoLoop====,
99999.000=-nosongbg-=1.000=0=0=0=StretchNoLoop====
;
#FGCHANGES:;

//--------------- dance-single - ----------------
#NOTES:
     dance-single:
     :
     Challenge:
     16:
     0.813163,1.016865,0.444068,0.145331,0.978967,1410,1300,110,36,0,0,0.813163,1.016865,0.444068,0.145331,0.978967,1410,1300,110,36,0,0:
0000
0000
0000
0000
,
0201
0000
0000
0001
0000
0000
0001
0000
0000
0001
0000
0000
0301
0000
0000
0000
,
1200
0000
0000
1000
0000
0000
1000
0000
0000
1000
0000
0000
1300
0000
0000
0000
,
0102
0000
0000
0100
0000
0000
0100
0000
0000
0100
0000
0000
0103
0000
0000
0000
,
2100
0000
0000
0100
0000
0000
0100
0000
0000
3100
0000
0000
1001
0000
0000
0000
,
1001
0000
0000
0010
0000
0000
0100
0000
0000
1000
0000
0000
0110
0000
0000
0000
,
1001
0000
0000
0010
0000
0000
0100
0000
0000
0001
0000
0000
1001
0000
0001
0100
,
0001
0000
0000
0010
0000
0000
0100
0000
0000
1000
0000
0000
1100
0000
1000
0100
,
1000
0000
0000
0010
0000
0000
0100
0000
1001
0000
0000
0000
0000
0000
0000
0000
,
0001
0100
0001
0100
0000
0000
0010
1000
0010
1000
0000
0000
0000
0000
0000
0000
,
0001
0010
0001
0010
0000
0000
0100
1000
0200
0000
0000
0001
0000
0000
1300
0000
,
1000
0100
0010
0001
0000
0000
0001
0010
0100
1000
0000
0000
0000
0000
0000
0000
,
0001
0100
0010
1000
0000
0000
1000
0001
0000
0000
0000
0000
1001
0000
0000
0000
,
0001
0000
0001
0100
0000
0100
1000
0000
1000
0100
0000
0100
0010
0000
1000
0000
,
0100
0000
0100
0001
0000
0001
0100
0000
0100
1000
0000
1000
0010
0100
0001
0000
,
0010
0000
0010
0001
0000
0001
1000
0000
1000
0010
0000
0010
0100
0000
1000
0000
,
0100
0000
0100
0001
0000
0001
0010
0000
0100
0000
0000
0100
1000
0100
1000
0100
,
1000
0000
1000
0001
0000
0001
0100
0000
0100
1000
0000
1000
0100
0000
0001
0000
,
0010
0000
0010
0100
0000
0100
1000
0000
1000
0001
0000
0001
0100
0000
1000
0000
,
0100
0000
0100
0001
0000
0001
1000
0000
1000
0100
0000
0100
0010
0000
0010
0000
,
0001
0000
0000
0000
0000
0000
1000
0000
0000
0000
0000
0000
0010
0000
0000
0100
0000
0000
0010
0000
0000
0000
0000
0000
0100
0000
0000
0000
0000
0000
0001
0000
0010
0000
0001
0000
0010
0000
0000
0100
0000
0000
0010
0000
0000
0100
0000
0000
,
1000
0000
1000
0100
0010
0000
0010
0001
0100
0000
0100
0001
0000
0000
1001
0000
,
0000
0000
0001
1000
0100
0020
0000
0000
0001
0000
0000
1000
0030
0000
0110
0000
,
0000
0000
0100
1000
0010
0200
0000
0000
0310
0000
0100
0010
0000
0100
0020
0000
,
0001
0000
0000
1000
0000
0000
0230
0000
0001
0000
1000
0000
1300
0100
0001
0010
,
0100
0000
0100
1000
0000
0000
1000
0010
0100
0000
0100
0001
0000
0001
1000
0000
,
1001
0000
1000
0100
0010
0100
1000
0001
0200
0000
0000
0010
0000
0000
0310
0000
,
1001
0000
0000
0010
0000
0000
0100
0000
1001
0000
1000
0001
0000
0001
0010
0100
,
1000
0000
1000
0001
0000
0000
0011
0000
0010
0001
0100
1000
0100
0001
1000
0100
,
0002
0000
0203
0000
,
2300
0000
3200
0000
,
0320
0000
0230
0000
,
2300
0000
0000
0000
3002
0000
0000
0003
,
0101
0000
0001
0010
0100
0000
0100
1000
0100
1000
0010
0000
0010
0100
0001
0000
,
1001
0000
1000
0100
0010
0000
0010
0001
0010
0001
0100
0000
0100
0001
0010
0100
,
1000
1100
1000
1100
1000
1100
1000
1001
,
0001
0000
0101
0000
0001
0000
0101
0000
0001
0000
0001
0100
0000
0001
0100
0000
,
0001
0010
0100
1000
0100
0000
0100
0010
0000
0010
0100
0000
1000
0100
1000
0100
,
1000
0000
0100
0000
0010
0000
0001
0000
1001
0000
1000
0010
0000
0100
0001
0000
,
0101
0000
0100
0000
0001
0010
0100
0000
1100
0000
1000
0100
0000
0010
0001
0000
,
0101
0000
1000
0010
0100
0001
1000
0000
0100
0000
1000
0010
0000
0100
0001
0010
,
2000
0000
0000
0001
0000
0000
3001
0100
2000
0000
0000
0001
0000
0000
3100
0000
,
0011
0000
0001
0010
0001
0010
0100
0000
0110
0000
0100
1000
0000
1000
0010
0100
,
0002
0000
0000
1000
0000
0000
1003
0000
0100
0000
0001
0100
0000
0100
1000
0000
,
1001
0000
0001
0010
0100
0010
0001
0000
0010
0000
0100
1000
0000
0100
1000
0000
,
1100
0000
0100
0010
0000
0100
0010
0000
0001
0010
0100
1000
0100
0010
0001
0010
,
0100
0000
1000
0000
0010
0000
0200
0000
1000
0000
0000
0001
0000
0000
1000
0000
,
1300
0000
0100
0000
0001
0000
0010
0000
0200
0000
1000
1000
0000
0000
0310
0000
,
0001
0000
1000
0010
0100
0010
0001
0000
0010
0000
0000
1000
0000
0000
0001
0000
,
0010
0000
0000
1000
0000
0000
0001
0000
0100
1000
0001
1000
0010
0100
0001
0100
,
0010
0000
0000
0010
1000
0000
0100
0000
0100
0001
0100
0010
0100
1000
0001
0100
,
1000
0000
0000
1000
0100
0000
0110
0000
0100
0010
0000
0010
1000
0100
0010
0001
,
2000
0000
0000
0000
,
3001
0100
0000
0100
0001
0000
0001
0100
1000
0001
0010
1000
0001
0010
0100
0010
,
0001
0000
0001
0010
0000
0010
1000
0000
1000
0010
0000
0010
0100
0000
1000
0000
,
0010
0000
0010
0001
0000
0001
0010
0000
0010
1000
0000
1000
0100
0010
0001
0000
,
0100
0000
0100
0001
0000
0001
1000
0000
1000
0100
0000
0100
0010
0000
1000
0000
,
0010
0000
0010
0001
0000
0001
0100
0000
0010
0000
0000
0010
1000
0010
1000
0010
,
1000
0000
1000
0001
0000
0001
0010
0000
0010
1000
0000
1000
0010
0000
0001
0000
,
0100
0000
0100
0010
0000
0010
1000
0000
1000
0001
0000
0001
0010
0000
1000
0000
,
0010
0000
0010
0001
0000
0001
1000
0000
1000
0010
0000
0010
0100
0000
0100
0000
,
0001
0000
1000
0000
0100
0010
0100
0000
0010
0001
0000
0100
0001
0100
0010
1000
,
0010
0000
0000
0101
0000
0000
0001
0010
0001
0000
0000
1100
0000
0000
0000
0000
,
1001
0000
1000
0010
0000
1000
0010
0000
0001
0000
0010
1000
0000
0010
0100
0000
,
0010
1000
0100
0010
0001
0000
0000
0010
0001
0000
1000
0100
0000
1000
0100
0000
,
0010
0000
0000
0011
0000
0000
1100
0000
0000
0000
0000
0000
1001
0000
1000
0010
,
0100
0000
0100
0001
0000
0000
0001
0010
0100
0000
0100
1000
0000
1000
0001
0000
,
1001
0000
0001
0100
0010
0100
0001
1000
0200
0000
0000
0010
0000
0000
1300
0000
,
1001
0000
0000
0100
0000
0000
0010
0000
1001
0000
0001
1000
0000
1000
0100
0010
,
0001
0000
0001
1000
0000
0000
1100
0000
0100
1000
0010
0001
0010
1000
0001
0010
,
1000
0000
0010
0000
0001
0100
0001
0000
0010
0000
0100
1000
0000
0010
1000
0000
,
0100
0000
0010
0000
0100
1000
0100
0000
0001
0000
0100
0010
0000
0100
1000
0000
,
0001
0000
0100
0000
0010
1000
0010
0000
0100
0000
0001
0100
0000
0001
1000
0000
,
0001
0000
0000
0000
0000
0000
0010
0000
0000
0000
0000
0000
0100
0000
0000
0010
0000
0000
0001
0000
0000
0000
0000
0000
0001
0000
0000
1000
0000
0100
0000
1000
0000
0100
0000
0000
0010
0000
0000
0001
0000
0000
0010
0000
0000
0100
0000
0000
,
1000
0000
1000
0010
0100
0000
1000
0000
0100
0001
0010
0000
0100
1000
0010
0000
,
0001
0000
0010
1000
0100
0000
0010
0000
0100
1000
0001
0000
0100
0001
1000
0000
,
0001
0100
0001
1001
1000
0100
1000
1100
,
0010
0001
0100
0000
0010
0000
0110
0000
0010
1000
0100
0000
0010
0000
0110
0000
,
1000
0000
0000
0001
0000
0010
0000
0001
0000
0010
0000
0000
0100
0000
0000
1000
0000
0000
0100
0000
0000
1000
0000
0000
0100
0000
0000
0000
0000
0000
0100
0000
0000
1000
0000
0000
0001
0000
0000
0000
0000
0000
1001
0000
0000
0000
0000
0000
,
0011
0000
0100
0000
1000
0000
0010
0000
1001
0000
0001
0100
0000
0010
1000
0000
,
1100
0000
0010
0000
0100
1000
0010
0000
0101
0000
0001
0010
0000
0100
1000
0000
,
1001
0000
1000
0000
0001
0100
0010
0000
0100
0000
0001
0010
0000
0100
1000
0010
,
0002
0000
0000
1000
0000
0000
1003
0100
0002
0000
0000
1000
0000
0000
0103
0000
,
1001
0000
1000
0010
1000
0010
0100
0000
0110
0000
0100
0001
0000
0001
0010
0100
,
2000
0000
0000
0001
0000
0000
3001
0000
0100
0000
1000
0100
0000
0000
0001
0000
,
0011
0000
0000
0110
0000
0000
1100
0000
1100
0000
0000
1001
0000
0000
1010
0000
,
0101
0000
0000
0101
0000
0000
0110
0000
0110
0000
0000
0000
1001
0000
1000
0010
,
0100
0000
1000
0000
0100
0000
0020
0000
1000
0000
0000
0001
0000
0000
0100
0000
,
0130
0000
0010
0000
1000
0000
0001
0000
0020
0000
0001
0001
0000
0000
0130
0000
,
1000
0000
0001
0000
0010
0100
1000
0000
0010
0000
0100
0001
0000
0010
1000
0000
,
0001
0000
0100
1000
0000
0010
0001
0000
0010
1000
0010
1000
0001
0100
0001
0100
,
0010
0000
0000
0010
0001
0000
0010
0000
0100
1000
0100
0010
0100
0001
1000
0100
,
0001
0000
0000
0001
0100
0000
0110
0000
0100
0010
0000
0010
0001
0100
0010
1000
,
0002
0000
0000
0000
0000
0000
0000
0003
,
1001
1001
1001
1001
,
0001
0000
0000
0010
0000
0000
0001
0000
0101
0000
0000
1010
0000
0000
1001
0000
,
0001
0000
0010
0001
0010
0100
1000
0100
0010
0000
0000
0011
0000
0000
1100
0000
,
1000
0000
0000
0010
0000
0000
0100
0000
0101
0000
0000
1001
0000
0000
1010
0000
,
0100
0000
0010
1000
0000
0001
0100
0000
1001
0000
0000
1001
0000
0000
1001
0000
,
1000
0000
0010
1000
0010
0100
0001
0100
0010
0000
0000
1010
0000
0000
0101
0000
,
0001
0000
0001
0010
0000
0010
1000
0000
0110
0000
0000
0011
0000
0000
0110
0000
,
1000
0000
0001
0100
0001
1000
0100
1000
0001
0000
0000
0011
0000
0000
1000
0000
,
0100
0000
0001
0100
0000
1000
0100
0000
0010
0000
0001
1000
0001
1000
0001
1000
,
0001
0100
0010
0100
0001
1000
0100
0010
,
0100
1000
0001
0010
0100
0100
1000
1000
,
0001
0100
0010
1000
0001
0010
0100
1000
,
0001
0100
1000
0100
0001
0001
1000
1000
,
0001
0000
1000
0100
1000
0000
0010
0000
0100
0001
0100
0000
0010
0100
0010
0000
,
1000
0000
0001
0010
0001
0000
0010
0000
1000
0000
0010
0001
0000
0001
0100
0000
,
0010
0000
1000
0010
0100
0000
1000
0000
0100
0001
0010
0000
0100
1000
0001
0000
,
0010
0001
0010
0001
0010
0000
0100
0000
1000
0010
0100
0000
0010
1000
0010
0100
,
0010
0000
1000
0000
0001
1000
0001
1000
0001
0000
0100
0010
0000
1000
0010
0100
,
0001
0000
0010
0000
1000
0000
0010
0000
0001
0000
0100
1000
0001
0000
0010
0000
,
1000
0000
0100
0000
0010
0000
0100
0000
0001
0000
0100
1000
0100
1000
0001
0000
,
0100
0000
0010
0000
0100
0000
0010
0000
1000
0000
0001
0010
0001
0010
0100
1000
,
0100
0000
0010
0001
0010
0100
1000
0100
1000
0001
1000
0001
1000
0010
0100
0010
,
0100
0001
0100
0001
1000
0010
1000
0010
0100
0000
0000
0101
0000
0000
1010
0000
,
0001
0000
1000
0010
0100
0001
1000
0001
0010
0100
1000
0001
1000
0010
0100
0001
,
1000
0001
0010
0100
1000
0001
0100
0010
0100
0010
1000
0001
1000
0001
0010
0000
,
0000
0000
0000
0000
,
0001
0000
0100
0000
0001
0000
0100
0000
0002
0000
0000
1000
0000
0000
1003
0000
1000
0000
0100
0000
1000
0000
0100
0000
2000
0000
0000
0001
0000
0000
3001
0000
,
0001
0000
0010
0000
0100
0000
1000
0000
0002
0000
0000
1000
0000
0000
1003
0000
0011
0000
0000
0001
0000
0000
0100
0000
1010
0000
0000
1000
0000
0000
0001
0000
,
1001
0000
0000
1001
0000
0000
1100
0000
0000
0000
0000
0000
0000
0000
1000
0001
1000
0000
0000
1001
0000
0000
1001
0000
0000
0000
0101
0000
0000
0000
0001
0100
,
0001
0000
0000
1010
0000
0000
1000
0100
1000
0000
0000
0011
0000
0000
0001
0100
0001
0000
0000
1010
0000
0000
0001
0000
0010
0000
0100
0000
1001
0000
0000
0000
,
0001
0000
0001
0000
0010
0000
0200
0000
0001
0000
0000
1000
0000
0000
0001
0000
,
0301
0000
0100
0000
1000
0000
0010
0000
0200
0000
0001
0001
0000
0000
0310
0000
,
1000
0000
0001
0010
0100
0010
1000
0000
0010
0000
0000
0001
0000
0000
1000
0000
,
0001
0000
1000
0001
0000
1000
0010
0000
0100
0001
1000
0001
0010
0100
1000
0100
,
0010
0000
0000
0010
0001
0000
0100
0000
0100
1000
0100
0010
0100
0001
1000
0100
,
0001
0000
0000
0001
0100
0000
0110
0000
0100
0010
0000
0010
0001
0100
0010
1000
,
0001
0000
0001
0000
0010
0000
0001
0000
1000
0010
0000
0110
0000
0000
1001
0000
,
0011
0000
0000
0100
1000
0000
0010
0000
1001
0000
0000
0000
1001
0000
0000
0000
,
0001
0000
0001
0100
0000
0100
1000
0000
1000
0100
0000
0100
0010
0000
1000
0000
,
0100
0000
0100
0001
0000
0001
0100
0000
0100
1000
0000
1000
0010
0100
0001
0000
,
1000
0000
1000
0010
0000
0010
0100
0000
0100
0001
0000
0001
1000
0000
1000
0000
,
0100
0000
0100
0001
0000
0001
0100
0000
1000
0000
0000
0001
0010
0001
0010
0001
,
0010
0000
0100
1000
0000
1000
0001
0000
0001
0100
0000
0100
0010
0000
1000
0000
,
0100
0000
0100
0001
0000
0100
1000
0000
1000
0001
0000
0001
0100
0000
1000
0000
,
0100
0000
0100
0001
0000
0001
1000
0000
1000
0100
0000
0100
0010
0000
0010
0000
,
0001
0000
1000
0100
0000
0010
0001
0000
0001
0100
0000
0010
1000
0010
1000
0010
;
