#TITLE:界雷;
#SUBTITLE:;
#ARTIST:缶缶;
#TITLETRANSLIT:KAIRAI;
#SUBTITLETRANSLIT:;
#ARTISTTRANSLIT:Kankan;
#GENRE:POP;
#CREDIT:;
#MUSIC:KAIRAI.ogg;
#BANNER:KAIRAI.png;
#BACKGROUND:KAIRAI-bg.png;
#CDTITLE:;
#SAMPLESTART:57.074;
#SAMPLELENGTH:12.254;
#SELECTABLE:YES;
#OFFSET:1.658;
#BPMS:0.000=142.000;
#STOPS:;
#LASTBEATHINT:1.514619;
#BGCHANGES:4.500=KAIRAI.avi=1.000=0=0=0=StretchNoLoop====,
99999.000=-nosongbg-=1.000=0=0=0=StretchNoLoop====
;
#FGCHANGES:;

//--------------- dance-single - ----------------
#NOTES:
     dance-single:
     :
     Medium:
     12:
     0,0,0,0,0:
0000
0000
0000
0000
,
0000
0000
0000
0000
,
0001
0100
0001
0000
1000
0010
0100
0001
,
1000
0100
1000
0000
0001
0010
0100
1000
,
0001
0010
0001
0000
1000
0010
0100
0001
,
1000
0000
0100
0000
1000
0000
0000
0000
0102
0000
0000
1000
0000
0000
0013
0000
,
0011
0011
1010
1010
,
0101
1100
1001
0110
,
0100
0001
1000
1000
0010
0100
0001
0001
,
0010
0000
0000
1001
,
0001
0100
0010
0000
1000
0010
0100
0001
,
1000
0100
1000
0000
0001
0010
0100
1000
,
0001
0010
0001
0000
0010
0100
1000
0001
,
0100
0010
0100
0000
0010
1000
0001
0010
,
0100
1000
1000
0000
0001
0100
0010
0100
,
0001
0010
0100
0000
1000
0100
0010
0100
,
1000
0001
1000
0000
0010
0100
0010
1000
,
0001
0000
0000
0010
0000
0000
0100
0000
0000
1000
0000
0000
0001
0000
0100
0000
0001
0000
0010
0000
0000
0000
0000
0000
,
0110
0000
1000
0000
1000
0000
0001
0000
1000
0000
0001
0100
0000
0001
0100
0000
,
0010
0000
1000
0100
0000
1000
0100
0000
0010
0000
0001
0000
1000
0000
0010
0000
,
0100
0000
0000
0000
0100
0000
0001
0000
1000
0000
0010
0100
0000
0010
0100
0000
,
0001
0010
0100
1000
0001
0000
1000
0010
,
0100
0000
0000
0000
0010
0000
1000
0000
0001
0000
0000
0001
0000
0000
0010
0000
,
0100
0000
1000
0000
0001
0000
1000
0000
0010
0000
0000
0010
0000
0000
0100
0000
,
0001
0000
0010
0000
0100
0000
1000
0001
0000
1000
0001
0000
0100
0000
0010
0000
,
1000
0001
0010
0100
1100
0101
1001
0000
,
0001
0000
0001
0000
1000
0000
1000
0000
0010
0000
0010
0100
0000
0100
0001
0000
,
1000
0000
1000
0000
0100
0000
0100
0000
0010
0001
0000
0001
1000
0000
0010
0000
,
0100
0000
0100
0001
0000
0001
1000
0000
0010
0000
0010
0000
0100
0000
0100
0000
,
0001
0000
0001
0000
0010
0000
0010
0000
0100
1000
0000
0000
0001
0000
0100
0000
,
0101
0000
1000
0100
1100
0000
0001
1000
,
1010
0010
0100
0001
0010
1000
0001
0100
,
1000
0000
0000
0000
1000
0000
0010
0000
0100
0000
0001
0100
0000
0001
1000
0000
,
0100
0010
0100
1000
0001
0010
0100
2000
,
0002
0000
3003
0000
0000
0000
0100
0010
,
1001
0000
0001
0000
0100
0000
0010
1000
0000
0001
0000
0000
0010
0000
1000
0000
,
0010
0000
0001
0000
0100
0010
0000
1000
0000
0001
0000
0000
0010
0000
0100
0000
,
1000
0100
0001
0100
1000
0010
0001
0010
,
1000
0100
0010
0001
0012
0000
1003
0020
,
0000
0230
0000
0301
0010
1000
0010
0001
,
0100
1000
0001
0010
1000
0100
0010
0001
,
0200
0000
0320
0000
1030
0100
1100
1001
,
0001
0000
0100
0000
0010
1000
0000
0001
0000
0020
0000
0000
0130
0000
1000
0000
,
0010
0000
0001
0000
0010
0100
0000
0001
0000
2000
0000
0000
3001
0000
0100
0000
,
0001
0010
0001
1000
0100
1000
0010
0001
,
1000
0100
0001
0010
0200
0000
1300
0002
,
0000
0203
0000
1300
0100
0001
0010
0100
,
0010
0001
0010
1000
0010
0001
2000
0000
,
3020
0000
0230
0000
0001
0301
2000
0000
,
0002
0000
3003
0000
,
0001
0100
0001
0010
0100
1000
0010
0100
,
1000
0100
0010
1000
0001
0010
0100
0001
,
0100
0010
0001
1000
0010
0100
0001
0100
,
1000
0100
0010
0001
0010
0100
0001
0010
,
0100
1000
0010
0100
1000
0001
0010
0100
,
1000
0001
0010
0001
1000
0100
0010
1000
,
0100
0001
1000
0010
0100
0001
0100
1000
,
0001
0000
0000
0010
0000
0000
0100
0000
0000
1000
0000
0000
0001
0000
0100
0000
0001
0000
0010
0000
0000
0000
0000
0000
,
2002
3003
0000
0000
;

//--------------- dance-single - ----------------
#NOTES:
     dance-single:
     :
     Hard:
     15:
     0,0,0,0,0:
0000
0000
0000
0000
,
0000
0000
0000
0000
,
1000
0001
1000
0000
0010
0000
0100
0000
0001
0000
0010
0100
0010
0000
0001
0000
,
1000
0000
0010
0000
0100
0000
0001
0000
1000
0001
1000
0001
0010
0000
0100
0000
,
1100
0000
1000
0000
0001
0000
1000
0000
0010
0000
0100
0001
0100
0000
0010
0000
,
1000
0100
1000
0000
0001
0000
0010
0000
0100
0000
0010
0001
0000
1000
0100
0000
,
1100
1000
1001
0001
0101
0100
0110
0010
,
0100
0001
1000
0001
0010
0000
0100
0000
1100
0000
1000
0000
1001
0000
0010
0000
,
0110
0000
0100
0000
1001
0000
0001
0000
0011
0000
0010
0100
1000
0001
0100
0010
,
0100
0000
0000
0000
0010
1000
0100
0010
0001
0000
1000
0000
1100
0000
0011
0000
,
0001
0010
0100
0000
1000
0000
0010
0000
0100
0000
0010
0000
1000
0001
0010
0000
,
0100
1000
0001
0000
0100
0000
1000
0000
0100
0000
0001
0010
0100
0000
1000
0000
,
1001
0000
0001
0000
0100
0000
0010
0000
0100
0000
0001
1000
0100
0000
0010
0000
,
0100
1000
0010
0000
0100
0000
0001
0000
1000
0000
0001
0010
1000
0000
0010
0000
,
0001
0000
0101
0000
1010
0000
1000
0000
0001
0000
0100
0010
0100
0000
0001
0000
,
1000
0100
0010
0000
0100
0000
1000
0000
0001
0000
0100
0001
1000
0000
0100
0000
,
1100
0000
0001
0000
0101
0000
0100
0000
0001
0000
1000
0100
1000
0000
0001
0000
,
1000
0000
0000
0100
0000
0000
1000
0000
0000
0100
0000
0000
0010
0000
0000
0001
0000
0000
1000
0000
0000
0001
0000
0000
0100
0000
0000
0000
0100
0000
0000
0000
0100
0000
0000
0000
0001
0000
0000
0000
0000
0000
1000
0000
0000
0000
0000
0000
,
1001
0000
0001
0100
0010
0000
0010
0100
0001
0000
1000
0100
0000
1000
0001
0000
,
0100
0000
0001
0010
0001
0010
0100
0000
1000
0000
0001
0000
1000
0010
0100
0000
,
0010
0000
1000
0100
0010
0100
0010
0000
0001
0000
1000
0001
1000
0000
0001
0100
,
1000
0000
0100
0001
1000
0000
0001
0010
0100
0000
0001
0000
0100
0000
1000
0000
,
0001
0000
1000
0001
0100
1000
0100
0010
1000
0000
0001
0010
0000
0100
1000
0100
,
0001
0100
0000
1000
0010
0000
1010
0000
0101
0000
0000
1001
0000
0000
0001
0000
,
0010
0100
1000
0100
0010
0001
0010
0100
0000
0100
1000
0001
0100
0000
1000
0000
,
0100
0000
0001
0000
0010
1000
0010
0001
0100
0000
0110
0000
1001
0000
1000
0000
,
0010
0000
0100
0001
1000
0000
1000
0001
0010
0000
0010
0100
0000
0100
1000
0001
,
0100
0000
0100
0001
1000
0000
1000
0100
1000
0001
0000
0001
0010
0000
0010
0001
,
1000
0000
1000
0010
0000
0010
0100
0000
0100
0001
0100
0001
1000
0100
1000
0100
,
0010
0000
0010
0000
0100
0000
0100
1000
0001
1000
0000
1000
0010
0000
0100
0000
,
0101
0000
0001
0010
0100
0000
1000
0000
1100
0000
0100
1000
0001
0000
0100
0000
,
1000
0100
0001
1000
0100
0001
0100
1000
,
0010
0000
0100
0001
0100
0000
0010
0000
1000
0000
0001
0010
0000
0100
1000
0000
,
0010
0000
0100
0000
0001
0000
1000
0000
0001
1000
0100
0000
0010
0000
0002
0000
,
2000
0000
0003
0000
3001
0000
0001
0000
0100
0000
0100
0001
1000
0000
0010
0000
,
0110
0000
0100
0001
0010
0100
1000
0001
0000
0100
0000
1000
0100
0010
0100
0001
,
1000
0000
0001
0010
0100
1000
0000
0100
0000
0010
0000
0001
1000
0000
0010
0000
,
0100
0000
0010
1000
0010
0000
0010
0001
0010
0000
0100
1000
0100
0000
0100
0001
,
0100
0000
0001
0000
0010
0100
1000
0001
1000
0000
0001
0000
0100
0000
0001
0010
,
2000
0000
0010
0000
3010
0000
0001
0100
1000
0100
0002
0000
2003
0000
3010
0100
,
1000
0000
0100
0001
0010
0000
0001
0010
1000
0000
0010
0000
0001
1000
0020
0000
,
0130
0000
0010
1000
0002
0000
0000
0000
0013
0100
1000
0100
1000
0000
0001
0000
,
0101
0000
0100
0000
0001
0010
1000
0010
0000
0001
1000
0000
0010
0100
0010
0100
,
0001
0010
0100
1000
0010
0001
0010
1000
0000
0010
0000
0100
0001
0000
0010
0100
,
0001
0000
0001
0100
0010
0000
0001
0100
0010
0000
0010
0100
0001
0000
1000
0100
,
0010
0100
1000
0010
0100
1000
0100
0001
0020
0000
0000
0000
0130
0000
1000
0000
,
0001
0000
1000
0010
0002
0000
0010
0000
0013
0000
1000
0100
0002
0000
0203
0000
,
2300
0000
3020
0000
0130
0000
0001
0010
1000
0000
0010
0001
1000
0100
0010
0001
,
1000
0000
0010
0000
0200
0000
0000
0000
0301
1000
0001
1000
0200
0000
0000
0000
,
0020
0000
0000
0000
0000
0000
0000
0000
0330
0000
0000
0000
0001
0010
0001
0010
,
0100
1000
0001
0000
0100
0000
1000
0000
0100
0001
1000
0000
0001
0010
0100
0000
,
1000
0000
0100
0000
0001
0000
0100
0000
1000
0000
0001
0100
0010
0000
0100
0001
,
1000
0001
1000
0000
0100
0000
0001
0000
0100
0000
1000
0010
1000
0010
0100
0000
,
0001
1000
0001
0000
0010
0000
1000
0000
0010
0000
0001
1000
0010
0000
0100
0000
,
0001
0000
0101
0000
1010
0000
1000
0000
0001
0100
0010
0000
0100
0001
1000
0000
,
0100
0000
0001
0000
0100
0000
1000
0000
0010
0000
0100
0001
1000
0000
0001
0010
,
0100
1000
0001
0000
0100
0000
0010
0000
0100
0001
1000
0000
0001
1000
0100
0000
,
0010
0000
0000
0001
0000
0000
0010
0000
0000
0001
0000
0000
1000
0000
0000
0100
0000
0000
0010
0000
0000
0001
0000
0000
0100
0000
0000
0000
0100
0000
0000
0000
0100
0000
0000
0000
0001
0000
0000
0010
0000
0000
0100
0000
0000
1000
0000
0000
,
0002
0003
0000
0000
;

//--------------- dance-single - ----------------
#NOTES:
     dance-single:
     :
     Challenge:
     17:
     1.163216,1.068513,0.295535,0.101909,1.691685,799,770,29,10,0,0,1.163216,1.068513,0.295535,0.101909,1.691685,799,770,29,10,0,0:
0000
0000
0000
0000
,
0000
0000
0000
0000
,
0001
0000
0000
1000
0000
0000
0001
0000
0000
0000
0000
0000
1000
0000
0000
0000
0000
0000
0100
0000
0000
0000
0000
0000
0010
0000
0000
0000
0000
0000
0100
0000
0000
1000
0000
0000
0001
0000
0100
0000
0001
0000
0100
0000
0000
0000
0000
0000
,
0001
0000
0000
1000
0000
0000
0001
0000
0000
0000
0000
0000
0010
0000
0000
0000
0000
0000
0100
0000
0000
0000
0000
0000
1000
0000
0000
0001
0000
0000
1000
0000
0100
0000
1000
0000
0100
0000
0000
0000
0000
0000
1000
0000
0001
0000
1000
0000
,
0001
0000
0000
0000
0000
0000
0010
0000
0000
0000
0000
0000
0100
0000
0000
0000
0000
0000
1000
0000
0000
0000
0000
0000
0001
0000
0000
0000
0000
0000
0100
0000
0000
0010
0000
0000
1000
0000
0001
0000
1000
0000
0001
0000
0000
0000
0000
0000
,
0010
0000
0000
0100
0000
0000
0010
0000
0000
0000
0000
0000
0001
0000
0000
0000
0000
0000
0010
0000
0000
0000
0000
0000
0100
0000
0000
1000
0000
0000
0001
0000
0100
0000
0001
0000
0100
0000
0000
0000
0000
0000
0010
0000
0000
0000
0000
0000
,
1010
0000
1000
0001
0100
0000
0010
0000
0110
0000
0010
1000
0001
0000
0010
0000
,
0110
0000
0010
0001
1000
0000
0001
0000
1001
0000
0001
0010
0100
0000
1000
0000
,
1010
0000
0000
0000
0000
0000
0011
0000
0000
0000
0000
0000
0101
0000
0000
0000
0000
0000
1100
0000
0000
0000
0000
0000
1000
0000
0000
0001
0000
0000
0100
0000
0000
0010
0000
0000
1000
0000
0100
0000
0010
0000
0001
0000
1000
0000
0100
0000
,
0010
0000
0000
0000
0001
0010
0100
1000
0010
0000
0010
0100
1001
0000
1001
0000
,
0001
0000
0000
0010
0000
0000
0100
0000
0000
0000
0000
0000
0010
0000
0000
0000
0000
0000
0001
0000
0000
0000
0000
0000
1000
0000
0000
0000
0000
0000
0010
0000
0000
0100
0000
0000
0001
0000
1000
0000
0100
0000
0010
0000
0000
0000
0000
0000
,
0100
0000
0000
1000
0000
0000
0001
0000
0000
0000
0000
0000
0100
0000
0000
0000
0000
0000
0010
0000
0000
0000
0000
0000
0100
0000
0000
0001
0000
0000
1000
0000
0100
0000
0010
0000
0001
0000
0000
0000
0000
0000
0001
0000
0010
0000
0100
0000
,
1000
0000
0000
0000
0000
0000
1000
0000
0000
0000
0000
0000
0001
0000
0000
0000
0000
0000
0100
0000
0000
0000
0000
0000
0010
0000
0000
0000
0000
0000
1000
0000
0000
0010
0000
0000
0100
0000
0001
0000
0010
0000
0100
0000
0000
0000
0000
0000
,
0010
0000
0000
0001
0000
0000
1000
0000
0000
0000
0000
0000
0010
0000
0000
0000
0000
0000
0100
0000
0000
0000
0000
0000
0010
0000
0000
1000
0000
0000
0001
0000
0010
0000
0100
0000
1000
0000
0000
0000
0000
0000
1000
0000
0100
0000
0010
0000
,
0001
0000
0000
0000
0000
0000
0011
0000
0000
0000
0000
0000
1100
0000
0000
0000
0000
0000
1000
0000
0000
0000
0000
0000
0001
0000
0000
0000
0000
0000
0100
0000
0000
0010
0000
0000
1000
0000
0001
0000
0010
0000
0100
0000
0000
0000
0000
0000
,
0010
0000
0000
0001
0000
0000
1000
0000
0000
0000
0000
0000
0010
0000
0000
0000
0000
0000
0100
0000
0000
0000
0000
0000
0001
0000
0000
1000
0000
0000
0010
0000
0100
0000
0001
0000
0010
0000
0000
0000
0000
0000
0010
0000
0001
0000
0100
0000
,
0010
0000
0000
0000
0000
0000
0100
0000
0000
0000
0000
0000
0001
0000
0000
0000
0000
0000
1000
0000
0000
0000
0000
0000
0100
0000
0000
0000
0000
0000
0010
0000
0000
0001
0000
0000
1000
0000
0010
0000
0100
0000
0001
0000
0000
0000
0000
0000
,
0010
0000
0000
0100
0000
0000
1000
0000
0000
0001
0000
0000
1000
0000
0100
0000
1000
0000
0100
0000
0010
0000
0002
0000
1000
0000
0000
0000
1000
0000
0000
0000
1003
0000
0000
0000
0001
0000
0010
0000
0001
0000
0010
0000
0100
0000
1000
0000
,
0001
0000
0000
0000
0000
0000
0100
0000
0000
0010
0000
0000
0100
0000
0000
0001
0000
0000
0100
0000
0000
0000
0000
0000
0010
0000
0000
1000
0000
0000
0010
0000
0000
0100
0000
0000
0010
0000
0000
1000
0000
0000
0001
0000
0010
0000
0001
0000
,
0010
0000
0000
0000
0000
0000
0100
0000
0000
1000
0000
0000
0001
0000
0000
0000
0000
0000
1000
0000
0000
0000
0000
0000
0100
0000
0000
1000
0000
0000
0010
0000
0000
0100
0000
0000
0001
0000
0000
0000
0000
0000
1000
0000
0001
0000
1000
0000
,
0001
0000
0000
0100
0000
0000
0010
0000
0000
0100
0000
0000
0001
0000
0000
1000
0000
0000
0001
0000
0000
0000
0000
0000
0001
0000
0000
1000
0000
0000
0100
0000
0000
1000
0000
0000
0001
0000
0000
0000
0000
0000
1000
0000
0100
0000
0010
0000
,
0001
0000
0000
0000
0000
0000
0001
0000
0000
0010
0000
0000
0100
0000
0000
0000
0000
0000
0100
0000
0000
0010
0000
0000
0001
0000
0000
0010
0000
0000
0100
0000
1000
0000
0100
0000
0010
0000
0000
0000
0000
0000
0001
0000
0010
0000
0100
0000
,
0010
0000
0000
0001
0000
0000
1000
0000
0000
0010
0000
0000
0100
0000
0000
0010
0000
0000
1000
0000
0000
0000
0000
0000
0010
0000
0000
0100
0000
0000
1000
0000
0000
0100
0000
0000
0010
0000
0000
0000
0000
0000
1000
0000
0100
0000
0010
0000
,
0001
0000
0000
0000
0000
0000
0001
0000
0000
0010
0000
0000
0100
0000
0000
0010
0000
0000
0001
0000
0000
0000
0000
0000
0010
0000
0000
0100
0000
0000
0001
0000
0000
0100
0000
0000
0010
0000
0000
0000
0000
0000
0001
0000
0010
0000
0100
0000
,
1000
0000
0000
0001
0000
0000
0100
0000
0000
1000
0000
0000
0100
0000
0000
0001
0000
0000
0010
0000
0000
0000
0000
0000
0001
0000
0000
0000
0000
0000
1000
0000
0000
0100
0000
0000
0001
0000
0000
0000
0000
0000
0100
0000
1000
0000
0100
0000
,
1000
0000
0001
0100
0010
0000
1000
0000
0110
0000
0110
1000
0001
0000
1000
0001
,
0011
0000
0101
0000
0001
0100
0001
0010
0001
0000
0001
1000
0001
0000
0001
0010
,
0100
0000
0000
0000
0000
0000
0100
0000
0000
1000
0000
0000
0100
0000
0000
0010
0000
0000
0100
0000
1000
0000
0001
0000
0100
0000
0000
0010
0000
0000
0100
0000
0000
0000
0000
0000
0110
0000
0000
0000
0000
0000
0100
0000
0000
0010
0000
0000
,
1000
0000
1000
0001
1000
0100
1000
0001
1000
0000
1000
0010
1000
0001
1000
0100
,
0010
0000
0000
0000
0000
0000
0010
0000
0000
0001
0000
0000
0010
0000
0000
1000
0000
0000
0010
0000
0001
0000
0100
0000
0010
0000
0000
1000
0000
0000
0010
0000
0000
0000
0000
0000
0110
0000
0000
0000
0000
0000
0010
0000
0100
0000
0001
0000
,
1000
0000
0100
0000
0010
0100
1000
0100
0001
0000
0100
0010
0001
0010
1000
0000
,
1010
0000
0000
0000
0000
0000
0010
0000
0000
0001
0000
0000
1000
0000
0000
0010
0000
0000
0100
0000
0001
0000
0100
0000
0001
0000
0000
1000
0000
0000
0100
0000
0000
0000
0000
0000
0110
0000
0000
0000
0000
0000
0010
0000
0001
0000
1000
0000
,
0001
0100
0001
1000
0001
0010
0100
1000
0001
0000
1000
0100
1000
0001
1000
0010
,
0100
0000
0000
0001
0000
0000
0010
0000
0000
0001
0000
0000
1000
0000
0000
0100
0000
0000
1000
0000
0001
0000
0100
0000
0010
0000
0000
0100
0000
0000
0001
0000
0000
1000
0000
0000
0010
0000
0000
0000
0000
0000
1000
0000
0100
0000
0010
0000
,
0100
0000
1000
0000
0100
0000
0010
0000
0000
0001
0000
0000
1000
0000
0000
0000
0000
0000
0001
0000
0000
0100
0000
0000
0010
0000
0100
0000
0001
0000
0010
0000
0100
0000
1000
0000
0001
0000
0000
0000
0000
0000
0000
0000
0000
0000
0000
0000
,
1001
0000
0001
0100
0001
0010
0100
0001
0100
0010
0001
0100
0010
0001
0010
1000
,
0100
0010
0100
1000
0010
0100
1000
0100
0001
1000
0100
0010
0001
0010
0100
1000
,
0001
0100
0001
1000
0001
0010
0001
0100
0010
1000
0100
1000
0001
1000
0010
1000
,
0001
0100
1000
0001
0010
0100
0010
0001
0010
1000
0100
0010
1000
0010
0001
1000
,
0010
0100
0001
0000
1001
0000
1000
0100
0010
0001
1000
0000
0110
0000
0001
0100
,
0010
1000
0010
0100
0001
1000
0100
0010
0001
0000
0001
0010
0100
1000
0010
0000
,
0110
0000
0000
0000
0000
0000
0000
0000
0000
0000
0000
0000
0100
0000
0000
0000
0000
0000
0001
0000
0000
0000
0000
0000
0000
0000
0000
0000
0000
0000
0001
0000
0000
0000
0000
0000
0010
0000
0000
0000
0000
0000
0000
0000
0000
0000
0000
0000
0100
0000
0000
0000
0000
0000
1000
0000
0000
0000
0000
0000
0100
0000
0000
0000
0010
0000
0000
0000
0001
0000
0000
0000
1000
0000
0000
0000
0000
0000
0000
0000
0000
0000
0000
0000
0010
0000
0000
0100
0000
0000
0010
0000
0000
0100
0000
0000
,
0010
0000
0110
0000
0001
0100
1000
0200
0001
0320
1000
0031
0100
1000
0010
0100
,
0001
0010
0100
1000
0010
0100
0010
0002
1000
0203
0010
1300
0001
0010
0100
1000
,
0001
0100
1000
0100
0001
0010
0100
0010
0001
1000
0100
0001
0100
1000
0010
0100
,
0010
1000
0001
0100
1000
0001
0010
1000
0002
0000
1003
0100
0010
0001
1000
0010
,
0001
0000
0011
0000
0010
1000
0100
0010
0001
0010
1000
0000
1010
0000
0010
0001
,
0010
1000
0001
1000
0010
0001
1000
0010
0100
0000
0100
1000
0001
0010
0100
0001
,
1000
0000
0000
0000
0000
0000
0100
0000
0000
1000
0000
0000
0001
0000
0000
0000
0000
0000
1001
0000
0000
0000
0000
0000
1000
0000
0000
0001
0000
0000
1000
0000
0100
0000
0010
0000
0002
0000
0000
0000
0000
0000
0000
0000
0000
0000
0000
0000
,
2000
0000
0000
0000
0000
0000
0000
0000
3003
0000
0000
0000
0010
0100
0010
0100
,
1001
0000
0000
0010
0000
0000
0100
0000
0000
0000
0000
0000
0001
0000
0000
1000
0000
0000
0010
0000
0000
0000
0000
0000
0100
0000
0000
0001
0000
0000
1000
0000
0000
0100
0000
0000
0001
0000
0100
0000
1000
0000
0001
0000
0000
0000
0000
0000
,
0001
0000
0000
1000
0000
0000
0100
0000
0000
0000
0000
0000
0010
0000
0000
0001
0000
0000
1000
0000
0000
0000
0000
0000
0001
0000
0000
0100
0000
0000
1000
0000
0100
0000
0001
0000
1000
0000
0000
0000
0000
0000
0001
0000
0010
0000
0100
0000
,
1000
0000
0000
0001
0000
0000
0100
0000
0000
0000
0000
0000
0010
0000
0000
1000
0000
0000
0001
0000
0000
0000
0000
0000
0010
0000
0000
0100
0000
0000
1000
0000
0000
0010
0000
0000
0001
0000
0010
0000
1000
0000
0001
0000
0000
0000
0000
0000
,
0010
0000
0000
0001
0000
0000
1000
0000
0000
0000
0000
0000
0010
0000
0000
1000
0000
0000
0001
0000
0000
0000
0000
0000
0010
0000
0000
0100
0000
0000
1000
0000
0001
0000
0100
0000
0010
0000
0000
0000
0000
0000
0010
0000
0100
0000
0001
0000
,
1000
0000
0000
0100
0000
0000
0010
0000
0000
0000
0000
0000
0100
0000
0000
1000
0000
0000
0001
0000
0000
0000
0000
0000
0100
0000
0000
1000
0000
0000
0100
0000
0000
0001
0000
0000
1000
0000
0010
0000
0100
0000
0001
0000
0000
0000
0000
0000
,
0010
0000
0000
0100
0000
0000
1000
0000
0000
0000
0000
0000
0010
0000
0000
0100
0000
0000
0001
0000
0000
0010
0000
0000
0001
0000
0000
0100
0000
0000
1000
0000
0100
0000
0001
0000
1000
0000
0000
0000
0000
0000
1000
0000
0001
0000
0010
0000
,
0100
0000
0000
1000
0000
0000
0010
0000
0000
0000
0000
0000
0100
0000
0000
0001
0000
0000
1000
0000
0000
0000
0000
0000
0001
0000
0000
0010
0000
0000
1000
0000
0000
0010
0000
0000
0001
0000
0010
0000
0100
0000
1000
0000
0000
0000
0000
0000
,
0010
0000
0000
1000
0000
0000
0100
0000
0000
0010
0000
0000
0001
0000
1000
0000
0010
0000
1000
0000
0010
0000
0200
0000
0001
0000
0000
0000
0001
0000
0000
0000
0301
0000
0000
0000
1000
0000
0100
0000
1000
0000
0100
0000
0010
0000
0001
0000
,
2000
3000
0000
0000
;
