#TITLE:いらないよ;
#SUBTITLE:;
#ARTIST:syudou;
#TITLETRANSLIT:Iranaiyo;
#SUBTITLETRANSLIT:;
#ARTISTTRANSLIT:syudou;
#GENRE:POP;
#CREDIT:;
#MUSIC:Iranaiyo.ogg;
#BANNER:Iranaiyo.png;
#BACKGROUND:Iranaiyo-bg.png;
#CDTITLE:;
#SAMPLESTART:48.960;
#SAMPLELENGTH:13.617;
#SELECTABLE:YES;
#OFFSET:-0.024;
#BPMS:0.000=141.000
,255.000=146.000
,256.000=141.000
;
#STOPS:;
#DISPLAYBPM:141.000;
#BGCHANGES:2.000=Iranaiyo.avi=1.000=0=0=0=StretchNoLoop====,
99999.000=-nosongbg-=1.000=0=0=0=StretchNoLoop====
;
#FGCHANGES:;

//--------------- dance-single - ----------------
#NOTES:
     dance-single:
     :
     Medium:
     12:
     0,0,0,0,0:
0000
0000
0000
0000
,
0000
0000
0000
0000
,
0000
0000
0000
0000
0000
0000
0000
0000
0000
0000
0000
0000
0000
0000
0000
1000
,
0000
0001
0100
0000
0001
0000
0100
0000
0001
0000
1000
0000
0001
0010
0000
0100
,
0000
1000
0100
0000
1000
0000
0100
0000
1000
0000
0100
0000
0010
0000
0001
0100
,
0000
0001
0100
0000
0010
0000
0100
0000
0010
0000
0100
0000
0001
0010
0000
0100
,
0000
1000
0001
0000
0100
0000
1000
0000
0100
0000
0001
0000
0010
0000
0100
1000
,
0000
0100
1000
0000
0010
0000
1000
0000
0100
0000
1000
0000
0001
0100
0000
0010
,
0000
0100
0001
0000
0010
0000
0001
0000
0100
0000
0001
0000
1000
0100
0000
0000
,
1000
0010
0000
1000
0000
0000
0001
0100
0000
0001
0000
0000
2000
0000
0000
0000
,
0100
0100
3100
0000
,
0001
0001
1000
1000
,
0010
0000
0000
0000
0100
0000
0000
0000
0001
0000
0000
0000
1000
0000
0000
1100
,
0000
0100
0010
0001
0100
1000
0100
0000
,
0010
1000
0100
0001
0100
1000
0001
0000
,
1000
1000
1000
1000
,
0001
0000
0000
0000
0001
0000
0000
0000
0001
0000
0000
0000
0100
0000
0000
0110
,
0000
0010
1000
0001
0010
1000
0010
0001
,
0000
1000
0010
0001
0010
1000
0100
0000
,
0011
0000
0000
0000
1001
0000
0000
0000
1100
0000
0000
0000
1000
0000
0000
0001
,
0000
0000
0001
0000
1000
0000
0010
0000
0110
0000
0000
0000
0100
0000
0000
0001
,
0000
0000
1000
0000
1000
0000
0000
0100
0000
0000
0010
0000
0010
0000
0000
0001
,
0000
0000
1000
0000
1000
0000
0000
0001
0000
1000
0000
0000
0010
0000
0000
0000
,
0101
0000
0000
0000
1100
0000
0000
0000
1001
0000
0000
0000
0001
0000
0000
0100
,
0000
0010
0100
0010
1001
0000
1000
0000
,
0001
0010
0100
1000
0001
0100
0010
0100
,
0001
1000
0010
0100
0001
0010
0100
2000
,
0001
0000
0000
0000
0001
0000
0000
0000
3001
0000
0001
0100
0000
0100
0000
0100
,
0000
0001
0010
0000
0100
0000
1000
0000
1100
0000
0000
0000
0100
0000
0000
1000
,
0000
1000
0001
0100
0010
1000
0100
0010
,
0100
0000
1000
0000
0001
0100
0000
0100
0000
0000
0010
0000
1000
0000
0100
0000
,
0001
0100
1000
0001
0100
1000
0100
0010
,
1000
0000
0001
0000
1000
0100
0000
0010
0000
0000
0001
0000
0100
0000
0000
0010
,
0000
0000
0010
0000
1000
0000
0000
0001
0000
0000
0001
0000
0010
0000
0000
0100
,
0000
0000
0100
0000
1000
0000
0000
1001
0000
0000
0001
0000
0100
0000
0000
0101
,
0000
0000
1000
0000
0100
0000
0000
1100
0000
0000
1001
0000
0001
0000
0000
0100
,
0000
0000
0010
0000
1000
0000
0000
0100
0000
0000
0010
0000
0001
0000
0010
0000
,
0100
0000
0100
1000
0001
0000
0001
0100
,
0010
0000
0000
0000
1010
0000
0000
0000
1001
0000
0000
0000
0001
0010
0000
0200
,
0000
0001
1300
1001
,
0001
0000
1000
0100
0000
0010
0000
0100
1000
0000
0001
0000
0100
0010
0000
0110
,
0000
0000
0010
0000
0010
0000
0010
1000
,
0001
0000
0001
0000
0001
0010
0100
1000
,
0010
0000
0000
0000
0010
0000
0100
0000
0001
0000
0000
0000
0001
0000
1000
0200
,
0000
0000
0000
0000
0320
0000
0000
0000
0032
0000
0000
0000
2003
0000
0000
0002
,
0000
0000
0000
0000
,
3003
0000
0000
0000
,
1000
0001
1000
0001
,
0100
0010
0100
0001
,
0010
0100
1000
0010
,
0100
0000
0001
0000
1001
0000
0001
0100
,
0001
0000
1000
0100
1000
0000
0010
0100
,
0010
0000
0100
0001
0100
0000
0010
1000
,
0001
0000
0010
0100
1000
0000
0001
1000
,
1001
0000
0000
0000
0000
0000
0000
0000
0000
0000
0000
0000
0000
1000
0000
0010
,
0000
0100
0010
0000
0100
0000
0010
0000
0110
0000
0000
0000
1000
0000
0100
0010
,
0000
0000
0100
0000
1000
0000
0001
0100
0000
0000
0010
0000
1000
0000
0001
0010
,
0000
0000
0010
0000
0100
2000
0000
3001
0000
0000
1000
0000
0001
0100
0000
0010
,
0000
0000
0100
0000
0001
0010
0000
0100
0000
0000
1000
0000
0001
1000
0000
0010
,
0000
0000
0010
0000
0100
0002
0000
1003
0000
0000
1000
0000
0001
0000
0100
0000
,
1000
0100
1000
0100
0001
0010
1000
0010
,
1000
0010
0001
1000
0020
0000
0130
0001
,
0010
0100
1000
0010
0100
0001
1000
0010
,
0100
0001
0010
0100
1000
0000
0001
1000
,
0100
0010
0100
0010
0001
0100
0010
0100
,
0001
0000
1000
0000
0001
0000
1000
0000
0010
0000
0000
0000
0100
0001
0000
2000
,
0000
0100
0100
0000
3100
0000
0110
0000
,
0001
0000
1000
0010
0000
0100
0000
0001
1000
0000
0100
0000
0010
0100
0000
1000
,
0010
0000
0010
0100
0000
0001
0000
1000
0001
0000
0010
0000
0100
0000
1000
0000
,
0001
0000
0100
0010
0000
0010
0000
0010
0100
0000
0001
0000
1000
0100
0000
0020
,
0000
0230
0000
0000
,
0300
0000
0000
0000
;

//--------------- dance-single - ----------------
#NOTES:
     dance-single:
     :
     Hard:
     14:
     0,0,0,0,0:
0000
0000
0000
0000
,
0000
0000
0000
0000
,
0000
0000
0000
0000
0000
0000
0000
0000
0000
0000
0000
0000
0000
0000
0000
1000
,
0000
0001
0100
0000
0010
0000
0100
0000
0010
0000
0100
0000
0001
0100
0000
0010
,
0000
1000
0100
0000
0010
0000
0100
0000
0010
0001
1000
0000
0010
0000
0100
0001
,
0000
0001
0010
0000
0100
0000
0010
0000
0100
0000
0010
0000
0001
0010
0000
0100
,
0000
1000
0010
0000
0100
0000
0001
0000
1000
0100
0010
0000
0100
0000
1000
0010
,
0000
0100
0001
0000
1000
0000
0001
0000
1000
0000
0001
0000
1000
0100
0000
0010
,
0000
0100
1000
0000
0001
0000
1000
0000
0001
0000
1000
0000
0001
0100
0000
0000
,
0010
2000
0000
0001
0000
0000
3001
0020
0000
0100
0000
0000
2030
0000
0000
0000
,
0001
0001
3001
0000
,
0001
0100
0001
0100
1000
0100
0001
0000
,
1000
0000
0100
0000
1000
0000
0100
0000
0001
0000
0100
0000
1000
0001
0000
0101
,
0000
0000
0100
0000
0001
0000
1000
0000
0100
0000
0010
0001
0000
1000
0000
0010
,
0000
0000
0010
0000
1000
0000
0010
0000
0100
0000
0001
1000
0000
0100
0000
0000
,
2000
3001
2000
3010
2000
3100
2000
3000
,
0002
0000
0013
0000
0002
0000
1003
0000
0002
0000
0103
0000
0001
1000
0000
1010
,
0000
0000
0010
0000
0100
0000
0001
0000
0010
0000
0100
1000
0000
0001
0000
0100
,
0000
0000
0100
0000
0001
0000
0100
0000
0010
0000
1000
0100
0000
0010
0000
0000
,
0110
0000
0000
0000
1001
0000
0000
0000
0110
0000
0000
0000
0001
1000
0001
1000
,
0000
0000
0010
0000
0100
0000
0010
0000
0110
0000
0000
0000
0100
0001
0100
0001
,
0000
0000
1000
0000
1000
0100
0000
0010
0000
0000
0010
0000
0001
0100
0000
0100
,
0000
0000
0010
0000
1000
0001
0000
1000
0000
1100
0000
0000
0100
0000
0010
0000
,
0011
0000
0000
0000
1100
0000
0000
0000
1001
0000
0001
0000
0100
0010
0000
0100
,
0000
0000
0100
0000
0010
0000
0100
0000
1001
0000
0000
0000
0001
0010
0001
0010
,
0000
0100
1000
0001
0100
1000
0100
0010
,
1000
0100
0001
0100
1000
0100
0010
0002
,
1000
0000
0000
0000
1000
0000
0000
0000
1003
0010
1000
0010
0000
0100
0000
0100
,
0000
0001
0010
0001
0010
0000
0100
0000
1100
0000
0000
0000
0000
0000
0000
1000
,
0000
0001
0100
0000
0001
0000
1000
0100
0000
0100
0001
0000
1000
0000
0001
0100
,
0000
0100
1000
0000
1000
0001
0000
0110
0000
0000
0001
0000
0010
0100
0000
1000
,
0000
0001
0100
0000
0010
1000
0000
0100
0000
0010
0001
0000
1000
0001
0000
0100
,
0000
0010
0100
0000
0100
0010
0000
0110
0000
0000
0001
0000
1000
0100
1000
0100
,
0000
0000
1000
0000
0001
0100
0001
0100
0000
0000
0010
0000
1000
0001
1000
0001
,
0000
0000
0010
0000
0010
0100
0000
1001
0000
0000
1000
0000
0100
0010
0000
0110
,
0000
0000
1001
0000
0001
0100
0000
0110
0000
0000
1001
0000
0001
0010
0000
1100
,
0000
0000
1001
0000
1000
0010
0000
0110
0000
0000
0100
0000
0001
0000
0100
0000
,
1001
0010
0100
0010
1001
0010
0100
0010
,
1001
0000
0010
0000
1001
0000
0100
0000
1001
0000
0000
0000
0001
0010
0000
0210
,
0000
1000
1000
0000
0310
0000
1001
0000
,
0001
0100
0001
0100
0000
0001
0000
1000
0100
0000
0010
0000
0001
0010
0100
1000
,
0000
0001
0100
0001
0100
0001
0010
0100
,
1000
0100
1000
0100
1000
0010
0100
0001
,
0010
0000
0100
0000
1000
0000
0100
0000
1000
0000
0010
0000
0100
0000
0001
2000
,
0000
0000
0000
0000
3020
0000
0000
0000
0230
0000
0000
0000
0302
0000
0000
2000
,
0000
0000
0000
0000
,
3003
0000
0000
0000
,
1000
0000
1000
0000
0001
0000
0001
1000
,
0100
1000
0001
0100
0010
0000
0100
0001
,
1000
0000
0100
1000
0001
0000
0100
0010
,
0100
0000
0000
0000
0010
0000
1000
0000
1001
0000
0000
0000
0002
0000
1003
0100
,
2000
0000
3010
0000
0200
0000
0301
0000
0020
0000
0130
0000
2000
0000
3001
0100
,
0002
0013
0200
1300
0002
1003
0020
0130
,
0002
0103
0020
1030
0002
0013
0200
1300
,
1100
0000
0000
0000
0000
0000
0000
0000
0000
0000
0000
0000
0000
1000
0000
0001
,
0000
1000
0001
1000
0001
0000
0010
0000
0110
0000
0000
0000
1000
0010
1000
0010
,
0000
0100
0001
0000
0010
0000
0100
1000
0000
0001
1000
0000
0010
0000
0100
0001
,
0000
1000
0001
0000
0010
0200
0000
1300
0000
0000
1000
0000
0001
0100
0000
0010
,
0000
0100
0001
0000
1000
0100
0000
0010
0000
0100
1000
0000
0010
0100
0000
0001
,
0000
0010
0100
0000
1000
0001
0000
0020
0000
0000
0130
0000
1000
0010
1000
0001
,
0000
0000
0001
0000
0001
0100
0001
1000
0000
0000
1000
0000
1000
0100
1000
0010
,
0000
0000
0010
0000
0100
0001
0000
1001
0000
0000
1000
0000
0100
0010
0000
0011
,
0000
0000
0001
0000
0100
0010
0000
1010
0000
0000
1000
0000
0001
0100
0000
0110
,
0000
0000
1000
0000
0001
0010
0000
0110
0000
0000
0100
0000
1000
0000
0001
0000
,
0100
0010
0100
0010
1001
0010
0100
0010
,
1001
0000
0100
0000
1001
0000
0010
0000
1001
0000
0000
0000
0001
0100
0000
0100
,
0020
1000
1000
0000
0130
0000
0110
0000
,
0001
1000
0001
1000
0000
0100
0000
1000
0010
0000
0100
0000
0001
0010
0100
1000
,
0010
0000
0010
0100
0000
0001
0000
0001
1000
0000
1000
0100
0010
0000
0100
0000
,
1000
0010
1000
0010
0000
0100
0000
0100
0001
0000
0010
0000
0100
1000
0100
2000
,
0000
3002
0000
0000
,
0003
0000
0000
0000
;

//--------------- dance-single - ----------------
#NOTES:
     dance-single:
     :
     Challenge:
     16:
     0.66729,0.741822,0.048911,0,0.183417,573,567,6,0,0,0,0.66729,0.741822,0.048911,0,0.183417,573,567,6,0,0,0:
0000
0000
0000
0000
,
0000
0000
0000
0000
0000
0000
0000
0000
0000
0000
0000
0000
0000
0000
0000
1000
,
0000
0000
0000
0010
0000
0000
0100
0000
0000
0010
0000
0000
0100
0000
0000
0000
0000
0000
0110
0000
0000
0000
0000
0000
0110
0000
0000
0000
1000
0000
0000
0000
1000
0000
0000
0000
1000
0000
0000
0001
0000
0000
0010
0000
0000
0100
0000
0000
,
0000
0100
0010
0000
0001
0000
1000
0000
0001
0000
1000
0000
1000
0001
0000
0100
,
0000
0010
0100
0000
0010
0000
0100
0000
0001
0010
0100
1000
0001
1000
0100
0010
,
0000
0001
1000
0000
0010
0000
1000
0000
0010
0000
1000
0000
0001
0100
0000
0010
,
0000
0100
0001
0010
0100
0010
0100
1000
0001
0100
0010
1000
0001
0010
0100
1000
,
0000
0001
0010
0000
0100
0000
0010
0000
0100
0000
1000
0000
0001
0100
0001
1000
,
0000
1000
0010
0000
0100
0000
0010
0000
1000
0000
0001
0010
0100
0010
0000
0001
,
0200
0010
0000
0001
0000
0000
0302
0010
0000
0013
0100
1000
0002
0000
0000
0000
,
0103
0010
0100
0010
0100
0010
0100
0010
0200
0000
0000
0000
0000
0000
0000
0000
,
0301
1000
0001
0010
0001
1000
0001
0100
,
1000
0000
0100
0000
0010
0000
1000
0000
0100
0000
0010
0000
0001
0010
0000
0110
,
0000
0000
0100
0000
1000
0000
0001
0100
0010
0000
0010
1000
0100
0010
0000
0100
,
0000
1000
0001
0000
0100
0000
0100
0010
1000
0000
1000
0001
0000
0100
0000
0001
,
0010
0000
0000
0100
0000
0000
1100
0000
0000
1000
0000
0000
1001
0000
0000
0001
0000
0000
1001
0000
0000
1000
0100
0010
,
0001
0000
1000
0000
1010
0000
0010
0000
0110
0000
0100
0000
0001
0100
0001
0010
,
0000
0000
0100
0000
0100
1000
0001
0100
0010
0000
0010
0100
0000
0001
0010
0100
,
0000
1000
0010
0000
0100
0000
0100
0001
1000
0000
1000
0100
0000
0010
0000
0001
,
0011
0000
0000
0000
0101
0000
0000
0000
1100
0000
0000
0000
1000
0100
0010
0001
,
0000
0000
0011
0000
1100
0000
0011
0000
1100
0000
0000
0000
1000
0010
0100
0001
,
0000
0001
0010
0000
0010
0100
0000
1000
0000
1000
0010
0000
0010
0100
0000
0001
,
0000
0001
1000
0000
1000
0100
0000
0010
0000
0010
0100
1000
0001
1000
0001
0100
,
0110
0000
0000
0000
1010
0000
0000
0000
0101
0000
0001
0010
0100
1000
0100
0010
,
0000
0010
0001
0000
1001
0000
0100
0000
1001
0000
0000
0000
0001
0100
1000
0100
,
0000
0001
0010
0100
1000
0001
0010
0000
0100
1000
0100
0001
0100
1000
0010
0100
,
0010
0000
0100
0001
1000
0000
1000
0001
0010
0000
0010
0001
0100
0010
1000
0001
,
0100
0000
0100
0000
0100
0000
0100
0000
0010
1000
0001
0010
0000
0100
0000
1100
,
0000
1000
0001
1000
0001
0000
1000
0000
1001
0000
0000
0000
0001
1000
0010
0100
,
0000
0001
0010
0100
0010
0001
1000
0010
0000
0010
0100
0001
0100
0001
0010
0100
,
0000
1000
0001
0000
0100
0010
0000
1010
0000
1000
0001
1000
0010
0100
0001
0010
,
0000
0010
0100
0000
1000
0001
0000
0100
0000
0100
0001
0000
0010
0100
0000
1000
,
0000
1000
0010
0000
0100
0001
0000
0010
0100
0010
0001
0010
0100
0001
0100
1000
,
0000
0000
1010
0000
1000
0010
0100
0010
0000
0010
1000
0000
0001
0010
0100
1000
,
0000
0001
0100
0000
0100
0010
0000
1010
0000
0000
1000
0100
0010
0001
0100
0010
,
0000
0000
0101
0000
0001
0100
0010
1000
0000
0000
0001
0000
0010
0100
0000
0010
,
0000
0000
0000
0100
0000
0000
1000
0000
0000
0000
0000
0000
1000
0000
0000
0100
0000
0000
0000
0000
0000
0100
0000
0000
0010
0000
0000
0000
0000
0000
0001
0000
0010
0000
0100
0000
1000
0000
0001
0000
0010
0000
0100
0000
1000
0000
0001
0000
,
0100
0100
0100
0100
1010
0100
0100
0100
,
0011
0000
0000
0000
0000
0000
0100
0000
0000
0000
0000
0000
1010
0000
0000
0000
0000
0000
0100
0000
0000
0000
0000
0000
0010
0000
0000
0100
0000
0000
0010
0000
0000
0100
0000
0000
0010
0000
1000
0000
0100
0000
0010
0000
0001
0000
1000
0000
,
0010
0000
0100
0000
0010
0000
1000
0100
0000
1000
0001
0000
0110
0000
0000
0000
,
1000
0100
1000
0100
0000
0010
0000
0001
1000
0000
0010
0000
0100
0001
0010
0100
,
0000
0000
1000
0000
0100
0000
1000
0000
0100
1000
0000
1000
0000
1000
0010
0100
,
0000
0100
0001
0000
0010
0000
0001
0000
0010
0100
0000
0100
1000
0001
0000
0001
,
0100
0000
0010
0000
0100
0000
0010
1000
0100
0000
0010
0000
0100
0000
0010
0002
,
0000
0000
0103
0000
2010
0000
3100
0000
0012
0000
0103
0000
0110
0000
0000
2002
,
0000
0000
0000
0000
0000
0000
0000
0000
0003
0000
0000
0000
0000
0000
3001
0010
,
0100
0000
0000
0000
0000
0000
0000
0000
0000
0000
0000
0000
1000
0100
1000
0100
,
0000
0000
1000
0001
0100
0001
0100
0010
0000
0000
0010
1000
0001
1000
0001
0010
,
0000
0000
0100
0000
0100
1000
0000
1001
0000
0000
0001
0000
0001
0100
0000
1100
,
0000
0000
1000
0000
1000
0100
0000
0101
0000
0000
0001
0000
0001
0010
0000
0110
,
0000
0000
0100
0000
0100
0010
0000
1001
0000
0000
1000
0000
0001
0100
1000
0100
,
0000
0000
0010
1000
0100
1000
0010
0001
0000
0000
0010
1000
0100
0001
0100
0010
,
0000
0000
0110
0000
0100
1000
0000
1010
0000
0000
0001
0000
0100
0001
0000
0101
,
0000
0000
1000
0000
0100
1000
0000
1100
0000
0000
0010
0000
0100
0010
0000
0110
,
0000
0000
1000
0000
0001
1000
0000
1001
0000
0000
0000
0000
0000
0010
0000
0110
,
0000
0100
0010
0100
0010
0000
0100
0000
0110
0000
0000
0000
0001
0010
0100
0010
,
0000
0010
0001
0100
1000
0100
0010
0100
0000
0100
0001
0010
1000
0010
0001
1000
,
0000
1000
0010
0000
0100
0001
0000
0011
0000
0000
0010
0100
1000
0010
0100
0010
,
0000
0000
0100
0001
1000
0100
0010
0100
0000
1000
0001
0000
0100
0010
0000
0100
,
0000
0001
0010
0000
0100
1000
0000
0001
0100
0001
0100
0010
0100
0010
1000
0100
,
0000
0100
0001
0000
0001
0100
0010
0001
0000
0001
0100
0010
0001
1000
0100
0010
,
0000
0010
1000
0000
0001
0010
0000
0110
0000
0100
1000
0010
0001
1000
0100
0001
,
0000
0010
0100
0000
1000
0100
0010
0001
0000
0000
0011
0000
0001
1000
0000
0010
,
0000
0000
0100
0000
0010
1000
0010
1000
0001
0010
0100
1000
0010
0100
0001
0010
,
0100
0100
0100
0100
1010
0100
0100
0100
,
0011
0000
0000
0000
0000
0000
0100
0000
0000
1000
0000
0000
1001
0000
0000
0000
0000
0000
0001
0000
0000
0100
0000
0000
0010
0000
0000
0100
0000
0000
0001
0000
0000
1000
0000
0000
0001
0000
0010
0000
0100
0000
1000
0000
0000
0020
0000
0000
,
0000
0000
0130
0000
0010
0000
0100
0000
0010
0100
0010
0100
0110
0000
0001
0010
,
0100
1000
0100
1000
0000
0001
0000
0001
0100
0000
0010
0000
0100
0010
1000
0100
,
0010
0000
0010
0001
0000
1000
0000
1000
0010
0100
0010
0100
1000
0000
1000
0100
,
0001
0010
0001
0010
0000
0100
0000
0100
1000
0000
0010
0000
0100
0001
1000
0020
,
0000
0000
0000
0000
0000
0130
0001
0100
0002
0000
0000
0000
0000
0000
0000
0000
0000
0000
0000
0000
0000
0000
0000
0000
0000
0000
0000
0000
0000
1003
0100
1000
,
0100
0000
0000
0000
;
