#TITLE:いんたらくとふぁんたじあ;
#SUBTITLE:;
#ARTIST:ホロライブファンタジー;
#TITLETRANSLIT:Interact Fantasia;
#SUBTITLETRANSLIT:;
#ARTISTTRANSLIT:hololive Fantasy;
#GENRE:POP;
#CREDIT:;
#MUSIC:Interact Fantasia.ogg;
#BANNER:Interact Fantasia.png;
#BACKGROUND:Interact Fantasia-bg.png;
#CDTITLE:;
#SAMPLESTART:59.708;
#SAMPLELENGTH:10.159;
#SELECTABLE:YES;
#OFFSET:-0.025;
#BPMS:0.000=189.000;
#STOPS:;
#BGCHANGES:1.250=Interact Fantasia.avi=1.000=0=0=0=StretchNoLoop====,
99999.000=-nosongbg-=1.000=0=0=0=StretchNoLoop====
;
#FGCHANGES:;

//--------------- dance-single - ----------------
#NOTES:
     dance-single:
     :
     Medium:
     12:
     0,0,0,0,0:
0000
0000
0000
0000
,
0110
0000
1000
0001
0010
0000
0100
0000
,
0010
0001
0100
0001
0010
0001
1000
0000
,
1010
0000
0010
0100
0001
0000
0010
0000
,
0100
1000
0010
1000
0100
0010
0001
0000
,
0011
0000
0001
0010
1000
0010
0001
0000
,
1001
0000
1000
0010
0001
0020
0000
0130
,
0001
0000
1000
0200
0000
0310
0001
2000
,
0000
3010
0100
0010
0000
0110
0000
0001
,
1000
0000
0001
0010
0001
0010
0100
1000
,
0000
0000
0000
0000
0000
0100
0010
0000
,
1001
0000
0001
1000
0100
0000
0010
0001
,
1000
0000
0010
0100
0000
0100
0001
1000
,
0000
1000
0001
0010
0000
0010
0100
1000
,
0000
0001
0100
0001
0000
0010
0100
0000
,
0110
0000
0100
1000
0001
0000
0100
0001
,
0010
0000
0010
0100
0000
0010
0001
1000
,
0010
0000
0000
0000
1001
0000
0000
0000
2000
0000
0000
0100
0000
0000
0001
0000
,
3020
0000
0130
0010
0100
0000
0100
0001
,
0000
0001
1000
0000
0100
0000
0001
0200
,
0000
0000
0010
0000
0310
0000
0000
0000
0001
0000
0000
1000
0000
0000
0010
0000
,
0200
0000
0001
0301
0000
1000
0001
0010
,
0000
0000
0010
0001
1000
0000
0010
0100
,
0000
0100
0010
0100
0001
0010
0100
1000
,
0000
1000
0100
0020
0000
0031
0000
0011
,
0000
0001
1000
0010
1000
0010
0100
0001
,
0000
0000
0010
0100
0010
0000
0001
1000
,
0000
0001
0100
1000
0100
0001
0010
0200
,
0000
0310
0001
1000
0010
0000
0100
0001
,
0000
0001
0010
1000
0010
0001
0100
0020
,
0000
0130
0001
1000
0100
0010
0001
2000
,
0000
3010
0100
0010
0001
1000
0100
0002
,
0000
0000
0013
0000
0100
0000
0010
0000
0200
0000
0000
1000
0000
0000
1300
0000
,
0010
0100
0010
2000
0000
3001
0100
0010
,
1000
0000
0000
0000
0000
0010
0100
0000
,
1001
0000
0001
0100
0000
0100
0001
0000
,
0010
0000
0100
1000
0000
1000
0001
0000
,
0100
0000
1000
0100
0000
0100
0001
1000
,
0001
0000
0010
0100
0000
1000
0010
1000
,
0010
0100
0001
0011
0000
0010
0100
0010
,
0001
1000
0001
1001
0000
1000
0010
0100
,
0001
0000
1000
0100
0001
0000
0001
0100
,
1000
0000
1001
0000
0001
0000
0100
1000
,
0100
0001
1000
0100
0000
0010
0001
0100
,
0000
0010
1000
0100
0000
0010
0100
1000
,
0002
0100
0103
0000
0110
0000
0010
1000
,
0001
0010
0000
0000
0000
0000
0000
0000
,
0001
0010
0100
0001
0100
0010
0001
0000
,
0100
0010
0001
0010
0100
0001
0010
0000
,
0100
0000
0010
0001
0100
0000
0010
0001
,
0011
0110
1010
1001
,
1000
0100
0010
1000
0010
0100
1000
0000
,
0010
0000
0100
0000
1000
0000
0100
0000
0010
0000
0000
0010
0000
0000
1000
0000
,
0100
0000
0100
0010
0100
1000
0010
0000
,
0110
0000
0100
0001
0010
1000
0001
0100
,
1000
0000
1000
0010
0000
0010
0100
0000
,
0100
0001
0010
1000
0010
1000
0001
0100
,
1000
0000
1000
0010
0000
0010
0001
1000
,
0100
0000
0100
0001
0010
0001
0010
0100
,
2000
0000
0010
3010
0000
0100
0002
0000
,
0010
0013
0000
0100
1000
0100
0010
0001
,
0011
0000
0001
1000
0110
0000
0100
0001
,
0011
0000
0010
0100
1001
0000
1002
0000
,
0103
1010
1010
0101
,
1001
0011
1001
1100
,
2001
0000
3001
0010
0100
0000
1000
0010
,
0100
1001
0010
2001
,
3100
0011
0011
1100
,
1001
0000
0000
0000
0101
0000
0000
0000
0020
0000
0000
2030
0000
0000
3002
0000
,
0010
0000
0013
0200
0000
1300
0002
0000
,
0103
0000
0100
0000
0010
1000
0001
1000
,
0001
0012
2003
3200
,
0320
0230
2300
3002
,
0203
0000
0000
0000
2300
0000
0000
0000
3200
0000
0000
0302
0000
0000
0013
0000
,
0100
0000
0000
0100
1000
0010
1000
0010
,
0000
0010
0100
0001
0000
0001
0010
0100
,
0000
0000
0100
0000
1000
0000
0000
0000
0010
0000
0000
0010
0000
0000
1000
0000
,
0002
0000
0010
0000
1000
0000
0103
0010
,
0100
0020
0000
1000
0000
0100
0000
1030
,
0001
0000
0011
0000
0010
0100
0010
0000
,
1001
0000
0001
0100
0000
0010
1000
0100
,
0000
0010
0001
0100
0000
0010
1000
0001
,
0000
0001
0010
0200
0000
0010
0310
0000
,
0100
0000
1001
0000
1000
0010
0100
0000
,
0101
0000
0001
1000
0000
0001
0100
0010
,
1000
0100
0001
0100
1000
0000
0001
1000
,
0010
0001
0010
1000
0001
0010
0100
1000
,
0000
0000
0000
0000
,
2002
0000
0000
0000
,
0000
0000
0000
0000
,
3003
0000
0000
0000
;

//--------------- dance-single - ----------------
#NOTES:
     dance-single:
     :
     Hard:
     15:
     0,0,0,0,0:
0000
0000
0000
0000
,
0101
0000
0001
0000
1000
0100
0000
0000
0010
0000
0000
0100
1000
0000
0010
0000
,
0100
0000
0001
0000
1000
0000
0001
0100
0001
0000
0010
0000
0100
0000
0000
0000
,
1100
0000
1000
0000
0001
0100
0000
0000
0010
0000
0000
0100
0001
0000
0010
0000
,
0100
0000
0010
0000
0001
0000
1000
0100
1000
0000
0010
0000
0100
0000
0000
0000
,
0110
0000
0000
0100
0001
0000
1000
0000
0100
0000
1000
0100
1000
0000
0001
0100
,
0001
0000
0000
0100
0010
0000
0010
1000
0001
0000
0020
0000
0000
0000
0130
0000
,
1000
0100
1000
0002
0000
0103
0010
0200
,
0000
0301
0010
0100
0000
1100
0000
1000
,
0001
0000
0100
0001
0100
0001
1000
1001
,
0000
0000
0000
0000
0000
0000
0000
0000
0000
0000
1000
0100
0010
0000
0000
0000
,
0110
0000
0100
1000
1100
0000
1000
0010
,
0110
0000
0100
0001
0000
0001
1000
1100
,
0000
1000
0001
0101
0000
0100
0010
0110
,
0000
0000
0100
0001
1000
0000
0200
0000
0000
0000
0310
0000
0001
0010
0100
1000
,
0001
0000
0100
0000
0101
0000
0000
0000
0100
0000
0010
0000
0110
0000
0000
0010
,
1000
0000
0100
0000
0010
0000
0011
0000
0000
0000
0001
0000
0010
0000
0100
1000
,
0100
0000
0000
0000
0110
0000
0000
0000
0001
0000
0000
0100
0000
0000
0010
0000
,
1010
0000
0100
0001
1000
0000
0110
1001
,
0000
0001
0100
0001
0100
1000
0100
0002
,
0000
0000
0010
0000
0013
0000
0000
0000
2100
0000
0000
0100
0000
0000
0001
0000
,
3020
0000
0100
0230
0000
0310
1000
0001
,
0000
0000
0001
1000
0100
0000
0110
0011
,
0000
0001
0010
1000
0010
0001
0100
2000
,
0000
3100
0000
0110
0000
1002
0000
0023
,
0000
0130
1000
0010
0100
0001
1000
1100
,
0000
0000
0100
1000
0010
0000
1010
0110
,
0000
0000
0100
0001
0010
0000
0100
0000
1000
0000
1000
0000
0001
0000
0200
0000
,
0000
0310
1000
0001
0011
0000
0110
1100
,
0000
0000
1000
0000
0001
0000
0100
0010
0100
0000
1000
0000
0001
0000
0020
0000
,
0000
1030
0100
0010
0011
0001
1000
0210
,
0000
0302
0000
0013
0100
1000
0010
0200
,
0000
0000
0310
0000
1000
0000
0200
0000
0001
0000
0000
0010
0000
0000
1300
0000
,
0010
0000
0100
0000
0010
0000
2000
0000
0000
0000
3001
0000
0100
0000
0001
0010
,
0100
0010
0100
0010
,
0110
0000
0000
0000
1000
0000
0001
0000
0100
0000
0000
1000
0000
0000
0100
0000
,
0001
0010
0100
1000
,
0001
0000
0000
0000
0000
0000
1000
0100
1000
0000
0000
0001
0000
0000
0100
0000
,
0010
0000
0000
0000
0010
0000
1000
0000
0000
0000
1000
0100
0010
0001
1000
0000
,
0010
0000
0100
0000
0001
0000
0101
0000
0000
0000
0001
0000
0010
0000
0100
0010
,
0100
1000
0001
1001
0000
1000
0010
0100
,
0001
0000
0001
0100
0010
0000
0010
0100
,
0201
0000
0000
0010
0000
0000
0301
0000
1020
0000
0000
0100
0000
0000
1030
0000
,
0001
1000
0100
0010
0001
1000
0100
0010
,
0000
0001
0100
0010
1000
0001
0100
0010
,
1000
0000
0001
1000
1100
0000
0100
0010
,
0100
1000
0001
0100
0000
0100
0001
0000
,
0101
0000
0001
0100
0001
0000
0100
0010
0100
0000
0001
0000
0010
0000
0100
0000
,
0001
0000
0100
0010
0100
0000
0010
0001
0010
0000
0001
0000
0100
0000
0010
0000
,
0001
0000
0010
0100
0010
0000
0100
0000
0001
0000
0010
0100
0010
0000
0001
0000
,
0011
0110
1100
1001
,
1010
0000
1000
0010
1000
0000
0010
0100
0010
0000
1000
0000
0100
0000
1000
0000
,
0010
0000
0100
0010
0100
0010
1000
0000
0100
0000
0000
0010
0000
0000
1100
0000
,
1000
0000
0010
0100
0010
0000
1000
0000
0100
0000
0010
1000
0010
0000
0100
0000
,
1000
0000
0010
0100
1000
0000
0100
0010
1000
0000
0010
0000
1000
0100
1000
0100
,
0010
0100
0001
0100
1000
0001
1000
0010
,
0001
0000
0010
0000
1000
0000
0001
0010
0100
0000
0010
0000
0001
0000
1000
0010
,
0100
0000
0010
0000
0001
0000
1000
0100
0010
0000
0100
0000
0001
0000
0010
0100
,
1000
0000
0100
0000
0001
0000
1000
0000
0010
0000
0001
1000
0001
1000
0001
1000
,
0010
0100
0001
0102
0000
1003
0100
0010
,
0100
0210
0000
1300
0001
0100
0010
1000
,
1010
0000
0001
0001
0010
0010
0100
0100
,
1000
0000
0100
0000
0010
0000
0001
0010
0100
0000
0010
0100
1000
0000
0100
1000
,
0001
0000
1000
0010
0100
0001
0010
0100
,
0010
0001
0100
0001
0010
0001
0100
0010
,
2010
0000
3001
0010
0210
0000
1300
0001
,
0101
1010
1100
0011
,
1001
0000
1000
0100
0001
0100
1000
0010
,
1000
0000
0001
0000
0100
0000
0010
0000
1010
0000
0000
0101
0000
0000
0001
0000
,
0020
0000
0130
2000
0000
3001
0020
0000
,
0130
0000
1000
0000
0001
0100
0010
1000
0001
0000
0010
0000
0100
0000
0010
0001
,
0100
0010
0001
0010
1000
0100
0010
0100
,
0001
0100
1000
0001
0100
0010
0100
1000
,
0001
0000
0010
0000
1000
0000
0100
0000
1100
0000
0000
0011
0000
0000
0110
0000
,
1100
0000
1000
0000
0010
0000
0100
0000
0010
0000
1000
0010
1000
0000
0001
0100
,
0001
0010
0110
0100
1000
0001
1001
1000
,
0010
0000
0100
0000
0101
0000
0001
0000
0010
0000
0000
0011
0000
0000
0001
0000
,
1000
0000
0010
0100
0010
0000
1000
0000
0001
0000
0010
0100
0010
0000
0001
0000
,
1000
2100
0000
0001
0000
0001
0000
3010
,
0100
0000
0100
0001
0011
0000
0010
0100
,
1100
0000
1000
0001
0000
0100
0001
0011
,
0000
0100
1000
1010
0000
0100
0010
1001
,
0000
0000
0001
0100
0010
0000
0120
0000
0000
0000
1030
0000
1000
0100
0010
0001
,
0100
0010
1010
0000
1000
0100
0110
0000
,
0010
0001
1000
0110
0000
0100
0001
1000
,
0100
0000
0010
0100
1000
0000
0010
0000
0100
0000
0001
0010
0100
0000
0010
0000
,
0001
0000
1000
0010
0100
0000
0010
1000
0001
0000
0010
0100
0010
0100
1000
0000
,
0001
0010
0001
0010
0100
0010
0001
1000
0010
0000
0000
0000
0000
0000
0000
0000
,
2010
0000
0000
0000
,
3010
0100
0010
0000
0010
1000
0001
1000
0001
0010
0200
0000
0000
0000
0000
0310
;

//--------------- dance-single - ----------------
#NOTES:
     dance-single:
     :
     Challenge:
     18:
     0.871229,0.656156,0,0,0,713,713,0,0,0,0,0.871229,0.656156,0,0,0,713,713,0,0,0,0:
0000
0000
0000
0000
,
1001
0000
0001
0000
1000
0010
1000
0000
0100
0000
0010
0100
0010
0000
0001
0000
,
1000
0001
1000
0000
0010
0000
1000
0010
1000
0000
0001
0000
0010
0001
0010
0000
,
1100
0000
1000
0000
0001
0100
0001
0000
0010
0000
0100
1000
0100
0000
1000
0000
,
0001
1000
0001
0000
0100
0000
0010
0100
0010
0000
1000
0100
1000
0000
0001
0000
,
0011
0000
0010
0100
1000
0000
0001
0000
0100
0010
0100
0001
0100
1000
0100
0010
,
1000
0000
0100
0000
0010
0100
0010
0001
1000
0000
0010
0000
0100
0001
0100
0001
,
0020
0000
0130
2000
0000
3001
0100
0020
,
0000
0000
0130
0000
0001
0000
1000
0000
0100
0000
1000
0010
1000
0000
0001
0000
,
0101
0000
1010
0010
0100
0101
0010
1001
,
0000
0000
0000
0000
0000
0000
0000
0000
0000
0000
0000
0000
0000
0000
0000
0000
0000
0000
0000
0000
0000
0000
0000
0000
0000
0000
0000
0000
0000
0000
0001
0000
0000
0010
0000
0000
0100
0000
0000
0000
0000
0000
1000
0000
0100
0000
0010
0000
,
0001
0000
0100
0000
0101
0000
0001
0000
1001
0000
0001
0000
0011
0000
0010
0100
,
0010
0001
1000
1010
0000
0101
0010
0101
,
1000
0000
0001
0010
0100
0000
1000
0000
0010
0000
0100
0000
0100
0000
1001
0000
,
1000
0000
0000
0000
0000
0000
0001
0000
0000
0100
0000
0000
0010
0000
0000
0000
0000
0000
0110
0000
0000
0000
0000
0000
0000
0000
0000
0000
0000
0000
1001
0000
0000
0000
0000
0000
0001
0000
0010
0000
0100
0000
1000
0000
0001
0000
0010
0000
,
0100
0000
1000
0001
0100
0000
0010
0000
1010
0000
0100
0000
1010
0000
1000
0001
,
0010
0000
0100
0000
1000
0000
1100
0000
0000
0000
0101
0000
0100
0000
0001
0010
,
0100
0000
0000
0000
1100
0000
0000
1000
0010
0000
0000
0101
0000
0000
1010
0000
,
0011
0000
0000
0000
0000
0000
0101
1001
,
0000
0000
0000
0000
0000
0000
0100
1010
,
0000
0000
0110
0000
0110
0000
0000
0000
1000
0000
0000
0001
0000
0000
0100
0000
,
0110
0000
0000
0000
0000
0000
1010
0001
,
0000
0001
0100
0110
0000
0000
0110
1010
,
0000
1000
0100
0001
0100
0010
0100
0010
,
0001
0100
1000
0100
0010
0100
0010
1000
,
0001
0000
0001
0000
1000
0000
1000
0010
0100
0000
0001
0000
0001
0000
1100
0000
,
0000
1000
0100
0010
0100
1100
0110
0011
,
0000
0000
0001
0100
0001
0000
0001
0010
0001
0000
0010
0000
0100
0000
0010
0000
,
0100
0000
1000
0100
1000
0000
1000
0010
1000
0000
0001
0000
0011
0000
1100
0000
,
0000
1000
1010
0010
0011
0001
0101
1001
,
0000
0000
1000
0010
0100
0000
0010
1000
0001
0010
0100
0010
0100
0010
0011
0000
,
0000
0010
0110
0100
1000
0002
0203
2300
,
0000
0000
3100
0000
0101
0000
0001
0000
0011
0000
0000
0110
0000
0000
1100
0000
,
1000
0000
0010
0000
0100
0000
0020
0000
0000
0000
0130
0000
0001
0000
1000
0100
,
0010
0000
0000
0000
0001
1000
0110
0000
,
0010
0100
0001
0101
0000
0001
0011
0000
,
0100
1100
0000
1010
0001
0100
0101
0000
,
0010
0000
1010
0000
0000
0000
1000
0001
0010
0000
0100
0000
1100
0000
1000
0000
,
1001
0000
0000
0000
0000
0000
0000
0000
0000
0000
0000
0000
0010
0000
0000
0000
0000
0000
0011
0000
0000
0000
0000
0000
0000
0000
0000
0000
0000
0000
0010
0000
0000
0001
0000
0000
1000
0000
0100
0000
0010
0000
0001
0000
0000
0000
0000
0000
,
0010
0000
0100
0000
0100
0000
1100
0000
0000
0000
1000
0000
0010
0000
0100
0001
,
0100
0010
0010
0110
0000
1010
0110
1001
,
0001
0010
0001
0100
0001
1000
0100
1000
,
1010
0000
0000
0110
0000
0000
0101
0000
0011
0000
0010
0100
1000
0000
0010
0000
,
0001
1000
0100
0010
0001
1000
0100
0010
,
0000
0000
1000
0000
0100
0000
0010
0100
0010
0000
0001
1000
0001
0100
0010
1000
,
0001
0000
0011
0000
0011
0000
0000
0000
1100
0000
0000
1000
0010
0100
0010
1000
,
0001
0011
0000
0000
0000
0000
0000
0000
,
1001
0000
0100
0001
0010
0000
0010
0001
0100
0000
0001
0000
0100
0010
0001
0010
,
0100
0000
0100
0001
0010
0000
0100
0000
0001
0000
0100
0000
0010
0000
0001
0100
,
0010
0000
0010
0100
0001
0000
0001
0010
0100
0000
0010
0000
0010
0001
0100
0010
,
0001
0000
0001
0010
0100
0000
0100
0001
0010
0000
0010
0100
0001
0100
0010
0001
,
1000
0000
0010
0000
0100
0000
0010
1000
0100
0000
0010
0000
0100
1000
0010
0100
,
1000
0000
1000
0100
0010
0000
1000
0000
1100
0000
0000
0110
0000
0000
0100
1000
,
0010
0000
0100
0000
0010
1000
0100
0010
1000
0000
1000
0010
0100
1000
0010
0000
,
0100
0000
0010
1000
0100
0000
0100
1000
0010
0000
0010
1000
0100
0010
1000
0010
,
0001
0000
1000
0000
0001
0000
0100
0010
0100
0000
0001
0000
1000
0100
0010
0100
,
1000
0000
0001
0100
0010
0000
0100
0001
1000
0000
0100
0000
0001
0100
1000
0010
,
0100
0000
0010
0100
0010
1000
0001
0010
0100
0000
1000
0000
0001
0100
0010
1000
,
0010
0000
0100
0001
0100
0000
0010
1000
0010
0000
0100
0001
0010
0100
1000
0100
,
1200
1000
0310
1002
0100
0013
1020
1000
,
0130
0000
2001
0000
0010
0000
3100
0000
0110
0000
0010
0001
1000
0000
0010
0000
,
1010
0000
1100
1000
1010
0010
0011
0001
,
0101
0000
0100
0000
1001
0000
0001
0010
0100
0010
0001
0010
0100
1000
0001
0010
,
0100
1000
0002
0103
0020
1030
0002
0013
,
0200
1300
0002
0103
2000
3100
0002
1003
,
2100
0000
3001
0100
0210
0000
0301
1000
,
1200
0301
0201
1300
1020
0031
0021
0030
,
0110
0000
2000
3100
0020
1030
0020
0031
,
0200
0000
1300
0000
0002
0000
0013
0000
1010
0000
0000
0110
0000
0000
0101
0000
,
0020
0000
0130
2100
0000
3001
0120
1030
,
0001
0000
1000
0100
0010
0100
1000
0100
0001
0000
0100
1000
0010
0000
0100
0001
,
1000
0100
0012
1003
0201
0310
2100
3001
,
1020
0130
0012
1003
0201
0310
2100
3001
,
1020
0000
0130
0000
0012
0000
1003
0000
0101
0000
0000
0110
0000
0000
0110
0000
,
1001
0000
0001
0000
0010
0000
0100
0000
1000
0000
0010
0100
0010
1000
0001
1000
,
0100
1100
1100
1001
0101
0101
1001
1010
,
1010
0000
0110
0000
0101
0000
0101
0000
1001
0000
0000
0011
0000
0000
1100
0000
,
1100
0000
1000
0100
0010
0001
1000
0000
0010
0100
0010
1000
0001
0000
0010
0000
,
0110
0000
1100
0000
0000
0000
1000
0000
0000
0000
0001
0000
0000
0000
0100
0010
,
1000
0000
0100
0000
1100
0000
1000
0000
1001
0000
1000
0000
1010
0000
0010
0100
,
0010
1000
0001
0011
0000
1100
0010
1100
,
0001
0000
1000
0010
0100
0000
0001
0000
0010
0000
0100
0000
0100
0000
1001
0000
,
0001
0000
0000
0000
0000
0000
1000
0000
0000
0100
0000
0000
0010
0000
0000
0000
0000
0000
0110
0000
0000
0000
0000
0000
0000
0000
0000
0000
0000
0000
1001
0000
0000
0000
0000
0000
1000
0000
0010
0000
0100
0000
0001
0000
1000
0000
0010
0000
,
0100
0000
0001
1000
0100
0000
0010
0000
0011
0000
0100
0000
0011
0000
0001
1000
,
0010
0000
0100
0000
0001
0000
0101
0000
0000
0000
1100
0000
0100
0000
1000
0010
,
0100
0000
0001
0010
0100
0000
0010
0000
0100
0010
0001
1000
0010
0100
0001
0100
,
0010
1000
0100
1000
0001
0010
0100
1000
0001
0010
1000
0010
0001
0100
1000
0000
,
0100
0010
0100
1000
0100
0010
1000
0100
0010
0000
0000
0000
0000
0000
0000
0000
,
0210
0000
0000
0000
0000
0000
0000
0000
0000
0000
0000
0000
0000
0000
0000
0000
0000
0000
0000
0000
0000
0000
0000
0000
0000
0010
0000
0000
0000
0000
0000
0000
0000
0000
0010
0000
0000
0000
0000
0000
0000
0000
0000
0000
0010
0000
0000
0000
0000
0000
0000
0000
0000
0000
0000
0000
0000
0000
0000
0000
0000
0000
0000
0000
,
0310
0001
1000
0000
0010
1000
0100
0010
0001
0100
0020
0000
0000
0000
0000
0130
;
