#TITLE:インスタントヘヴン;
#SUBTITLE:;
#ARTIST:ナナヲアカリ feat.Eve;
#TITLETRANSLIT:Instant Heaven;
#SUBTITLETRANSLIT:;
#ARTISTTRANSLIT:Nanawoakari feat.Eve;
#GENRE:POP;
#CREDIT:;
#MUSIC:Instant Heaven.ogg;
#BANNER:Instant Heaven.png;
#BACKGROUND:Instant Heaven-bg.png;
#CDTITLE:;
#SAMPLESTART:64.891;
#SAMPLELENGTH:10.378;
#SELECTABLE:YES;
#OFFSET:1.271;
#BPMS:0.000=185.000;
#STOPS:;
#LASTBEATHINT:0.835583;
#BGCHANGES:4.000=Instant Heaven.avi=1.000=0=0=0=StretchNoLoop====,
99999.000=-nosongbg-=1.000=0=0=0=StretchNoLoop====
;
#FGCHANGES:;

//--------------- dance-single - ----------------
#NOTES:
     dance-single:
     :
     Hard:
     12:
     0,0,0,0,0:
0000
0000
0000
0000
,
0000
0000
0000
0000
,
0001
0000
1000
0100
0000
1000
0001
1000
,
0010
0100
0010
0000
,
1000
0000
0001
0010
0000
0100
0010
0001
,
1000
0010
0010
0000
,
0100
0000
0001
1000
0000
1000
0001
0010
,
0100
0000
0100
0000
1000
0000
0001
0100
,
0000
0010
1000
0001
1000
0001
0010
0000
,
0000
0100
0000
0100
1000
0001
0010
0100
,
1000
0000
0000
0001
0100
0000
0010
0000
0110
0000
0000
0000
0110
0000
0000
0000
,
2001
0000
3100
0000
1000
0002
0000
0203
,
0010
0000
1000
0000
0301
1000
0001
1000
,
1200
0000
0310
0000
0001
2000
0000
3020
,
0100
0000
1000
0000
0130
0001
0100
0001
,
0021
0000
0130
0000
0100
2000
0000
3020
,
0100
0000
1000
0000
0130
0001
0100
0001
,
1002
0000
0100
0000
1003
0020
0000
2030
,
0010
0000
0001
0000
3100
0010
0100
0010
,
0001
1000
0000
1000
0010
0100
0000
0100
,
0001
1000
0001
0000
0001
0010
0000
0100
,
1000
0000
0000
1000
0010
0000
0000
0010
0100
0000
0000
0000
0100
0000
0001
0000
,
2000
0000
0100
0000
0001
0000
3100
1000
,
0010
0000
0000
0010
1000
0000
0000
0000
0100
0000
0010
0000
0000
0000
0010
0000
,
0000
0010
0001
1000
0001
1000
0000
0001
,
0010
0100
0000
0010
0100
1000
0000
1000
,
0001
0000
0001
0100
1000
0000
1000
0100
,
0001
0010
0000
0010
0100
1000
0000
1000
,
0010
0100
0010
0000
0010
1000
0000
0001
,
0010
0000
0000
0010
0100
0000
0000
0100
1000
0000
0000
0000
1000
0000
0010
0000
,
0200
0000
1000
0000
0001
0000
0310
1000
,
0001
0000
0001
0000
0001
0010
0100
1000
,
0000
1000
0010
0001
0010
1000
0000
1000
,
0100
0000
0010
0000
0000
0000
0100
0000
0010
0000
0001
0000
0000
0000
1000
0001
,
1000
0000
0110
0000
1001
0000
0001
0010
,
0100
0100
0100
0100
0000
1000
0001
0010
,
0100
0100
0100
0100
0000
1000
0010
0100
,
0001
0000
0000
0001
0010
0000
0000
0010
0100
0000
0000
0000
0100
0000
1000
0000
,
0000
1000
0010
0100
0001
1000
0001
0010
,
0100
0100
0100
0100
0000
1000
0001
0010
,
0100
0100
0100
0100
0000
1000
0010
1000
,
0010
1010
0101
1001
,
0001
0010
0100
0000
1000
0010
0100
0000
,
0001
0100
0100
1000
0001
0100
0100
1000
,
0001
0100
0100
1000
0001
0100
0010
0000
,
1000
0100
0100
0001
1000
0100
0100
0001
,
1000
0100
0100
0001
1000
0100
0010
0000
,
0001
0100
0100
1000
0001
0010
0010
1000
,
0001
0100
0100
1000
0001
0010
0100
0000
,
1000
1000
0001
0001
1000
1000
0001
0002
,
0000
0103
0100
0100
0100
0000
1001
0000
,
0001
0000
0100
0000
0001
1000
0000
0100
,
0010
0100
0000
1000
0001
0100
0001
1000
,
0010
0000
0100
0000
0001
0010
0000
0100
,
0000
1000
0000
0100
0001
0100
1000
0100
,
0010
0000
0001
0000
0100
0010
0000
1000
,
0000
0100
0010
0001
1000
0000
1000
0010
,
0100
0000
0110
0000
0001
1000
0000
1001
,
0000
1000
0100
0010
0001
0010
0100
1000
,
0001
0000
0001
0100
0000
0100
1000
0100
,
0101
1010
0101
0001
,
1000
0000
1000
0100
0000
0100
0001
0100
,
1100
0000
0011
0000
1100
0000
1000
0010
,
0100
0000
0001
0010
0000
0100
1000
0001
,
0100
0000
0100
0000
0110
0000
0010
1000
,
0000
1000
0100
0001
0100
0000
1000
0000
,
0000
0001
0000
0001
0100
1000
0100
0001
,
0010
0000
0010
0100
0000
0100
1000
0001
,
0101
0000
1001
0000
1100
0000
1000
0100
,
0010
0000
0010
0100
0000
0100
1000
0001
,
0101
0000
1010
0000
1000
0100
0010
0001
,
1000
0010
0100
0010
0100
0000
0101
0000
,
0001
0000
1100
1000
0010
0000
0100
0000
,
0002
1000
0203
0010
,
0301
1000
0000
1000
0001
0010
0000
0010
,
0100
0000
1000
0010
0100
0010
1000
0001
,
1000
0000
0001
0010
0100
0010
0001
1000
,
0001
0000
0100
1000
0100
0010
0100
0001
,
1000
0100
0000
0100
1000
0001
0000
0001
,
1000
0000
0001
0100
0010
0100
0001
1000
,
0100
0010
0000
0010
0100
0000
0110
0000
,
1001
0000
1000
0100
0001
0100
0010
0100
,
1000
0010
0001
0010
0100
0001
0000
0001
,
1000
0000
0000
1000
0100
0000
0010
0000
0110
0000
0000
0000
0110
0000
0000
0000
,
2001
0000
3020
0000
0130
0002
0000
0013
,
0200
0000
0001
0000
1300
0010
0100
0001
,
0102
0000
0023
0000
0130
2000
0000
3010
,
0200
0000
1000
0000
0310
1000
0001
0010
,
0100
1100
0000
0101
0000
1100
0000
0101
,
0000
1010
0000
0011
0000
1010
0000
0011
,
0002
0000
0203
0000
0310
2000
0000
3200
,
0000
0310
0001
0010
0100
1000
0100
1000
,
0001
0100
1000
0000
1000
0100
0001
1000
,
0001
0010
0100
1000
0100
0010
0001
1000
,
0001
0010
1000
0000
1000
0010
0001
1000
,
0001
0100
0010
1000
0100
1000
0010
0100
,
0002
1000
0000
0100
0000
1000
0000
0100
,
0000
2003
0000
0001
0000
0100
0000
3001
,
0010
0100
1000
0000
1000
0010
0100
0001
,
0000
1000
0100
1000
0100
0010
0001
0010
,
0001
0000
0000
1000
0010
0000
0100
0000
0001
0000
0010
0000
0100
0000
1000
0000
,
0000
0000
0000
1001
0000
0000
0000
0000
;

//--------------- dance-single - ----------------
#NOTES:
     dance-single:
     :
     Challenge:
     16:
     0.836065,0.842093,0.007552,0,0.056637,775,774,1,0,0,0,0.836065,0.842093,0.007552,0,0.056637,775,774,1,0,0,0:
0000
0000
0000
0000
,
0000
0000
0000
0000
,
0001
1000
0000
0000
0000
0000
0000
0000
,
1000
0001
0000
0000
0000
0000
0000
0000
,
0010
0100
0000
0000
0000
0000
0000
0000
,
0100
0010
0000
0000
0000
0000
0000
0000
,
0001
0100
0001
0010
0001
0100
0001
0010
,
0100
1000
0010
1000
0100
1000
0010
0100
,
0000
0100
0001
0010
0100
1000
0001
0000
,
0000
1000
0000
1000
0010
0100
0001
1000
,
0001
0000
0100
0010
0100
0000
0001
0000
1001
0000
0000
0000
1001
0000
0000
0000
,
1000
0000
0001
0100
0001
0000
0010
0000
0100
0000
1000
0010
1000
0000
0100
0000
,
0010
0000
0001
1000
0001
0000
0100
0000
0001
0000
0010
0000
0100
0000
1000
0000
,
0001
0000
1000
0100
1000
0000
0010
0000
0100
0000
0001
0010
0001
0000
0100
0000
,
0101
0000
0000
0000
1010
0000
1000
0000
0001
0000
0100
0010
0100
0010
0100
0010
,
1000
0000
0001
0010
0001
0000
0100
0000
0010
0000
1000
0100
1000
0000
0010
0000
,
0100
0000
0001
1000
0001
0000
0100
0000
0001
0000
0010
0000
0100
0000
1000
0000
,
0001
0000
1000
0010
1000
0000
0100
0000
0010
0000
0001
0100
0001
0000
0010
0000
,
0100
0000
1000
0000
0001
0000
0100
0010
0100
0000
0001
0010
0001
0010
0100
1000
,
0001
0100
0000
0100
0001
0010
0000
0010
,
0100
1000
0001
0000
0001
0100
0000
0010
,
1000
0000
0000
0001
0010
0000
0000
0100
1000
0000
0010
0000
0100
0000
0001
0000
,
2000
0000
0001
0000
3100
0010
0001
0100
,
0010
0000
0000
0100
0001
0000
0000
1000
0100
0000
0010
0000
0100
0000
1000
0000
,
0000
1000
0010
0100
0001
1000
0000
0001
,
0010
0100
0000
0011
0110
1100
0000
1000
,
0001
0000
0000
0001
1000
0000
0010
0000
0100
0001
1000
0001
1000
0001
1000
0001
,
0010
0100
0000
0100
1000
0001
0000
0001
,
0100
0010
0100
0000
0100
0001
0000
1000
,
0010
0000
0000
0100
0001
0000
0000
1000
0010
0000
0000
0000
0010
0000
0100
0000
,
0002
0000
0010
0000
1003
0010
0100
0001
,
1000
0000
0000
0100
0010
0000
0000
0001
1000
0000
0010
0000
0100
0000
0020
0000
,
0000
0130
0001
0010
0100
1000
0000
1000
,
0010
0000
0100
0000
0000
0000
1010
0000
0110
0000
0101
0000
0000
0000
0001
1000
,
0100
0000
0000
0010
0001
0000
1000
0000
1100
0000
0000
0000
1000
0000
0001
0000
,
0101
0101
0101
0101
0000
0001
1000
0100
,
1100
1100
1100
1100
0000
1000
0010
0100
,
0001
0000
0000
1000
0100
0000
0010
0000
0100
0000
1000
0000
0001
0000
0100
0000
,
0010
0000
0010
0000
0100
0000
0100
0000
0001
1000
0001
1000
0100
0000
0010
0000
,
0011
0011
0011
0011
0000
0001
0100
0010
,
1010
1010
1010
1010
0000
1000
0010
1000
,
0010
0000
0000
0100
0001
0000
0000
0010
0100
0000
1000
0000
0001
0000
0000
0000
,
1000
0000
0001
0100
0001
0000
0010
0100
0010
0100
1000
0001
1000
0001
0010
0100
,
1000
0000
0001
0100
0001
0000
1000
0000
0001
0000
1000
0100
1000
0000
0001
0000
,
1000
0000
0001
0100
0001
0000
0010
0000
0100
0000
1000
0000
0001
0000
0100
0000
,
0010
0000
1000
0100
1000
0000
0001
0000
1000
0000
0001
0100
0001
0000
1000
0000
,
0001
0000
1000
0100
1000
0000
0010
0000
0100
0000
0001
0000
0010
0000
0100
0000
,
1000
0000
0100
0001
0100
0000
1000
0000
0001
0000
0100
1000
0100
0000
0001
0000
,
1000
0000
0100
0001
0100
0000
1000
0000
0001
0000
0100
0000
1000
0000
0001
0000
,
0010
0010
0100
0100
0001
0001
1000
1100
,
0000
0000
1000
0010
1000
0010
1000
0010
0100
0000
0000
0000
0110
0000
0000
0000
,
0001
0000
1000
0001
1000
0000
0010
0000
0100
0000
0001
1000
0001
0000
0010
0000
,
0100
0000
1000
0010
0100
0000
1000
0100
0010
0000
0100
0001
1000
0000
0100
0000
,
0010
0000
0001
1000
0001
0000
0100
0000
0010
0000
1000
0001
1000
0000
0100
0000
,
0010
0000
0002
0000
0000
0000
1003
0000
0001
0010
0100
0010
0001
0010
0100
1000
,
0010
0000
0100
0010
0100
0000
0001
0000
1000
0000
0100
0010
0100
0000
1000
0000
,
0001
0000
0100
0010
0001
0000
0010
0100
0001
0000
1000
0001
0010
0000
0100
0000
,
1000
0000
0010
0100
0010
0000
1000
0000
0001
0000
0010
0100
0010
0000
0001
0000
,
1000
0000
0010
0000
0010
0000
0100
0000
0001
0000
0010
0100
1000
0100
0010
0100
,
1000
0000
0001
0010
0100
0000
0010
1000
0010
0000
0100
0010
0001
0000
0100
0000
,
0101
0000
0000
0000
1010
0000
0000
0000
0101
0000
0001
0100
0010
0000
0100
0000
,
0010
0000
1000
0010
0100
0000
0010
0001
0010
0000
0100
0010
1000
0000
0100
0000
,
1100
0000
0000
0000
0011
0000
0000
0000
1100
0000
0100
1000
0010
0100
0010
0100
,
1000
0000
0100
0001
0010
0000
1000
0000
0010
0000
0001
0100
0010
0000
0001
0000
,
0010
0000
1000
0100
0010
0000
1000
0000
0010
0000
0001
0000
0100
0000
0110
0000
,
0000
0000
0010
0000
1000
0000
1000
0000
0001
0000
0010
0000
0100
1000
0100
1000
,
0001
0000
0101
0000
0000
0000
1001
0000
1000
0000
0001
0010
0100
1000
0100
0010
,
0001
0020
1030
0020
0031
0020
1030
0020
,
0031
0200
1300
0200
0301
0200
1300
0100
,
0110
0000
0001
1000
1001
0000
0001
0010
,
1100
0000
0000
0000
0011
0000
0000
0000
1001
0000
0001
0000
1000
0010
1000
0010
,
0200
1000
0000
0001
0000
1000
0000
0301
,
0020
1000
0000
0001
0000
1000
0000
0031
,
2000
0000
0000
0000
0001
0000
0000
0000
3001
0000
0010
0000
0100
1000
0100
1000
,
0001
0000
0100
0000
0000
0000
0100
0000
0001
0000
0010
0100
1000
0001
0010
0100
,
1000
0000
0001
0010
0100
0000
0010
0000
0100
0000
1000
0010
0100
0000
0010
0000
,
0100
0000
0001
0010
0100
0000
0010
0000
0100
0000
1000
0010
0100
0000
0010
0000
,
1000
0000
0001
0010
1000
0000
0001
0000
1000
0000
0001
0100
1000
0000
0001
0000
,
0100
0000
0110
0000
0000
0000
0010
0000
1000
0000
0001
0000
1000
0100
0010
0001
,
1000
0000
0001
0100
0020
0000
0031
0000
0010
0000
1000
0100
0020
0000
1030
0000
,
0010
0000
0001
0100
0020
0000
0031
0000
0010
0000
1000
0100
0020
0000
1030
0000
,
0010
0000
0001
1000
0001
0000
0100
0001
0100
0000
0010
0100
0010
0000
1000
0100
,
1000
0000
0100
0000
0010
0000
0100
0000
1000
0010
1000
0001
0100
0001
0010
0100
,
1000
0000
0000
1000
0010
0000
0100
0000
0110
0000
0000
0000
0110
0000
0000
0000
,
1001
0000
0001
0100
0001
0000
0010
0000
0100
0000
1000
0010
1000
0000
0100
0000
,
0010
0000
0001
1000
0001
0000
0010
0000
0100
0000
1000
0000
0001
0000
0100
0000
,
0010
0000
1000
0100
1000
0000
0010
0000
0100
0000
0001
0010
0001
0000
0100
0000
,
0010
0000
1000
0001
1000
0000
0010
0000
0100
0000
0001
0000
1000
0100
0010
0001
,
1000
1010
0000
0101
0000
1010
0000
0101
,
0000
0011
0000
1100
0000
0011
0000
1100
,
0001
1000
0101
0000
0101
1000
0001
1100
,
0000
0000
1000
0000
0001
0000
1000
0000
0001
0000
0100
0010
0100
0010
0100
0010
,
1000
0000
0001
0010
0100
0000
1000
0000
0001
0000
1000
0010
0100
0000
0001
0000
,
1000
0000
0100
0010
0100
0000
0001
0000
1000
0000
0010
0000
0001
0000
1000
0000
,
0001
0000
1000
0100
0010
0000
0001
0000
1000
0000
0001
0100
0010
0000
1000
0000
,
0001
0000
0010
0100
0010
0000
1000
0000
0001
0000
0100
0000
1000
0010
1000
0010
,
0100
0000
0001
0010
0001
0000
0100
0010
0100
0000
1000
0100
1000
0000
0100
0010
,
0100
0000
0010
1000
0010
0000
1000
0001
1000
0000
0100
0001
0100
0000
0010
0001
,
1000
0000
0001
0100
1000
0000
0100
0001
1000
0000
0001
0010
1000
0000
0010
0001
,
1000
0000
0010
0000
0100
0000
0001
0000
1000
0000
0001
0010
0001
0100
0001
0010
,
0100
0000
0000
0100
1000
0000
0001
0000
0010
0000
0100
0000
1000
0000
0001
0000
,
0000
0000
0000
1001
0000
0000
0000
0000
;
