#TITLE:命綱;
#SUBTITLE:;
#ARTIST:syudou;
#TITLETRANSLIT:Inochizuna;
#SUBTITLETRANSLIT:;
#ARTISTTRANSLIT:syudou;
#GENRE:POP;
#CREDIT:;
#MUSIC:Inochizuna.ogg;
#BANNER:Inochizuna.png;
#BACKGROUND:Inochizuna-bg.png;
#CDTITLE:;
#SAMPLESTART:38.067;
#SAMPLELENGTH:11.713;
#SELECTABLE:YES;
#OFFSET:1.464;
#BPMS:0.000=163.920;
#STOPS:;
#DISPLAYBPM:164.000;
#LASTBEATHINT:1.211240;
#BGCHANGES:6.250=Inochizuna.avi=1.000=0=0=0=StretchNoLoop====,
99999.000=-nosongbg-=1.000=0=0=0=StretchNoLoop====
;
#FGCHANGES:;

//--------------- dance-single - ----------------
#NOTES:
     dance-single:
     :
     Medium:
     12:
     0.58003,0.704367,0.289485,0.356289,0.025979,547,508,39,48,0,0,0.58003,0.704367,0.289485,0.356289,0.025979,547,508,39,48,0,0:
0000
0000
0000
0000
,
0000
0000
0000
0000
,
0000
0000
0000
0000
,
0000
0000
0000
0000
,
0000
0000
0000
0000
,
0000
0000
0000
0000
,
0000
0000
0000
0000
,
0001
0000
1000
0100
1000
0001
0010
0100
,
1000
0000
0001
0100
0001
1000
0010
0100
,
0001
0000
0001
0010
0100
0000
0010
0100
,
1000
0001
1000
0001
1000
0000
0000
0000
,
0001
0100
1000
0100
0001
0010
0100
1000
,
0001
0000
1000
0100
0001
0100
1000
0001
,
1000
0000
0001
0100
1000
0000
1000
0100
,
0001
1000
0100
0010
0002
1000
1003
0000
,
1001
0000
0001
0100
0001
0100
0010
1000
,
0001
0000
1000
0100
1000
0001
0100
0001
,
1000
0000
1001
0000
1000
0100
0000
0001
,
0000
0100
1000
0100
2000
0001
3001
0000
,
0110
0010
1000
0001
,
0110
0100
1000
0001
,
1001
1000
0010
0100
,
0101
0001
0010
0100
,
1001
0000
0001
1000
1100
0000
0010
0000
,
0101
0000
0010
0000
1001
0000
0000
0001
,
0200
0000
0320
0000
1030
0001
0100
0010
,
1000
0001
1000
0001
0000
0000
0200
0000
,
0310
1000
0100
0010
1000
0010
0001
0100
,
1000
0000
1000
0100
0020
0000
0230
0000
,
0301
0010
1000
0001
0100
0010
0100
1000
,
0001
0100
0010
0001
0000
1000
0100
0010
,
1000
0000
1000
0100
0001
0100
0010
0001
,
1000
0000
1000
0010
0200
0000
0302
0000
,
0013
0100
1000
0010
0001
1000
0100
0010
,
0110
1001
0110
2000
,
3001
0000
0000
0000
0010
0000
0000
0000
0100
0000
0000
0100
0000
0000
0100
0000
,
1000
0000
0000
0000
0010
0000
0000
0000
0100
0000
0000
0100
0000
0000
0100
0000
,
0002
0023
0230
2300
,
3200
0320
0032
2003
,
3010
1000
0100
0001
0100
1000
0001
0100
,
1000
0000
1000
0100
0002
0000
0023
0000
,
0130
1000
0001
0100
1000
0001
0010
0100
,
0001
0010
0100
1000
0000
0001
0100
0001
,
0100
1000
0001
0010
1000
0001
0010
0100
,
1100
0000
0100
0101
0000
0100
1001
0000
,
0101
0000
0000
0000
1001
0000
0000
0000
0102
0000
0000
1000
0000
0000
0103
0000
,
1100
0000
0000
0000
1001
0000
0000
0000
2100
0000
0000
0001
0000
0000
3100
0000
,
0110
0000
0000
0000
1001
0000
0000
0000
0120
0000
0000
1000
0000
0000
0130
0000
,
0001
0010
0100
1000
0001
0010
0100
1000
,
0001
1000
0100
0100
,
0010
0001
0100
0100
,
0010
1000
0001
0001
,
0010
0100
1000
1000
,
0011
0000
1000
0001
0101
0000
0100
0000
,
1010
0000
0100
0000
1001
0000
0000
0001
,
0020
0000
0230
0000
1300
0001
0100
1000
,
0100
0001
1000
0001
0000
0000
0020
0000
,
0130
1000
0010
0001
1000
0001
0010
1000
,
0001
0000
1000
0010
0100
0000
0001
0000
,
0100
0001
0010
1000
0001
1000
0010
0001
,
1000
0001
0100
1000
0000
0100
0001
1000
,
0010
0000
0100
0001
0010
1000
0010
0001
,
1000
0000
0001
0100
0010
0000
0100
0000
,
0001
0010
0100
1000
0001
0010
1000
0001
,
0100
1000
0100
0010
0000
0100
2000
0000
,
3001
0100
0010
0100
0001
0100
1000
0100
,
0001
0000
1000
0100
0002
0000
0203
0000
,
1300
0100
0010
0100
1000
0100
0001
0100
,
1000
0010
0001
1000
0000
1000
0100
0001
,
0101
0000
0100
0001
0010
0100
0001
0100
,
1000
0000
0001
0100
2000
0000
3200
0000
,
0301
0100
0010
1000
0001
0010
0100
1000
,
0001
0100
0010
0000
0100
0000
1001
0000
,
0001
0000
0010
0000
0100
0000
1000
0000
1100
0000
0000
1001
0000
0000
1010
0000
,
0010
0000
1000
0000
0001
0000
0100
0000
0101
0000
0000
1001
0000
0000
0011
0000
,
0002
0100
2003
0100
3002
0100
2003
0100
,
3002
0000
0010
0000
2003
0000
0010
0000
3002
0000
0010
0000
2003
0000
0010
3000
,
0001
0010
0100
1000
0001
0100
1000
0100
,
0001
0000
0001
0010
0100
0000
0110
0000
,
1000
0100
0001
1000
0010
0100
1000
0010
,
0001
1000
0100
0001
0000
1000
0200
0000
,
0320
0000
0001
0000
0100
0000
0130
1000
,
0002
0000
0100
0000
1003
0010
0100
0010
,
0200
0000
0001
0000
0301
1000
0100
1000
,
0001
0010
0100
1000
0001
0010
0100
1000
,
0002
0000
0100
0000
1000
0000
0103
0001
,
2000
0000
0001
0000
3100
0010
0001
1000
,
0020
0000
0100
0000
1030
0001
0100
0010
,
2000
0000
3001
0020
0100
0000
0130
1000
,
0001
0100
1000
0100
0001
0010
1000
0010
,
0001
1000
0001
0110
0000
0000
0000
0000
;

//--------------- dance-single - ----------------
#NOTES:
     dance-single:
     :
     Hard:
     16:
     0.816496,0.972697,0.341444,0.059382,0.734847,770,724,46,8,0,0,0.816496,0.972697,0.341444,0.059382,0.734847,770,724,46,8,0,0:
0000
0000
0000
0000
,
0000
0000
0000
0000
,
0000
0000
0000
0000
,
0000
0000
0000
0000
,
0000
0000
0000
0000
,
0000
0000
0000
0000
,
0000
0000
0000
0000
,
0001
0000
1000
0010
0100
0010
1000
0001
,
0100
0000
0001
0010
0001
0100
0001
1000
,
0100
0000
0010
0100
0010
0000
0001
0010
,
0100
1000
0001
0010
0100
0000
0000
0000
,
1001
0000
0000
0000
1000
0000
0100
0000
0010
0000
0001
0100
0001
0000
0100
0010
,
0100
0000
0000
0000
0010
0000
1000
0000
0001
0000
0010
0100
0010
0000
0001
1000
,
0001
0000
0000
0000
0010
0000
0100
1000
0001
0000
0000
0000
1000
0000
0100
0010
,
0100
0000
1000
0100
1000
0000
0001
0100
0020
0000
0100
0000
0130
0000
0000
0000
,
1001
0000
1000
0000
0100
0000
0010
0000
0001
0000
1000
0100
1000
0000
0010
0100
,
0010
0000
0000
0000
0100
0000
0001
0000
1000
0000
0100
0010
0100
0000
1000
0001
,
1000
0000
0010
0000
0010
0100
0000
0001
,
0000
0000
1000
0000
0100
0000
0010
0001
1000
0000
0000
0000
0110
0000
0000
0000
,
1001
0000
0000
0000
1000
0100
0000
0000
1000
0001
0000
0000
1000
0010
0000
0000
,
0101
0000
0000
0000
0001
0100
0000
0000
0001
1000
0000
0000
0001
0010
0000
0000
,
1001
0000
0000
0000
0100
0001
0000
0000
0100
0010
0000
0000
0100
0001
0000
0000
,
1001
0000
0000
0000
0100
0010
0000
0000
0100
1000
0000
0000
0100
0010
0000
0000
,
1001
0000
0000
0001
0100
0001
1000
0000
0000
1000
0100
1000
,
0001
0000
0000
0001
0100
0010
0100
0000
0000
0100
0001
1000
,
0001
0000
0010
0000
0100
0000
1000
0000
0001
0010
0100
1000
0001
0010
0100
1000
,
0020
0000
0000
0230
,
0301
0000
1000
0000
0010
0000
0100
0001
0100
0000
0010
1000
0010
0000
0100
0000
,
0101
0000
0000
0000
0001
0000
0010
0000
0100
1000
0100
1000
0001
0000
0100
0000
,
0001
0100
0010
0100
0001
0000
1000
0000
0001
0010
0100
0010
0001
0000
0100
0000
,
0010
0000
1000
0001
1000
0000
1100
0000
0000
0000
1000
0000
0100
0000
0010
0000
,
0011
0000
0000
0000
0100
0000
0001
0000
1000
0000
0100
1000
0100
0000
0010
0001
,
0010
0000
0000
0000
0100
0000
1000
0001
1000
0000
0010
0000
0110
0000
0000
0000
,
1000
0000
0001
0100
0001
0000
1000
0000
0010
0000
1000
0100
1000
0000
0001
1000
,
0001
0000
0010
0000
0100
0000
1000
0000
0001
0100
0001
0100
0010
0000
0000
0000
,
1000
0000
0001
0100
0001
0000
1000
0000
1100
0000
0000
0011
0000
0000
1100
0000
,
0001
0000
1000
0100
1000
0000
0001
0000
0101
0000
0000
1010
0000
0000
0101
0000
,
1000
0000
0001
0100
0001
0000
0100
0010
0100
0000
0010
1000
0010
0000
1000
0100
,
1000
0000
0100
0010
0100
0000
0010
0001
0010
0000
0001
1000
0001
0000
0000
0000
,
1000
0000
0010
0100
0010
0000
1000
0000
0001
0000
0010
0100
0010
0000
0001
0000
,
1001
0000
1001
0010
0210
0000
0301
0000
,
0001
0010
0100
1000
0001
0000
0100
0000
0001
0100
0010
1000
0001
0000
0010
0000
,
0100
0000
1000
0000
0100
0000
0010
0000
0001
0010
0100
1000
0001
0000
0100
0000
,
0110
0000
0000
0000
,
1001
0000
1001
0110
0000
0000
1001
0000
,
0001
0000
1000
0100
0010
0000
0001
0010
0200
0000
0000
0001
0000
0000
0010
0000
,
1300
0000
0001
0100
0010
0000
1000
0010
0200
0000
0000
1000
0000
0000
0010
0000
,
0301
0000
1000
0010
0100
0000
0010
1000
0002
0000
0000
0010
0000
0000
0103
0000
,
0001
0000
0010
0100
1000
0000
0001
0010
0100
0000
1000
0001
1000
0000
0010
0000
,
0110
0000
0000
0000
0001
0100
0000
0000
1000
0100
0000
0000
0010
0100
0000
0000
,
1001
0000
0000
0000
1000
0100
0000
0000
0001
0100
0000
0000
0010
0100
0000
0000
,
1001
0000
0000
0000
0001
0010
0000
0000
1000
0010
0000
0000
0110
0000
0000
0000
,
1001
0000
0000
0000
1000
0010
0000
0000
0001
0010
0000
0000
0110
0000
0000
0000
,
1001
0000
0000
0001
0100
0010
0100
0000
0000
0010
1000
0010
,
0100
0000
0000
0010
0100
0001
0010
0000
0000
0110
0000
0000
,
0001
0100
0001
0000
1000
0100
1000
0000
0001
1000
0100
0010
0001
1000
0100
0010
,
0002
0000
0000
2003
,
3001
0000
0100
0000
1000
0000
0100
0000
0001
0000
0010
0100
0010
0000
1000
0010
,
0001
0000
0100
0000
0010
0000
0100
0001
1000
0000
0100
0000
1100
0000
0000
0000
,
0001
0010
0100
1000
0010
0000
0100
0000
0010
1000
0100
0010
0001
0000
0010
0000
,
0100
1000
0010
0000
0100
0000
0101
0000
0000
0000
1000
0000
0001
0000
1000
0000
,
0010
0000
0100
0001
1000
0000
0100
0000
0001
0100
0010
0100
1000
0000
0010
0100
,
0001
0000
0000
0000
0010
0000
0100
1000
0010
0000
0100
0000
0110
0000
0000
0000
,
0001
0100
0010
1000
0100
0000
0010
0000
0100
1000
0010
0100
0001
0000
0010
0000
,
1000
0000
0010
0001
0100
0000
0010
0000
0110
0000
0000
0000
1001
0000
0000
0000
,
0001
0000
0100
0010
0001
0000
0010
0000
0001
0010
0100
0001
0010
0100
1000
0001
,
0010
0000
0001
0000
0010
0000
0100
1000
0002
0000
0000
0000
0013
0000
0100
0000
,
1000
0010
0100
0010
0001
0000
0010
0000
0001
0010
0100
0010
1000
0000
0001
0000
,
0010
0000
0100
1000
0001
0010
0100
0000
1000
0000
0001
0000
1000
0000
0100
0000
,
1000
0000
0100
0010
1000
0000
0010
0000
1000
0010
0100
1000
0010
0100
0001
1000
,
0010
0000
1000
0000
0010
0000
0100
0001
2000
0000
0000
0000
3010
0000
0100
0000
,
0001
0010
0100
0010
1000
0000
0010
0000
1000
0010
0100
0010
0001
0000
1000
0000
,
0110
0000
0000
1001
,
0001
0000
0100
0010
0001
0000
0010
0100
0001
0000
0000
0011
0000
0000
1100
0000
,
1000
0000
0100
0010
1000
0000
0010
0100
1000
0000
0000
1100
0000
0000
1001
0000
,
0001
0000
1000
0100
1000
0000
0100
0010
0100
0000
0001
0100
0001
0000
1000
0010
,
1000
0000
0010
0100
0010
0000
0001
0010
0001
0000
1000
0001
1000
0000
0000
0000
,
0010
0000
0100
0001
1000
0000
0100
0000
1000
0001
0010
0100
1000
0000
0001
0000
,
0100
0000
0010
1000
0001
0000
0010
0000
0011
0000
0000
0000
1100
0000
0000
0000
,
1000
0100
0001
0100
1000
0000
1001
0000
0001
0100
1000
0100
0001
0000
1001
0000
,
1000
0000
0001
0000
1000
0000
0001
0000
0010
0100
0010
0100
0020
0000
0000
0000
,
0031
1000
0010
0000
0100
0000
1000
0100
0001
0000
0010
0000
0100
1000
0010
0000
,
0100
0000
0001
0010
1000
0000
0010
0000
0001
0100
1000
0100
0001
0000
1000
0100
,
0010
0000
0100
0000
0001
0100
0010
0001
1000
0000
0010
0100
1000
0000
0100
0000
,
0001
0010
0100
1000
0010
0001
0010
1000
0100
0010
0001
0100
1000
0100
0001
0010
,
0100
0000
1000
0001
0100
0000
1000
0000
0100
0001
0010
0000
0100
0000
0001
0100
,
1000
0000
0001
0100
0010
0000
0001
0000
0010
1000
0100
0010
0001
0000
0010
0000
,
0100
1000
0010
0000
0100
0001
0010
0000
1000
0000
0010
0000
0001
0100
0010
0000
,
0001
0010
1000
0000
0001
0010
0100
1000
0010
0100
0010
0100
0010
0000
0000
0000
,
0000
0000
0000
0000
,
1001
0000
1001
0110
0000
0000
0000
0000
;

//--------------- dance-single - ----------------
#NOTES:
     dance-single:
     :
     Challenge:
     18:
     1.174906,1.207487,0.27464,0.066804,1.963302,1108,1071,37,9,0,0,1.174906,1.207487,0.27464,0.066804,1.963302,1108,1071,37,9,0,0:
0000
0000
0000
0000
,
0000
0000
0000
0000
,
0000
0000
0000
0000
,
0000
0000
0000
0000
,
0000
0000
0000
0000
,
0000
0000
0000
0000
,
0000
0000
0000
0000
,
0000
0000
0000
0000
,
0000
0000
0000
0000
,
0000
0000
0000
0000
,
0000
0000
0000
0000
,
1000
0100
0010
0001
1000
0100
0010
0001
1000
0001
0010
0100
1000
0001
0010
0100
,
1000
0100
0010
0001
1000
0100
0010
0001
1000
0001
0010
0100
1000
0001
0010
0100
,
1000
0001
0010
0100
0010
0001
1000
0100
0010
0100
1000
0001
0010
0100
0010
0001
,
1000
0100
0010
0100
1000
0010
0100
0001
0020
0000
0100
0000
0130
0000
0100
1000
,
0001
0100
0010
1000
0001
0100
0010
1000
0001
1000
0010
0100
0001
1000
0010
0100
,
0001
0100
0010
1000
0001
0100
0010
1000
0001
1000
0010
0100
0001
1000
0010
0100
,
0001
1000
0010
0100
0010
1000
0001
0100
0010
0100
0001
1000
0010
0100
0010
1000
,
0001
0000
0000
0010
0000
0000
0100
0000
1000
0000
0100
0000
1000
0000
0000
0000
0000
0000
0001
0000
0100
0000
0001
0000
0100
0000
0000
0010
0000
0000
1000
0000
0000
0001
0000
0000
1000
0000
0000
0100
0000
0000
0010
0000
0000
0001
0000
0000
,
1000
0000
0000
0000
0000
0000
0000
0000
0001
0000
0100
0000
0000
0000
0000
0000
0010
0000
0100
0000
0000
0000
0000
0000
0010
0000
1000
0000
0001
0100
0001
0000
,
1000
0000
0000
0000
0001
0100
0001
0000
1000
0000
0100
0000
0000
0000
0000
0000
1000
0000
0010
0000
0000
0000
0000
0000
0100
0000
0001
0000
1000
0100
1000
0000
,
0001
0000
0000
0000
0000
0000
0000
0000
0100
0000
0010
0000
0000
0000
0000
0000
1000
0000
0001
0000
0000
0000
0000
0000
0010
0000
0100
0000
1000
0001
1000
0000
,
0100
0000
0000
0000
0010
0001
0010
0000
0100
0000
1000
0000
0000
0000
0000
0000
0001
0000
0100
0000
0000
0000
0000
0000
0010
0000
1000
0000
0001
0000
1000
0000
,
1100
0000
0000
1000
0001
0100
0101
0000
0000
0001
1000
0100
,
1100
0000
0000
1000
0001
0010
0110
0000
0000
0100
1000
0001
,
1000
0000
0100
0000
1000
0000
0100
0000
0000
0000
0000
0000
0010
0000
0100
0000
0010
0000
0100
0000
0000
0000
0000
0000
1000
0000
0000
0100
0000
0000
0010
0000
0000
0001
0000
0000
1000
0000
0000
0100
0000
0000
0010
0000
0000
0001
0000
0000
,
0200
0000
0000
0320
,
1030
0100
0010
0100
1000
0010
0100
0010
0100
0001
0010
0100
1000
0001
0010
0100
,
1000
0001
0100
0010
0100
0001
1000
0010
0100
0010
0100
0001
1000
0010
0100
0001
,
0010
0100
1000
0100
0010
0001
1000
0001
1000
0010
0100
0001
0100
0010
1000
0100
,
0010
0001
0010
0100
0010
0001
1000
0010
0100
0010
1000
0010
0100
0001
1000
0010
,
1000
0100
0010
0100
1000
0010
0100
0010
0100
0001
0010
0100
1000
0001
0010
0100
,
1000
0001
0100
0010
0100
0001
0010
0100
0010
0100
1000
0010
0100
0001
1000
0010
,
0100
0001
0010
0100
0010
0001
1000
0100
0010
0100
1000
0001
0100
0010
1000
0001
,
1000
0000
0100
0000
1000
0000
0100
0000
0000
0000
0000
0000
0010
0000
0001
0000
0010
0000
0001
0000
0000
0000
0000
0000
1000
0000
0000
0100
0000
0000
0010
0000
0000
0001
0000
0000
1000
0000
0000
0000
0000
0000
0000
0000
0000
0000
0000
0000
,
1000
0100
0010
0001
1000
0001
0010
0100
1100
0000
0000
1001
0000
0000
0101
0000
,
0001
0100
0010
1000
0001
1000
0010
0100
0101
0000
0000
1001
0000
0000
1010
0000
,
1000
0010
0100
0001
1000
0001
0010
0100
1100
0000
0000
0110
0000
0000
0011
0000
,
0001
0010
0100
1000
0001
1000
0010
0100
0201
0000
0001
0000
0301
0000
0010
0000
,
0100
1000
0010
1000
0100
0010
0001
0100
0001
0010
0100
1000
0001
0010
0100
1000
,
0001
0100
0001
0010
0001
0100
0010
1000
0100
1000
0010
0100
0001
1000
0010
0100
,
0001
0010
0001
0100
0001
1000
0100
1000
0010
1000
0100
0010
0001
0100
0001
0010
,
0100
0000
1000
0000
0100
0000
1000
0000
0000
0000
0000
0000
0001
0000
0100
0000
0001
0000
0100
0000
0000
0000
0000
0000
0001
0000
0000
0010
0000
0000
0100
0000
0000
1000
0000
0000
0001
0000
0010
0000
0100
0000
1000
0000
0001
0000
0010
0000
,
0100
0000
0000
0000
,
1001
0000
0000
1000
0001
1000
0001
0000
0000
1001
0000
0000
0000
0000
0000
0000
0000
0000
0110
0000
0000
0000
0000
0000
,
0001
0010
0100
1000
0001
1000
0100
0010
0002
0000
0000
0100
0000
0000
0100
0000
,
1003
0010
0100
0001
1000
0001
0100
0010
2000
0000
0000
0100
0000
0000
0100
0000
,
3001
0010
0100
1000
0001
1000
0010
0100
0002
0000
0000
0010
0000
0000
0010
0000
,
1003
0000
0000
0010
0000
0000
0100
0000
0000
0001
0000
0000
1000
0000
0000
0001
0000
0000
0010
0000
0000
0100
0000
0000
1000
0000
0000
0010
0000
0000
0100
0000
0000
0001
0000
0000
1000
0000
0100
0000
0010
0000
0001
0000
1000
0000
0100
0000
,
0010
0000
0000
0000
0000
0000
0000
0000
0001
0000
1000
0000
0000
0000
0000
0000
0010
0000
0100
0000
0000
0000
0000
0000
0001
0000
1000
0000
0100
0010
0100
0000
,
1000
0000
0000
0000
0010
0100
0010
0000
1000
0000
0001
0000
0000
0000
0000
0000
0010
0000
0100
0000
0000
0000
0000
0000
1000
0000
0001
0000
0100
0010
0100
0000
,
0001
0000
0000
0000
0000
0000
0000
0000
0010
0000
0100
0000
0000
0000
0000
0000
1000
0000
0001
0000
0000
0000
0000
0000
0110
0000
0000
0000
0100
0010
0100
0000
,
0001
0000
0000
0000
0010
0100
0010
0000
0001
0000
1000
0000
0000
0000
0000
0000
0001
0000
0100
0000
0000
0000
0000
0000
0110
0000
0000
0000
0000
0000
0000
0000
,
1001
0000
0000
0001
1000
0001
0110
0000
0000
0100
0010
0100
,
1001
0000
0000
1000
0001
1000
0110
0000
0000
0110
0000
0000
,
0001
0000
0010
0000
0100
0000
1000
0000
0000
0000
0000
0000
0001
0000
0010
0000
0100
0000
1000
0000
0000
0000
0000
0000
0001
0000
0000
1000
0000
0000
0100
0000
0000
0010
0000
0000
0001
0000
0000
1000
0000
0000
0100
0000
0000
0010
0000
0000
,
0001
0000
0000
2000
,
3001
0010
0100
1000
0001
0010
1000
0010
0001
1000
0100
0010
0001
1000
0100
0001
,
0100
1000
0001
0010
1000
0001
0100
1000
0001
1000
0100
0001
1000
0010
0001
1000
,
0001
0010
0100
1000
0001
0010
1000
0010
0001
1000
0100
0010
0001
1000
0100
0001
,
0100
1000
0001
0010
0100
1000
0001
1000
0100
0010
0001
1000
0010
0100
0010
0100
,
0001
0100
0010
1000
0001
0100
1000
0100
0001
1000
0010
0100
0001
1000
0010
0001
,
0010
1000
0001
0100
1000
0001
0010
1000
0001
1000
0010
0001
1000
0100
0001
1000
,
0001
0100
0010
1000
0001
0100
1000
0100
0001
1000
0010
0100
0001
1000
0010
0100
,
0001
0000
0010
0000
0100
0000
1000
0000
0000
0000
0000
0000
0001
0000
0010
0000
0100
0000
1000
0000
0000
0000
0000
0000
0001
0000
0000
1000
0000
0000
0001
0000
0000
1000
0000
0000
0100
0000
0010
0000
0001
0000
1000
0000
0100
0000
0010
0000
,
0001
1000
0100
0010
0001
1000
0010
0100
1000
0100
0010
0100
0001
0010
0100
1000
,
0001
0010
0100
1000
0001
0100
0010
0001
0010
0100
0001
1000
0100
0010
0001
0010
,
1000
0010
0100
1000
0100
0010
0100
0001
0100
0010
0001
0010
0100
1000
0001
0100
,
1000
0100
0010
1000
0100
0010
0001
1000
0001
0010
0100
1000
0001
0010
0100
1000
,
0001
0100
0010
0100
1000
0100
0010
0100
0001
0010
0100
1000
0001
1000
0100
0010
,
0001
0010
0100
0010
1000
0010
0100
0010
0001
1000
0010
0100
0010
1000
0001
0010
,
0100
0000
0000
0000
1000
0000
0000
0000
0001
0000
0000
0000
1000
0000
0000
0000
0000
0000
0000
0000
0000
0000
0000
0000
0001
0000
0000
0000
1000
0000
0000
0000
0001
0000
0000
0000
0100
0000
0000
0000
0000
0000
0000
0000
0000
0000
0000
0000
0001
0000
0000
0100
0000
0000
0001
0000
0000
0000
0000
0000
1000
0000
0000
0100
0000
0000
1000
0000
0000
0000
0000
0000
0010
0000
0000
0000
0000
0000
0100
0000
0000
0000
0000
0000
0010
0000
0000
0000
0000
0000
0100
0000
0000
0000
0000
0000
,
0010
0000
0000
0110
,
0001
0100
1000
0100
0001
0100
1000
0100
0110
0000
0000
0110
0000
0000
1001
0000
,
1000
0100
0001
0100
1000
0100
0001
0100
0110
0000
0000
0110
0000
0000
1001
0000
,
0001
0100
1000
0100
0001
0010
1000
0010
0110
0000
0000
0110
0000
0000
1001
0000
,
1000
0010
0001
0010
1000
0100
0001
0100
0210
0000
0010
0000
0310
0001
0010
0100
,
1000
0100
0010
0001
1000
0100
0010
0001
1000
0001
0010
0100
1000
0001
0010
0100
,
1000
0001
0100
0010
1000
0001
0100
0010
1000
0001
1000
0010
0100
0001
1000
0010
,
0100
0001
0010
0100
1000
0010
0100
0001
0010
0100
1000
0010
0100
0001
0010
0100
,
1000
0000
0100
0000
0010
0000
0001
0000
0000
0000
0000
0000
1000
0000
0100
0000
0010
0000
0001
0000
0000
0000
0000
0000
0010
0000
0000
0001
0000
0000
1000
0000
0000
0001
0000
0000
0010
0000
0100
0000
1000
0000
0001
0000
0010
0000
0100
0000
,
1000
0000
0000
0100
0000
0000
0010
0000
0000
0001
0000
0000
1000
0000
0000
0100
0000
0000
0010
0000
0000
0001
0000
0000
1000
0000
0000
0001
0000
0000
0010
0000
0000
0100
0000
0000
1000
0000
0000
0001
0000
0000
0010
0000
0100
0000
1000
0000
,
0001
0000
0000
0100
0000
0000
0010
0000
0000
1000
0000
0000
0001
0000
0000
0100
0000
0000
0010
0000
0000
1000
0000
0000
0001
0000
0000
1000
0000
0000
0010
0000
0000
0100
0000
0000
0001
0000
0000
1000
0000
0000
0010
0000
0100
0000
0001
0000
,
1000
0000
0000
0100
0000
0000
0010
0000
0000
0001
0000
0000
1000
0000
0000
0100
0000
0000
0010
0000
0000
0001
0000
0000
1000
0000
0000
0001
0000
0000
0010
0000
0000
0100
0000
0000
1000
0000
0000
0001
0000
0000
0010
0000
0100
0000
1000
0000
,
0001
0000
0000
0100
0000
0000
0010
0000
0000
1000
0000
0000
0100
0000
0000
1000
0000
0000
0010
0000
0000
0100
0000
0000
0001
0000
0000
0010
0000
0000
0001
0000
0000
0100
0000
0000
0010
0000
0000
1000
0000
0000
0100
0000
0010
0000
0001
0000
,
1000
0000
0000
0100
0000
0000
0010
0000
0000
0001
0000
0000
1000
0000
0000
0100
0000
0000
0010
0000
0000
0001
0000
0000
1000
0000
0000
0001
0000
0000
0010
0000
0000
0100
0000
0000
1000
0000
0000
0001
0000
0000
0010
0000
0100
0000
1000
0000
,
0001
0000
0000
0100
0000
0000
0010
0000
0000
1000
0000
0000
0001
0000
0000
0100
0000
0000
0010
0000
0000
1000
0000
0000
0001
0000
0000
1000
0000
0000
0010
0000
0000
0100
0000
0000
0001
0000
0000
1000
0000
0000
0010
0000
0100
0000
0001
0000
,
1000
0000
0000
0100
0000
0000
0010
0000
0000
0001
0000
0000
1000
0000
0000
0100
0000
0000
0010
0000
0000
0001
0000
0000
1000
0000
0000
0001
0000
0000
0010
0000
0000
0100
0000
0000
1000
0000
0000
0001
0000
0000
0010
0000
0100
0000
1000
0000
,
0001
0100
0001
0000
0000
0000
0000
0000
1000
0100
1000
0000
0001
0100
0001
0000
1000
0000
0010
0000
0100
0000
0010
0000
0100
0000
0000
0000
0000
0000
0000
0000
,
0000
0000
0000
0000
,
0110
0000
0000
0100
0010
0100
0010
0000
0000
1001
0000
0000
0000
0000
0000
0000
0000
0000
0000
0000
0000
0000
0000
0000
;
