#TITLE:インキャインパルス;
#SUBTITLE:;
#ARTIST:本田華子 オリヴィア 野村香純;
#TITLETRANSLIT:Inkya Impulse;
#SUBTITLETRANSLIT:;
#ARTISTTRANSLIT:Honda Hanako;
#GENRE:ANIME;
#CREDIT:;
#MUSIC:Inkya Impulse.ogg;
#BANNER:Inkya Impulse.png;
#BACKGROUND:Inkya Impulse-bg.png;
#CDTITLE:;
#SAMPLESTART:1.159;
#SAMPLELENGTH:13.913;
#SELECTABLE:YES;
#OFFSET:0.573;
#BPMS:0.000=138.000;
#STOPS:;
#BGCHANGES:4.000=Inkya Impulse.avi=1.000=0=0=0=StretchNoLoop====,
99999.000=-nosongbg-=1.000=0=0=0=StretchNoLoop====
;
#FGCHANGES:;

//--------------- dance-single - ----------------
#NOTES:
     dance-single:
     :
     Hard:
     11:
     0,0,0,0,0:
0000
0000
0000
0000
,
0001
0000
0000
0001
0000
0000
0001
0000
1000
0000
0000
1000
0000
0000
1000
0000
,
0010
0000
0000
0010
0000
0000
0010
0000
0100
0000
0000
0000
0001
0000
1000
0000
,
0100
1001
0100
1001
,
0100
0000
0000
1100
0000
0000
1001
0000
0000
0000
0000
0000
1001
0000
0000
0000
,
0001
0000
0000
0100
0000
0000
0001
0000
0001
0000
0000
0010
0000
0000
0100
0000
,
1000
0000
0000
0001
0000
0000
0100
0000
1000
0000
0000
0100
0000
0000
0001
0000
,
0010
0000
0000
0001
0000
0000
0100
0000
0001
0000
0000
1000
0000
0000
0100
0000
,
1000
0000
0000
0100
0000
0000
0010
0000
0001
0000
0000
0011
0000
0000
1001
0000
,
1000
0000
0000
0010
0000
0000
1000
0000
1000
0000
0000
0001
0000
0000
0100
0000
,
0010
0000
0000
1000
0000
0000
0100
0000
1000
0000
0000
0001
0000
0000
0010
0000
,
0001
0000
0000
1000
0000
0000
0001
0000
0100
0000
0000
0010
0000
0000
1000
0000
,
1000
0000
0000
0001
0000
0000
1000
0000
0010
0000
0000
0000
1010
0000
0000
0000
,
0101
0000
1000
0001
0001
0000
0001
0010
,
0100
0000
0100
1000
0001
0000
0100
0010
,
1000
0000
1000
0001
1000
0000
1000
0001
,
0010
0000
0010
0001
0100
0010
1000
0010
,
1001
0000
1000
0100
1000
0010
0100
0001
,
1000
0000
1000
0010
0100
0010
0001
0010
,
0100
0000
0100
0001
1000
0100
0010
0100
,
1000
0011
1100
0011
,
1001
0000
0000
1000
0000
0000
0001
0000
0100
0000
0001
0000
1000
0000
0100
0000
,
0010
0100
0011
0000
1010
0000
0011
0000
,
0101
0000
0000
0001
0000
0000
0100
0000
1000
0000
0100
0000
1000
0000
0001
0000
,
0010
0100
0110
0000
1001
0000
0110
0000
,
1001
0000
0000
1000
0000
0000
0001
0000
1000
0000
0100
0000
1000
0000
0100
0000
,
0010
0001
0101
0000
1010
0000
0101
0000
,
1001
0000
0000
0001
0000
0000
1000
0000
0100
0000
0010
0000
0001
0000
0100
0000
,
0010
1000
0010
0100
1000
0100
0001
0010
,
0001
0100
0001
0100
0010
1000
0010
1000
,
0100
0010
0100
0010
1001
0000
0000
0000
,
0001
0100
0001
1000
0001
0010
0100
2000
,
3002
0000
0000
0203
0000
0000
2300
0000
3200
0000
0000
0000
0320
0000
0000
0000
,
1030
0100
0010
1000
0010
0100
1000
0002
,
0203
0000
0000
0320
0000
0000
2030
0000
3200
0000
0000
0000
0320
0000
0000
0000
,
0031
0010
0100
0010
0001
1000
0010
0200
,
2300
0000
0000
3200
0000
0000
0302
0000
0023
0000
0000
0000
2030
0000
0000
0000
,
3010
0100
1000
0010
0100
1000
0100
0002
,
0203
0000
0000
2300
0000
0000
3002
0000
0013
0000
1000
0000
0010
0000
1000
0000
,
0100
1100
1100
1000
1100
0100
1100
0010
,
0001
0010
0100
1000
0010
0100
0001
0010
,
0001
0101
0101
0100
0101
0001
0101
0001
,
0100
0010
1000
0100
0010
0001
0010
0100
,
1000
1010
1010
0010
1010
1000
1010
1000
,
0001
0100
0001
1000
0001
0100
0010
1000
,
0100
1000
0010
1000
0001
0100
0001
0010
,
0100
0000
0000
0000
,
1000
0000
0000
0100
0000
0000
1000
0000
1000
0000
0000
0010
0000
0000
0100
0000
,
0001
0000
0000
1000
0000
0000
0100
0000
0001
0000
0000
0100
0000
0000
1000
0000
,
0010
0000
0000
1000
0000
0000
0100
0000
1000
0000
0000
0001
0000
0000
0100
0000
,
0001
0000
0000
0100
0000
0000
0010
0000
1000
0000
0000
1010
0000
0000
1001
0000
,
2002
0000
0000
0000
,
3003
0000
0000
0000
;

//--------------- dance-single - ----------------
#NOTES:
     dance-single:
     :
     Challenge:
     16:
     0.899594,1.062784,0.607621,0.011048,1.115813,570,515,55,1,0,0,0.899594,1.062784,0.607621,0.011048,1.115813,570,515,55,1,0,0:
0000
0000
0000
0000
,
0000
0100
0000
0100
,
0000
0000
0000
0000
0000
0000
0100
0000
0000
0000
0000
0000
0100
0000
0000
0001
0010
0100
1000
0000
0000
0010
0000
0000
,
0010
1001
0010
1001
,
0100
0000
0000
0000
1000
0000
0010
0100
0000
0000
0000
0000
1001
0000
0000
0000
,
0001
0010
0000
0100
1000
0000
0010
0100
0001
0010
0100
0000
1000
0010
0000
0100
,
0001
0000
0001
0010
0000
0100
1000
0000
1000
0010
0000
0100
0001
0000
1001
0000
,
1000
0100
0000
0010
0001
0000
0100
0001
0010
0100
1000
0000
0001
0100
0000
1010
,
1010
0000
1100
1100
0000
0011
0011
0000
0101
0101
0000
0110
0110
0000
1001
0000
,
0001
1000
0000
1000
0100
0000
0010
0001
0100
0001
0010
0000
0100
1000
0000
1000
,
0010
0000
0100
0001
0000
0001
0010
0000
0001
0100
0000
0010
1000
0000
1001
0000
,
1000
0100
0000
1000
0100
0000
0001
0100
0000
0001
0100
0000
1000
0010
0000
1000
,
0010
0000
0001
0010
0000
0001
0010
0000
1001
0000
0001
0100
0001
0100
0001
0100
,
0010
0000
0010
1000
0000
1000
0001
0000
0001
0010
0001
0010
0000
0100
1000
0000
,
1100
0000
1000
0010
0000
0100
0010
0000
1000
0100
1000
0100
0010
0001
0010
0001
,
1000
0000
1000
0010
0000
0010
0100
0000
0001
1000
0001
1000
0000
0010
0100
0000
,
0110
0000
0001
0010
0000
0100
1000
0000
0001
0100
0001
0100
0010
1000
0010
1000
,
0001
0000
0001
0010
0000
0010
0100
0000
1000
0100
0010
0001
0000
0001
0010
0000
,
1100
0000
1000
0100
0000
0100
0010
0000
0001
0100
0010
0100
0001
0100
0010
0100
,
0001
0000
0001
0010
0000
0010
0001
0000
0001
0010
0100
1000
0000
1000
0100
0010
,
0001
0000
0011
0011
0000
1100
1100
0000
0001
0010
0100
1000
0010
0100
0001
0010
,
0110
0000
1000
0100
0000
0001
0010
0000
1001
0000
0000
0000
0000
0000
0000
0000
,
1001
0000
0001
0010
0000
1000
0100
0000
1001
0000
0000
0000
0000
0000
0000
0000
,
0110
0000
0100
1000
0000
0010
0001
0000
0110
0000
0000
0000
0000
0000
0000
0000
,
0011
0000
0010
0100
0000
0100
1000
0000
1000
0100
0010
0100
1000
0010
0100
0010
,
1000
0000
0011
0011
0000
1100
1100
0000
1001
0000
0000
0000
0000
0000
0000
0000
,
1001
0000
1010
1010
0000
0101
0101
0000
1001
0000
0000
0000
0000
0000
0000
0000
,
0110
0000
1010
1100
0000
0011
0101
0000
0110
0000
0000
0000
0000
0000
0000
0000
,
0110
0000
1010
0101
0000
0011
1100
0000
0001
0100
0010
0100
0001
0010
0100
0010
,
0001
0001
0001
0001
0010
0010
0010
0010
,
0100
0100
0100
0100
1001
0000
0000
0000
,
0001
0100
0001
1000
0100
1000
0001
0010
,
0001
1000
0100
1000
0001
0010
0100
1000
,
0001
0010
0001
1000
0010
1000
0001
0100
,
0001
1000
0100
1000
0001
0100
0010
1000
,
0001
0010
0100
0001
0100
1000
0100
1000
,
0010
1000
0010
0001
0010
0100
0001
1000
,
0100
0010
0001
0100
0010
1000
0001
0010
,
0100
0000
0000
1000
0000
0000
0010
0000
0000
0100
0000
0000
0001
1000
0100
1000
0001
1000
0100
1000
0001
1000
0100
1000
,
0001
1000
0001
0010
0100
0010
0001
0100
0010
0100
0001
0010
0100
1000
0001
0100
,
0010
1000
0010
1000
0100
0010
0001
1000
0001
0010
0100
1000
0010
1000
0001
0100
,
0010
1000
0001
0100
0010
1000
0001
0100
0001
0100
0010
0100
0010
1000
0010
0100
,
0001
1000
0100
0010
0100
1000
0010
0100
0001
0100
0001
0010
0001
1000
0010
1000
,
0100
0010
0001
0010
0100
1000
0100
0010
0001
0100
0001
1000
0100
0010
0100
1000
,
0010
0100
0010
1000
0001
1000
0100
1000
0001
0010
0001
0100
0010
0100
0001
1000
,
0001
0000
0000
1000
0000
0000
0001
0000
0000
0100
0000
0000
0010
0000
0000
0100
0000
0000
0001
0000
0000
1000
0000
0000
0010
0000
0000
1000
0000
0000
0100
0000
0010
0000
0001
0000
0010
0000
0100
0000
1000
0000
0001
0000
0010
0000
0100
0000
,
1000
0000
0000
0000
,
0001
0010
0000
0010
0001
0000
0001
0100
0010
0100
0001
0000
0001
0100
0000
0100
,
0010
0000
0010
1000
0000
1000
0100
0000
0100
0010
0000
0010
0001
0000
0101
0000
,
0010
1000
0000
1000
0010
0000
0010
0100
0001
0100
0010
0000
0010
1000
0000
1000
,
0100
0000
0010
0001
0000
0001
1000
0000
1000
0100
0010
0100
1000
0010
1000
0001
,
0200
0000
0000
0000
,
0300
0000
0000
0000
;
