#TITLE:インドア系ならトラックメイカー;
#SUBTITLE:;
#ARTIST:天音かなた×宝鐘マリン;
#TITLETRANSLIT:Indoor Kei Nara Trackmaker;
#SUBTITLETRANSLIT:;
#ARTISTTRANSLIT:Amane Kanata / Houshou Marine;
#GENRE:POP;
#CREDIT:;
#MUSIC:Indoor Kei Nara Trackmaker.ogg;
#BANNER:Indoor Kei Nara Trackmaker.png;
#BACKGROUND:Indoor Kei Nara Trackmaker-bg.png;
#CDTITLE:;
#SAMPLESTART:78.774;
#SAMPLELENGTH:15.000;
#SELECTABLE:YES;
#OFFSET:-0.024;
#BPMS:0.000=128.000;
#STOPS:;
#BGCHANGES:3.750=Indoor Kei Nara Trackmaker.avi=1.000=0=0=0=StretchNoLoop====,
99999.000=-nosongbg-=1.000=0=0=0=StretchNoLoop====
;
#FGCHANGES:;

//--------------- dance-single - ----------------
#NOTES:
     dance-single:
     :
     Hard:
     11:
     0.524905,0.634731,0.589508,0.016151,0.008075,455,382,73,2,0,0,0.524905,0.634731,0.589508,0.016151,0.008075,455,382,73,2,0,0:
0000
0000
0000
0000
,
0000
0000
0000
0000
,
0000
0000
0000
0000
,
0000
0000
0000
0000
,
0000
0000
0000
0000
,
0000
0000
0000
0000
,
0001
1000
0100
1000
0010
0100
0002
0000
,
1003
0010
0100
0010
1000
0001
0010
0100
,
1000
0001
0100
0001
0010
0100
2000
0000
,
3010
0000
0000
0100
0000
0000
0001
0000
0000
1000
0000
0000
0001
0000
0010
0000
0100
0000
1000
0000
0000
0000
0000
0000
,
1001
0000
0001
0010
0100
0000
1100
0000
,
1000
0001
0100
0001
0000
1000
0100
0000
,
0011
0000
0010
0100
1000
0000
0001
0000
,
1000
0010
0100
0000
0100
0001
0010
0000
,
1100
0000
0101
0000
0001
0100
1000
0000
,
1100
0000
0101
0000
0001
0010
1000
0000
,
0010
0001
1000
0000
1010
0000
0110
0001
,
0010
0000
1100
0000
1000
0001
0100
0000
,
0010
1000
0001
0000
0001
0010
0100
0000
,
0100
1000
0010
0100
0001
0010
1000
0000
,
1000
0010
0001
0000
0001
0100
0010
0000
,
0010
1000
0100
0010
0001
1000
0010
0000
,
0100
0100
0001
1000
0010
0100
0101
0000
,
0001
0001
0010
0100
1000
0010
0110
0000
,
0100
0001
0010
0100
1000
0010
0100
0001
,
0101
0000
1100
0000
0110
0000
0100
0010
,
1001
0101
1001
1100
,
1010
1100
0101
0011
,
0110
1100
0110
0101
,
0011
0101
1100
1010
,
0001
1000
1100
0000
1000
0001
0101
0000
,
0001
0100
1000
0001
0010
1000
1100
0000
,
0101
0001
1100
1000
0101
0001
1001
0000
,
1100
1000
0101
0001
1100
1000
1001
0000
,
0001
0100
0100
1000
0001
0010
0100
0000
,
1000
0100
0100
0001
1000
0010
0100
0000
,
0100
0001
0010
0000
0100
1000
0010
0000
,
1000
0010
0100
0001
0010
0100
1000
0000
,
0001
0100
0100
1000
0001
0010
0100
0000
,
1000
0100
0100
0001
1000
0010
0100
0000
,
0001
0010
1000
0000
1000
0010
0001
0000
,
0011
0000
1100
0000
1000
0010
0101
0000
,
0001
0100
0001
0010
1000
0010
0100
1000
,
0010
0001
0010
0100
0001
1000
0100
0001
,
1000
0010
0100
1000
0010
0100
1000
0001
,
1000
0100
0001
0010
1000
0001
1000
0010
,
0100
1000
0100
0100
0001
1000
0100
0100
,
0001
1000
0010
0010
0001
1000
0010
0010
,
0001
0100
1000
0100
0001
0100
1000
0100
,
0001
0010
1000
0010
0001
0010
0110
0000
,
1001
0000
1100
0000
1000
0001
0101
0000
,
1001
0000
0101
0000
0001
1000
1100
0000
,
0110
0000
1001
0000
0100
0010
0110
0000
,
1000
0001
1000
0001
0010
0100
1000
0001
,
1100
0000
0001
1000
0101
0000
1001
0000
,
1100
0000
0100
1000
0011
0000
1100
0000
,
1010
0010
1000
0010
0110
0100
0001
0100
,
0101
0000
0011
0000
0010
0100
1000
0001
,
0110
1000
0001
1000
0100
0001
0100
0000
,
1000
0010
0100
0001
1000
0010
0001
0000
,
0010
1000
0100
0010
0100
1000
0010
0000
,
0001
0010
1000
0100
0001
0100
1000
0000
,
1010
0000
0010
0100
0001
1000
1100
0000
,
1001
0000
0001
0010
0100
1000
1100
0000
,
1000
0010
1000
0100
1000
0001
0100
0001
,
0101
1100
1001
0000
;

//--------------- dance-single - ----------------
#NOTES:
     dance-single:
     :
     Challenge:
     15:
     0.859459,0.899202,0.557207,0.040377,0.916564,745,676,69,5,0,0,0.859459,0.899202,0.557207,0.040377,0.916564,745,676,69,5,0,0:
0000
0000
0000
0000
,
0000
0000
0000
0000
,
0000
0000
0000
0000
,
0000
0000
0000
0000
,
0000
0000
0000
0000
,
0000
0000
0000
0000
,
0001
0000
0000
0100
0000
0000
0010
0000
0000
0100
0000
0001
0010
0000
0000
0100
0000
0000
2000
0000
0000
0000
0000
0000
,
3010
0000
0100
0000
0001
0000
0100
0000
0010
0000
1000
0000
0100
0000
0010
0001
,
1000
0000
0000
0010
0000
0000
0100
0000
0000
0010
0000
1000
0100
0000
0000
0010
0000
0000
0002
0000
0000
0000
0000
0000
,
0013
0000
0000
0100
0000
0000
1000
0000
0000
0100
0000
0000
1000
0000
0010
0000
0100
0000
0001
0000
0000
1000
0100
0010
,
0001
0000
1000
0000
0010
0100
0010
0000
0100
0001
1000
0000
0021
0000
0130
0000
,
1000
0000
0001
0100
0010
0000
0100
0001
1000
0100
1000
0000
0010
0100
0001
0000
,
0010
0100
0000
1000
0010
0100
0001
0000
0101
0000
0010
0000
1100
0000
0010
0000
,
1001
0000
1000
0100
0010
0000
1000
0010
0100
0000
1000
0010
0001
0000
0010
1000
,
0100
0010
0001
0000
1000
0100
1000
0010
0100
0000
0010
0100
1001
0000
0000
0000
,
1000
0020
0000
0000
0130
0000
0001
0010
0100
0010
0001
0010
1000
0000
0000
0000
,
0010
0000
0001
0100
0001
0000
1000
0010
0100
0010
0000
1000
0001
0000
0010
0100
,
1000
0010
0000
0100
0001
0010
0000
0100
1000
0010
0000
0010
1000
0100
0020
0000
,
0000
0130
1000
0001
1000
0001
0010
0100
1000
0000
1010
0000
0010
0000
0110
0000
,
1001
0000
0001
0100
0010
0100
0010
0100
0001
0010
0000
0100
1000
0000
0001
0000
,
0101
0000
0100
0001
1000
0000
0100
1000
0001
0000
1100
0000
0001
0000
0101
0000
,
0010
0000
1000
0000
0100
0000
0010
0000
0001
0100
0000
0100
0010
1000
0001
0000
,
1000
0100
1000
0100
0010
0000
0100
1000
0001
0000
0110
0000
0100
0000
1001
0000
,
1000
0000
0001
0100
0010
1000
0010
0100
0001
0010
0000
0100
1000
0000
0010
0000
,
0100
0001
0010
0100
1000
0010
0100
0010
1000
0100
0010
0001
0100
0001
0010
0100
,
1000
0010
0001
0000
1000
0100
0001
0000
0010
0100
0000
1000
0100
0010
0001
1000
,
1100
0000
0000
0001
0000
1000
0100
0000
0000
0010
0000
0000
0101
0000
0000
1000
0000
0001
0100
0000
0000
0000
0000
0000
,
1010
0000
0000
0000
0000
0000
0001
0000
0000
0000
1000
0000
0010
0000
0000
0000
0000
0000
0100
0000
0000
0000
0000
0000
0011
0000
0000
0000
0000
0000
0100
0000
0000
0000
0000
0000
1001
0000
0000
0000
0000
0000
0001
0000
0000
0010
0000
0000
,
0110
0000
0000
1000
0000
0001
0100
0000
0000
0010
0000
0000
1001
0000
0000
0001
0000
1000
0100
0000
0000
0010
0000
0000
,
0110
0000
0000
0000
0000
0000
0001
0000
0000
0000
1000
0000
0100
0000
0000
0000
0000
0000
0010
0000
0000
0000
0000
0000
1001
0000
0000
0000
0000
0000
1000
0000
0000
0010
0000
0000
0110
0000
0000
0000
0000
0000
0001
0000
0000
0000
0000
0000
,
0110
0000
1000
0010
0000
0000
0110
0000
0001
0010
0000
0000
0110
0000
1000
0010
0000
0000
0110
0000
0000
0000
0000
0000
,
0110
0000
0000
0000
0001
0000
0010
0000
0000
0000
0000
0000
0110
0000
0000
0000
1000
0000
0010
0000
0000
0000
0100
0000
0001
0000
0010
0000
0100
0000
1000
0000
0001
0000
0010
0000
0100
0000
0000
0000
0000
0000
1000
0000
0000
0010
0000
0000
,
0100
0000
0010
1000
0000
0010
0100
0000
0001
0010
0000
0100
0010
0000
0001
1000
0000
0010
0100
0000
0000
0000
0000
0000
,
1010
0000
0000
0000
0000
0000
0100
0000
0000
0000
0001
0000
0010
0000
0000
0000
0000
0000
0100
0000
0000
0000
1000
0000
0010
0000
0000
0000
1000
0000
0100
0000
0010
0000
0001
0000
1000
0000
0000
0010
0000
0000
0100
0000
0000
0000
0000
0000
,
0101
0000
0100
1000
0100
0000
0010
1000
0001
0000
0010
1000
0010
0000
0001
0000
,
1100
0000
0100
0001
0100
0000
0010
0001
1000
0000
0010
0001
0010
0000
0100
0000
,
0110
0000
1000
0001
0010
0000
0100
0000
1100
0000
0001
0100
0010
0000
0100
0000
,
0110
0000
0010
0100
0010
0000
0100
0010
0100
0001
0100
1000
0100
0001
1000
0000
,
1100
0000
0100
0000
0110
0000
0010
0000
0011
0000
0001
0000
1001
0000
1000
0010
,
0110
0000
0100
0000
0101
0000
0001
0000
0011
0000
0010
0000
0110
0000
0010
0001
,
1000
0000
0100
1000
0010
0100
1000
0000
0100
0000
0001
0010
0100
0010
1000
0000
,
0001
0000
0100
1000
0010
0000
0100
0001
0010
0000
0110
0000
1100
0000
0000
0000
,
0001
0010
0100
1000
0001
0100
0010
0001
1000
0100
0010
1000
0100
0010
0001
0000
,
1000
0100
0010
0001
1000
0010
0100
1000
0001
0010
0100
0001
0010
0100
1000
0000
,
0001
0100
0010
1000
0001
0010
0100
0001
1000
0010
0100
1000
0010
0100
0001
0000
,
1000
0010
0100
0001
1000
0100
0010
1000
0001
0100
0010
0001
0100
0010
1000
0000
,
0001
0100
0010
0100
0001
0010
0100
1000
0010
1000
0100
1000
0010
0100
0001
1000
,
0010
0100
0001
1000
0001
0010
0001
0100
0010
1000
0001
1000
0010
0100
0001
1000
,
0100
1000
0010
0100
0010
1000
0010
0100
0001
0010
0100
1000
0010
0100
0001
0010
,
1000
0010
0001
0100
1000
0100
0001
0010
1000
0001
0100
1000
1001
0000
0000
0000
,
0110
0000
0000
0000
0000
0000
0010
0000
0000
1000
0000
0000
0001
0000
0000
0000
0000
0000
1000
0000
0100
0000
0010
0000
0001
0000
0000
0000
0000
0000
1000
0000
0000
0000
0000
0000
1100
0000
0000
0000
0000
0000
0000
0000
0000
0000
0000
0000
,
0101
0000
0001
0100
0010
0000
0100
0000
0101
0000
0001
0010
1000
0000
0010
0000
,
0011
0000
0000
0000
0000
0000
1000
0000
0000
0010
0000
0000
0100
0000
0000
0000
0000
0000
0001
0000
0100
0000
0010
0000
1000
0000
0000
0000
0000
0000
0001
0000
0000
0000
0000
0000
0101
0000
0000
0000
0000
0000
1000
0000
0000
0000
0000
0000
,
0110
0000
0100
0001
1000
0000
1001
0000
0001
0010
0000
0100
1000
0000
0101
0000
,
1100
0000
0000
0000
0000
0000
1000
0000
0000
0010
0000
0000
0100
0000
0000
0000
0000
0000
0100
0000
0001
0000
0010
0000
0100
0000
0000
0000
0000
0000
1000
0000
0000
0001
0000
0000
0100
0000
0000
0000
0000
0000
1010
0000
0000
0000
0000
0000
,
0101
0000
0001
1000
0100
0000
0010
0000
0100
1000
0000
0010
0100
0000
0101
0000
,
1010
0000
0000
0000
0000
0000
1000
0000
0000
0010
0000
0000
0100
0000
0000
0000
0000
0000
0010
0000
1000
0000
0001
0000
0010
0000
0000
0000
0000
0000
0100
0000
0000
1000
0000
0000
0010
0000
0000
0000
0000
0000
0110
0000
0000
0000
0000
0000
,
1001
0000
0001
0100
0000
0100
0010
0000
0010
1000
0100
0001
0100
1000
0010
0001
,
0010
0000
0000
1000
0000
0000
0001
0000
0000
1000
0000
0100
0010
0000
0000
0001
0000
0000
1000
0000
0000
0000
0000
0000
,
0010
0000
0100
0000
1000
0000
0100
0000
0001
0000
0010
0000
0100
0000
1000
0001
,
0100
0000
0000
0010
0000
0000
1000
0000
0000
0001
0000
0010
0100
0000
0000
1000
0000
0000
0001
0000
0000
0000
0000
0000
,
0100
0010
1000
0010
0100
0001
0010
0100
,
1000
0000
0001
0100
0010
0000
0100
0000
0001
0000
1000
0000
1100
0000
0000
0000
,
0001
0000
1000
0010
0100
0000
0010
0000
1000
0000
0001
0000
0011
0000
0010
0100
,
1000
0000
0000
0000
0000
0000
0001
0000
0010
0000
0100
0000
1000
0000
0000
0001
0000
0000
0100
0000
0000
0001
0000
0000
1000
0000
0100
0000
0010
0000
0001
0000
0000
0100
0000
0000
1000
0000
0000
0000
0000
0000
0100
0000
0000
0000
0000
0000
,
0101
1000
1100
0010
0110
0000
0000
0000
;
