#TITLE:インザバックルーム;
#SUBTITLE:;
#ARTIST:syudou;
#TITLETRANSLIT:In the Back Room;
#SUBTITLETRANSLIT:;
#ARTISTTRANSLIT:syudou;
#GENRE:ANIME;
#CREDIT:;
#MUSIC:In the Back Room.ogg;
#BANNER:In the Back Room.png;
#BACKGROUND:In the Back Room-bg.png;
#CDTITLE: ;
#SAMPLESTART:37.578;
#SAMPLELENGTH:11.361;
#SELECTABLE:YES;
#OFFSET:0.765;
#BPMS:0.000=169.000
,31.500=84.500
,33.000=169.000
,78.500=338.000
,78.750=169.000
,79.000=338.000
,79.250=169.000
,80.500=338.000
,80.750=169.000
,81.000=338.000
,81.250=169.000
,81.500=84.500
,82.000=169.000
,104.000=84.500
,105.000=169.000
,216.000=338.000
,217.000=169.000
,244.500=84.500
;
#STOPS:78.500=0.044
,79.000=0.044
,80.500=0.044
,81.000=0.044
,216.000=0.044
,216.250=0.044
,216.500=0.044
,216.750=0.044
;
#DISPLAYBPM:84.500:169.000;
#BGCHANGES:2.500=In the Back Room.avi=1.000=0=0=0=StretchNoLoop====,
99999.000=-nosongbg-=1.000=0=0=0=StretchNoLoop====
;
#FGCHANGES:;

//--------------- dance-single - ----------------
#NOTES:
     dance-single:
     :
     Medium:
     12:
     0,0,0,0,0:
0000
0000
0000
0000
,
0000
1001
0000
1000
0100
0000
0100
1000
,
0000
0001
0100
0001
0100
0000
0010
1000
,
0000
0001
0010
0100
1000
0000
0001
0100
,
0000
0010
0100
0010
0100
0000
0001
0010
,
0000
0010
0100
1000
0000
1000
0001
0100
,
0010
1000
0100
1000
0000
1000
0010
0001
,
0000
1000
0100
0001
0010
0000
0010
0200
,
1300
0001
0000
0000
0001
0000
1000
0000
0000
0000
0001
0000
0100
0000
0001
0000
,
0000
1000
0100
1000
0000
1010
0000
0101
,
0000
0011
0000
1100
0000
1000
0010
1000
,
0000
0001
0010
0001
0000
1000
0010
0200
,
0000
0302
0000
1003
0100
1000
0000
0010
,
1000
0010
0000
0001
0010
0001
0000
0100
,
0001
0100
0000
0110
0000
1001
0000
0110
,
0000
1001
0010
0100
0010
1000
0001
1000
,
0000
1001
0000
0020
0000
0130
0000
1100
,
0000
0101
0000
1000
0010
0000
0010
0000
,
0010
0100
0001
1000
0100
0001
0000
0101
,
0000
1100
0000
1000
0002
1000
1003
0000
,
2000
0001
3001
0020
0130
0000
0100
1000
,
0100
1000
0001
0100
0001
0100
0010
1000
,
0010
1000
0001
0000
0011
0000
1100
0000
,
0101
0000
0001
2000
0000
3001
0010
0000
,
0110
0000
1100
0000
1010
0000
0010
0200
,
0000
0001
0000
0301
2000
0000
3100
0010
,
0200
0000
1300
0010
0001
0010
1000
0100
,
1000
0010
0001
1000
0100
0001
1000
0000
,
1001
0000
0001
0010
1000
0010
0001
0100
,
0001
0010
1000
0001
0100
1000
0001
0000
,
1001
0000
1000
0100
0001
0100
1000
0001
,
0010
1000
0001
0100
1000
0001
0100
0000
,
0110
0000
1010
1000
0001
0000
0011
0001
,
1000
0000
0110
0000
0110
0000
0100
0010
,
1001
0011
0101
1010
,
1100
0110
1001
0210
,
0301
1010
1100
0011
,
0101
0000
1001
0000
0110
0000
1002
0100
,
0103
0000
1010
1000
0100
0000
0011
0001
,
0100
0000
0110
0000
1000
0001
0110
0000
,
1001
0000
1000
0100
0001
0000
0001
0100
,
1000
0000
1001
1001
1001
1001
0210
0000
,
0320
2030
0000
3200
,
0000
0000
0320
0000
0000
0000
0031
0010
,
0100
2000
0000
3001
0100
1000
0100
0001
,
1000
2100
0000
3010
0100
0001
0101
0000
,
1001
0002
0000
0023
,
0000
0000
0230
0000
0000
0000
1300
0100
,
0010
0001
0000
0001
1000
0010
0100
0000
,
0001
0002
0000
1003
0010
0100
0001
0000
,
0101
0000
1000
0010
0100
0000
0010
1000
,
0001
0000
0010
0100
0010
0000
0001
0010
,
0100
1000
0002
0000
0000
0000
2003
0000
,
0010
3010
0000
0100
0010
0100
0010
0100
,
0001
1000
0001
1000
0000
1000
0010
0000
,
0100
0001
0000
1000
0100
0010
0001
0000
,
0001
1000
0000
1000
0010
0100
0001
0000
,
0010
0200
0000
1300
0001
1000
0010
0000
,
0100
0001
0000
0001
1000
0100
0000
0100
,
0000
0100
1000
0001
1000
0010
0000
0010
,
0100
0001
0000
1000
0100
0010
0001
0000
,
0001
0000
0020
0000
0031
1000
0000
0000
0000
0000
0000
0000
0000
0000
0000
0000
;

//--------------- dance-single - ----------------
#NOTES:
     dance-single:
     :
     Hard:
     16:
     0.896456,0.958446,0.826271,0.323809,0.435467,562,488,74,29,0,0,0.896456,0.958446,0.826271,0.323809,0.435467,562,488,74,29,0,0:
0000
0000
0000
0000
,
0000
1001
0000
0001
0100
0000
0100
0001
,
0000
0001
1000
0100
1100
0000
1001
1000
,
0010
0001
0010
1000
0100
0000
0100
0020
,
0000
0000
0031
0000
1000
0000
0001
0000
1000
0000
0010
0100
0001
0000
0101
0000
,
0000
0000
0001
0000
1000
0000
1100
0000
0000
0000
1001
0000
1000
0000
0001
0100
,
0010
0000
1000
0000
0100
0000
1000
0001
0000
0000
0101
0000
1000
0000
0010
0000
,
0000
0100
0010
0100
0110
0000
1010
2000
,
0001
0000
0000
0000
0000
0000
0000
0000
0000
0000
0000
0000
3001
0000
0000
0000
0000
0000
0000
0000
0000
0000
0000
0000
0000
0000
0000
0000
0000
0000
0000
0000
0000
0000
0000
0000
0000
0000
0000
0000
0000
0000
0000
0000
0000
0000
0000
0000
0002
0003
0000
0000
0000
0000
0000
0000
0000
0000
0000
0000
0010
0000
0000
0000
0000
0000
0000
0000
0000
0000
0000
0000
0100
0000
0000
0000
0000
0000
0000
0000
0000
0000
0000
0000
0000
0000
0000
0000
0000
0000
0000
0000
0000
0000
0000
0000
0000
0000
0000
0000
0000
0000
0000
0000
0000
0000
0000
0000
0000
0000
0000
0000
0000
0000
0000
0000
0000
0000
0000
0000
1000
0000
0000
0000
0000
0000
0000
0000
0000
0000
0000
0000
0000
0000
0000
0000
0000
0000
0000
0000
0000
0000
0000
0000
1000
0000
0000
0000
0000
0000
0000
0000
0000
0000
0000
0000
0010
0000
0000
0000
0000
0000
0000
0000
0000
0000
0000
0000
0100
0000
0000
0000
0000
0000
0000
0000
0000
0000
0000
0000
0000
0000
0000
0000
0000
0000
0000
0000
0000
0000
0000
0000
,
0100
0000
0001
0000
0001
0010
0100
0000
0100
0000
1100
0000
1000
0000
0101
0000
,
0001
0000
1001
0000
0000
0000
0110
0000
0100
0000
0001
0000
0001
0010
0100
0000
,
0100
0000
1000
0000
1000
0010
0100
0000
0100
0000
0001
0000
0001
0010
1000
0000
,
0010
0000
0002
0000
1000
0000
1003
0000
0010
0000
0110
0000
0100
0001
0100
0000
,
0010
0100
0010
0000
0100
1000
0100
0000
0001
0010
0001
0000
0010
0100
0010
0000
,
1000
0010
1000
0000
0010
0001
1000
0000
0001
0100
0010
0000
0100
0001
1000
0000
,
0100
0010
0001
0000
1000
0000
0010
0000
0100
0000
0001
0000
1000
0000
0100
0000
,
0010
0000
1001
0000
0001
0100
0020
0000
0000
0000
0130
0000
0000
0000
1010
0000
,
0000
0101
0000
0001
1000
0000
0010
0000
,
0010
0100
0001
1000
0010
0101
0000
0011
,
0000
1100
0000
1000
0002
1000
1003
0001
,
2000
0000
0001
0000
3001
0000
0020
0000
0130
0000
1000
0000
0010
0000
0100
0001
,
0010
0000
0100
0000
0010
0000
0100
1000
0010
0000
0100
0000
0010
0000
0100
0001
,
0010
0000
0100
0000
0010
0000
0100
1000
0010
0000
0100
0001
0010
0000
0100
1000
,
0010
0000
0100
0001
0010
0000
0200
0000
0000
0000
0310
0000
0001
1000
0001
1000
,
0010
0100
0101
0010
1100
0000
1000
0002
,
0000
0010
0000
0013
0200
0000
1300
0001
,
0020
0000
0030
0000
0110
0000
0100
1000
0010
0000
1000
0100
0001
0000
0100
1000
,
0010
0000
1000
0100
0010
0100
1000
0010
0100
0010
1000
0100
0010
0000
0100
0000
,
1001
0000
0000
0000
0101
0000
0100
0001
0010
0000
0001
0100
1000
0000
0100
0001
,
0010
0000
0001
0100
0010
0100
0001
0010
0100
0010
0001
0100
0010
0000
0100
0000
,
1001
0000
0000
0000
1010
0000
0010
1000
0100
0000
0001
0100
1000
0000
0010
1000
,
0100
0000
0001
0100
1000
0010
0100
0010
1000
0100
0010
0001
1000
0000
0010
0000
,
1001
0000
0101
1000
0001
0100
1100
0001
,
1000
0100
0101
0001
1100
1000
0101
0010
,
1001
0000
0101
0001
1001
0001
1100
1000
,
1001
1000
0101
0001
1100
1000
0110
0100
,
1001
0000
1010
1000
1001
1000
0011
0001
,
1001
0001
1010
1000
0011
1000
0120
0100
,
0130
0000
0000
0000
1010
0000
1000
0010
0200
0000
0301
0000
0011
0000
0001
0010
,
0200
0000
1300
0000
1010
0000
1000
0001
0100
0000
0110
0000
0001
0000
1000
0000
,
1001
0000
0001
0000
1000
0100
0010
0001
1000
0000
1001
0000
0001
0100
0010
1000
,
0001
0000
1001
0000
1000
0000
0001
0100
0001
0000
1000
0100
1000
0000
1001
0000
,
0001
0100
0001
0100
0020
0000
0000
0000
1000
0000
0000
0000
0230
0000
0000
0000
,
0001
0000
0302
0000
1000
0000
1003
0100
,
0010
0002
0000
1003
0010
1000
0010
0100
,
0001
2001
0000
3001
1000
0100
1100
0000
,
0011
0201
0010
0320
,
1000
0000
2030
0000
0100
0000
3100
0010
,
0001
0011
0000
0001
1000
0010
0100
0001
,
1000
2100
0000
3001
0010
0100
1000
0000
,
0011
0000
0000
0000
1001
0000
0001
0100
1000
0000
0100
0000
0010
0000
1000
0100
,
0001
0000
0100
0000
1000
0000
0001
0100
1000
0000
0100
0000
0001
0010
0100
1000
,
0001
0010
0100
1000
0002
0000
0000
0000
0000
0000
0000
0000
2003
0000
0000
0000
,
0010
3010
0000
0100
0010
0100
0010
0100
,
0010
0100
0010
0100
0010
0000
0110
0000
0000
0000
1000
0000
0001
0000
0000
0000
,
0001
0010
0000
0010
0100
1000
0101
0000
,
1100
0001
0000
1000
0010
0100
0101
0000
,
1001
0000
2000
0000
0000
0000
3001
0000
0100
0000
0001
0000
0010
0000
0100
1000
,
0001
0101
0000
0001
1000
1100
0000
0001
,
1000
0000
0010
0100
0010
0000
0001
0000
1000
0000
0100
0002
0000
0000
1003
0000
,
0010
0100
0000
0001
1000
0001
0110
0000
,
0110
0000
2000
0000
0001
3001
0000
0000
0000
0000
0000
0000
0000
0000
0000
0000
;

//--------------- dance-single - ----------------
#NOTES:
     dance-single:
     :
     Challenge:
     18:
     1.130938,1.198058,1.261738,0.48013,0.898849,709,596,113,43,0,0,1.130938,1.198058,1.261738,0.48013,0.898849,709,596,113,43,0,0:
0000
0000
0000
0000
,
0110
0000
0000
0000
0001
0000
0100
0000
0000
0000
1000
0000
0100
0000
0010
1000
,
0002
0000
0000
0000
0013
0000
0100
0000
0000
0000
0100
0000
1000
0000
0001
0100
,
0020
0000
1030
0001
0000
0001
0000
0020
,
0000
0000
0000
0130
0000
0000
1000
0000
0000
0001
0000
0000
1000
0000
0000
0010
0100
0010
0100
0000
0000
0001
0010
0100
,
1000
0000
0001
0000
1100
0000
1000
0000
0101
0000
0100
0000
1001
0000
1000
0010
,
0200
0000
0001
0000
0301
0010
0100
0000
1100
0000
0001
0000
0110
0000
1000
0001
,
0101
0000
0000
0000
0000
0000
0000
0000
0000
0000
0000
0000
0000
0000
0000
0000
0000
0000
0000
0000
0000
0000
0000
0000
0110
0000
0000
0000
0000
0000
0000
0000
0000
0000
0000
0000
0000
0000
0000
0000
0000
0000
0000
0000
0000
0000
0000
0000
1010
0000
0000
0000
0000
0000
0000
0000
0000
0000
0000
0000
0000
0000
0000
0000
0000
0000
0000
0000
0000
0000
0000
0000
1000
0000
0000
0000
0000
0000
0000
0000
0000
0000
0000
0000
0100
0000
0000
0000
0000
0000
0000
0000
0000
0000
0000
0000
0010
0000
0000
0000
0000
0000
0000
0000
0000
0000
0000
0000
0001
0000
0000
0000
0000
0000
0000
0000
0000
0000
0000
0000
1000
0000
0000
0000
0000
0000
0000
0000
0000
0000
0000
0000
0100
0000
0000
0000
0000
0000
0000
0000
0000
0000
0000
0000
0010
0000
0000
0000
0000
0000
0000
0000
0000
0000
0000
0000
0001
0000
0000
0000
0000
0000
0000
0000
0000
0000
0000
0000
2000
3000
0000
0000
0000
0000
0000
0000
0000
0000
0000
0000
0000
0000
0000
0000
0000
0000
0000
0000
0000
0000
0000
0000
,
0010
0000
0000
0000
0000
0000
0000
0000
0000
0000
0000
0000
0100
0000
0000
0000
0000
0000
0000
0000
0000
0000
0000
0000
0000
0000
0000
0000
0000
0000
0000
0000
0000
0000
0000
0000
0000
0000
0000
0000
0000
0000
0000
0000
0000
0000
0000
0000
0002
0003
0000
0000
0000
0000
0000
0000
0000
0000
0000
0000
1000
0000
0000
0000
0000
0000
0000
0000
0000
0000
0000
0000
0001
0000
0000
0000
0000
0000
0000
0000
0010
0000
0000
0000
0000
0000
0000
0000
0100
0000
0000
0000
0000
0000
0000
0000
1000
0000
0000
0000
0000
0000
0000
0000
0001
0000
0000
0000
0000
0000
0000
0000
0010
0000
0000
0000
0000
0000
0000
0000
0100
0000
0000
0000
0000
0000
0000
0000
0000
0000
0000
0000
0000
0000
0000
0000
0000
0000
0000
0000
0000
0000
0000
0000
1000
0000
0000
0000
0000
0000
0000
0000
0000
0000
0000
0000
0010
0000
0000
0000
0000
0000
0000
0000
0000
0000
0000
0000
0100
0000
0000
0000
0000
0000
0000
0000
0000
0000
0000
0000
0000
0000
0000
0000
0000
0000
0000
0000
0000
0000
0000
0000
,
0010
0000
1000
0000
0001
0010
0100
0000
0010
0000
0110
0000
0001
0000
1001
0000
,
0100
0000
0110
0000
0010
1000
0001
0000
0010
0000
0100
1000
0001
1000
0100
0000
,
1000
0000
0010
0100
0001
0100
0010
0000
1000
0000
0010
0100
0001
0010
0100
1000
,
0001
0100
0010
0000
0110
0000
0110
0000
1000
0000
0010
0100
0010
1000
0001
0010
,
1000
0001
0100
0010
0100
0010
0001
0100
1000
0001
0010
0100
0010
0100
0001
0010
,
1000
0001
0100
0010
0100
0010
0001
1000
0001
0100
0020
0000
0130
0001
0020
0000
,
0130
1000
0020
0000
0130
0001
0010
0100
1000
0010
0110
0000
0100
0000
1001
0000
,
0010
0000
0000
0000
0000
0000
1001
0000
0000
0000
0000
0000
1000
0000
0000
0001
0000
0000
1000
0000
0100
0000
0010
0000
0001
0000
0010
0000
0100
0000
1000
0000
0000
0000
0000
0000
0010
0000
0000
0000
0000
0000
0101
0000
0000
0000
0000
0000
,
0010
1100
0000
1001
0100
0000
0010
0000
,
0010
0100
0001
1000
0001
1100
0000
0011
,
0000
0101
0000
1000
0001
1100
1100
0001
,
1000
0101
0101
0020
0130
0001
1001
1000
,
0001
0010
0100
0001
0100
0000
0010
0000
0100
1000
0010
0100
1000
0000
0100
0000
,
0001
0010
1000
0001
0100
0000
1000
0000
0010
1000
0100
1000
0010
0100
0001
0010
,
0001
0100
0010
1000
0100
0010
0100
1000
0001
0100
1000
0100
0001
0010
0100
1000
,
0001
0010
1000
0010
0001
1000
0001
0100
0020
0000
0000
0000
0100
0000
2030
0000
,
0000
0010
0000
0010
3200
0000
0310
0002
,
2000
0000
3003
0000
0001
0100
0001
0100
1000
0100
1000
0100
0001
0010
0001
0010
,
1000
0010
1000
0010
0001
0100
1000
0100
0001
0010
1000
0010
0001
0000
1000
0000
,
1001
0000
0000
0000
1000
0100
1000
0100
0001
0100
0001
0100
1000
0010
1000
0010
,
0001
0010
0001
0010
1000
0100
0001
0100
1000
0010
0001
0010
1000
0000
1001
0000
,
1001
0000
0000
0000
0001
0100
1000
0100
0001
1000
0010
0001
1000
0100
0001
0100
,
1000
0001
0010
1000
0001
0010
1000
0010
0001
1000
0100
0010
0001
0000
1100
0000
,
0011
1001
0110
1000
0001
1000
0110
0001
,
1000
0000
0000
0000
0001
0000
0000
0000
1000
0100
1000
0100
1000
0000
0000
0000
0001
0100
0001
0100
0001
0000
0000
0000
1000
0100
1000
0100
1000
0000
0000
0000
,
0110
0000
0101
0101
1010
1010
1100
1100
,
0011
0011
0101
1010
1100
0011
1001
0110
,
1001
0000
1010
1010
0101
0101
0011
0011
,
1100
1100
1010
0101
0011
1100
0110
1001
,
1001
0000
0101
0110
1100
0110
1010
1001
,
1100
1001
0011
0110
1010
0110
1001
0110
,
1001
0000
0000
0000
1001
0000
1010
0001
0100
0000
0011
1000
0100
0000
1010
0001
,
0100
0000
0110
0000
0002
0010
0203
1000
0302
0010
0203
1000
0301
1000
0001
0000
,
0100
0010
0100
0010
0200
0000
0000
0000
0001
0000
0001
0000
0320
0000
0000
0000
,
0100
0100
2030
0010
0001
3001
0110
1000
,
0001
0011
0000
1100
1000
0001
0100
0010
,
1000
2001
0000
3001
0010
0100
1100
0000
,
0101
0000
2010
0000
0001
0010
3002
0000
,
1000
0100
2003
0010
0100
3010
0101
0001
,
1000
1100
1100
0001
1000
0010
0110
0100
,
0001
1002
0000
1003
0010
0100
0001
1000
,
1100
0000
0000
0000
0001
0000
0010
0100
2000
0000
3001
0100
0020
0000
1030
0100
,
0002
0000
1003
0010
0200
0000
0310
0001
2000
0000
3001
0100
0020
1000
0032
0010
,
0203
1000
0302
0100
2003
0000
0000
0000
0000
0000
0000
0000
3200
0000
0000
0000
,
0301
1000
0001
1000
0000
0000
0000
0000
0000
1010
0000
0000
1001
0000
0000
0101
0000
0000
0110
0000
0000
1001
0000
0000
,
0001
0010
0001
0010
1000
0000
0010
0000
0001
0000
1000
0000
0000
0000
1000
0000
,
0010
0000
0100
0001
2000
0000
0000
0000
3100
0000
0010
0000
0000
0000
0010
0000
,
0001
0000
1000
0010
0200
0000
0000
0000
0301
0000
1000
0000
0000
0000
1000
0000
,
0000
0000
0000
0200
0000
0000
0000
0000
0000
0310
0000
0000
0001
0000
0000
1000
0000
0000
0001
0000
0000
0100
0010
0100
,
0010
0000
0000
1000
0100
0010
0001
0000
0000
1000
0000
0000
0011
0000
0000
0001
0000
0000
1010
0000
0000
0010
0000
0000
,
1001
0000
0001
0100
0020
0000
1000
0000
1030
0100
0010
0000
0011
0000
1000
0000
,
0110
0000
0001
1000
1010
0000
0110
0000
0101
0000
0001
0100
0010
0100
0010
0100
,
1000
0100
0002
0000
1000
0103
0000
0000
0000
0000
0000
0000
0000
0000
0000
0000
;
