#TITLE:インパーフェクト;
#SUBTITLE:;
#ARTIST:オーイシマサヨシ;
#TITLETRANSLIT:Imperfect;
#SUBTITLETRANSLIT:;
#ARTISTTRANSLIT:Oishi Masayoshi;
#GENRE:ANIME;
#CREDIT:;
#MUSIC:Imperfect.ogg;
#BANNER:Imperfect.png;
#BACKGROUND:Imperfect-bg.png;
#CDTITLE:;
#SAMPLESTART:50.242;
#SAMPLELENGTH:11.207;
#SELECTABLE:YES;
#OFFSET:-0.084;
#BPMS:0.000=174.000;
#STOPS:;
#BGCHANGES:0.000=Imperfect.avi=1.000=0=0=0=StretchNoLoop====,
99999.000=-nosongbg-=1.000=0=0=0=StretchNoLoop====
;
#FGCHANGES:;

//--------------- dance-single - ----------------
#NOTES:
     dance-single:
     :
     Hard:
     13:
     0,0,0,0,0:
0000
0000
0000
0000
,
0001
1000
1000
0010
0100
0001
0001
0010
,
0100
1000
1000
0001
1000
0010
0010
1000
,
0100
0010
0010
0100
0100
1000
1000
0010
,
0010
0100
0100
0010
0220
0000
0000
0330
,
0010
0100
0001
1001
0000
0101
0000
1010
,
0000
0010
1000
0100
0000
0011
0000
1001
,
0000
1000
0010
0100
0001
1000
0010
1000
,
0000
0010
1010
1000
0001
0100
0010
2000
,
0000
0000
3001
0010
0100
1000
0010
1000
,
0010
0001
0010
1000
0100
1001
0000
1001
,
0100
0000
0001
1000
0001
0010
0100
1100
,
0000
0011
0001
1001
0000
1000
0010
1000
,
0100
0000
0010
0001
1000
0000
0001
0000
0010
0000
0100
0000
1000
0000
1100
0000
,
0000
0100
1000
0001
0100
1000
0100
0101
,
0000
0001
0010
0100
0001
0100
1000
1100
,
0000
0010
0100
1001
0000
0110
0001
0000
,
1001
0000
0001
1000
0001
0100
0010
1000
,
0001
0010
0100
1001
0000
1001
0000
0110
,
1000
0000
0001
0010
0100
1000
0100
0001
,
0100
0000
1000
0010
0100
0000
0001
0000
0010
0000
0100
0000
1000
0000
1001
0000
,
0000
1000
0100
0010
0001
1000
0100
0010
,
0000
0010
0001
0100
0000
0100
0010
1010
,
0000
1000
0100
0110
0000
0010
0001
1001
,
0000
0011
0100
1000
0001
0100
0010
1010
,
0000
1000
0010
0001
0010
0100
1000
0100
,
0001
0010
0100
0100
0000
0100
1000
0001
,
0000
1000
0010
0100
0000
0000
0000
0100
,
0001
0100
1000
0100
0000
0001
0000
1000
,
0000
0100
0010
0000
1001
0000
1000
0100
,
0010
0001
1000
0100
0100
0001
0100
1000
,
1000
0001
0100
0010
0010
1000
0100
0001
,
0100
1000
0001
0100
0010
1000
0100
0010
,
0000
0001
0101
0000
1100
0000
0101
0000
,
1100
0000
1000
0010
0100
0001
1000
0100
,
0000
0010
0001
0010
0100
0010
1000
0010
,
0110
0110
0110
0000
0000
0000
0000
1001
,
0000
0001
0100
1000
0100
0010
1000
0100
,
0010
0001
0100
0010
0001
1000
0100
0020
,
0000
1030
0100
0001
0100
0010
0001
0100
,
0010
0000
1000
0000
0100
0000
0010
0000
1000
0000
0001
0000
0100
1000
0020
0000
,
0000
0031
0010
1000
0100
0010
0100
1000
,
0001
0100
0010
0100
1000
0100
0001
0010
,
0100
1000
0001
0010
0100
0001
0100
1000
,
0000
0000
1001
0000
1000
0000
0001
0000
0100
0010
0100
0010
0100
0010
0100
0000
,
0000
0000
1001
0000
0001
0000
0100
0000
0100
0000
1000
0000
0001
0010
0100
0000
,
0000
0000
1001
0000
1000
0000
0100
0000
0100
0000
0001
0000
1000
0010
0100
0000
,
0000
0000
1001
0000
0001
0000
1000
0000
0100
0010
0100
0000
0010
0000
0011
0000
,
0000
1100
1000
1001
0000
1010
0000
0101
,
0000
1000
0010
0100
0001
1000
0001
0010
,
0000
0100
1000
0001
1000
0010
0100
0001
,
0000
0010
0001
0010
0100
1000
0100
1000
,
0001
0100
0001
0100
1000
0100
0001
0100
,
0010
1000
0100
0001
0000
0001
0100
1000
,
0000
1000
0010
0001
0000
0001
0010
1000
,
0100
0010
0001
0001
1000
1000
0010
0010
,
0110
1010
0101
1001
,
0001
0010
0100
1000
0000
1000
0010
0100
,
0000
0100
0001
1001
0000
0011
0000
1010
,
0000
0001
0010
0100
1000
0001
0010
0110
,
0000
1000
0010
0110
0000
1010
0000
0101
,
0001
0100
1000
0001
0010
1000
0001
0020
,
0000
0000
0000
0000
,
0000
0000
0000
0000
,
0030
0000
0000
0000
;

//--------------- dance-single - ----------------
#NOTES:
     dance-single:
     :
     Challenge:
     16:
     0.774994,0.584653,0,0,0,489,489,0,0,0,0,0.774994,0.584653,0,0,0,489,489,0,0,0,0:
0000
0000
0000
0000
,
0001
0000
1000
0100
1000
0000
0010
0000
0100
0000
0001
1000
0001
0000
0010
0000
,
0100
0000
1000
0010
1000
0000
0001
0000
1000
0000
0010
0100
0010
0000
1000
0000
,
0100
0000
0010
0001
0010
0000
0100
0010
0100
0000
1000
0001
1000
0000
0010
1000
,
0010
0000
0100
0001
0100
0000
0010
1000
0100
0010
0001
1000
0100
0010
0001
0100
,
0010
0100
0001
1001
0000
0101
0000
1010
,
0000
0010
1000
0100
0000
0011
0000
1001
,
0000
0000
1000
0100
0010
0000
0100
0010
0001
0000
1000
0100
0010
0001
1000
0000
,
0000
0010
1010
1000
0001
0100
1000
0200
,
0000
0000
0301
0010
0100
1000
0010
1000
,
0010
0001
0010
1000
0100
1001
0010
1001
,
0100
0000
0001
1000
0001
0010
0100
1100
,
0000
0000
0011
0000
0100
0000
1010
0000
0010
0000
1000
0100
0010
0001
1000
0000
,
0001
0000
0100
0001
0010
0100
0010
0001
1000
0100
0010
0100
1000
0000
1100
0000
,
0000
0000
0100
0010
0001
0000
1000
0000
0001
0000
0010
0000
0100
0000
1100
0000
,
0000
1000
0100
0010
0001
1000
0001
0110
,
0000
0010
0100
0110
0000
0110
0000
0000
,
1001
0000
0001
0010
0001
0100
0010
1000
,
0100
0010
0001
1000
0001
0010
0001
0100
,
0010
0000
0100
0000
0001
0000
1000
0000
0010
0000
1000
0010
0100
0001
1000
0000
,
0001
0000
0100
0001
0010
0100
1000
0001
0010
0100
1000
0001
0100
0000
0110
0000
,
0000
0000
1000
0000
0001
0000
1000
0100
0010
0000
0001
0100
0001
0100
0010
0000
,
0000
0000
1000
0010
0100
0000
0001
0000
1000
0000
0100
0000
0010
0000
1001
0000
,
0000
0001
0100
1001
0000
1000
0010
0110
,
0000
0110
0001
1000
0001
0010
0100
1100
,
0000
0000
1000
0000
0100
0010
0100
0000
1000
0010
0100
0001
0100
0010
1000
0001
,
0010
0000
0100
0000
1000
0100
1000
0000
,
0100
0000
0010
0000
0001
0100
0001
0100
,
0010
0000
0100
0000
1000
0100
0001
0000
,
1000
0000
0100
0000
1000
0000
0100
0000
0010
0001
0010
0001
1000
0000
0000
0000
,
0110
1000
0010
1000
0001
0010
0001
0100
,
0010
0100
0010
1000
0001
0010
0100
1000
,
0100
0000
0010
0000
0001
0000
1000
0000
0001
0100
0010
1000
0010
0100
0001
0000
,
0000
1000
1100
1000
1100
0100
0110
1001
,
0001
0000
1000
0100
1000
0100
0010
0100
0010
0001
0010
0001
1000
0001
0100
0000
,
0000
0010
1000
0010
0001
0010
0100
0010
,
1001
1001
1001
0000
0000
0000
0000
1001
,
0000
0000
1000
0100
0010
0100
1000
0100
0001
0100
1000
0100
0010
0001
1000
0000
,
0000
0000
0001
0100
0010
0100
0001
0100
1000
0100
0001
0100
0010
1000
0001
0000
,
0000
0000
1000
0100
0010
0100
0001
0100
0010
0100
1000
0100
0010
0001
1000
0000
,
0000
0000
0001
0100
0010
0100
1000
0100
0010
0100
0001
0100
0010
1000
0001
0000
,
0000
0000
0010
0001
1000
0001
0100
0001
1000
0001
0010
0001
0100
0010
1000
0000
,
0000
0000
0010
1000
0001
1000
0100
1000
0001
1000
0010
1000
0100
0010
0001
0000
,
0000
0000
1000
0010
0100
0010
1000
0100
0010
0100
1000
0001
0100
1000
0100
0000
,
0000
0000
0110
0000
0010
1000
0100
0000
0010
0001
0100
0010
1000
0100
0010
0000
,
0000
0000
1001
0000
0001
0100
1000
0000
0100
0001
0010
0100
1000
0100
0010
0000
,
0000
0000
1001
0000
1000
0100
0001
0000
0100
1000
0010
0100
0001
0010
0100
0000
,
0000
0000
1001
0000
0001
0100
1000
0000
1000
0100
0001
0000
1000
0000
1001
0000
,
0000
1100
1000
1001
0000
0110
0000
1001
,
0000
0000
1000
0000
0010
0000
0100
0000
0001
0010
1000
0010
0001
0100
0010
0000
,
0000
0000
0110
0000
0001
0000
1000
0010
0001
0010
1000
0100
0010
0000
0110
0000
,
0000
0010
0001
1000
0001
0010
0100
1000
,
0001
0000
0010
0000
0001
0000
0010
0100
1000
0100
0010
0100
1000
0100
0010
0001
,
1000
0001
0100
1000
0000
1000
0100
0001
,
0000
0001
0010
1000
0000
1000
0010
0001
,
0100
0010
1010
0100
0011
0100
1010
0100
,
0101
0000
0001
0010
0100
0010
0001
0010
0100
1000
0001
0000
0100
0000
0010
0000
,
0101
0000
0010
1000
0010
0000
0101
0000
0000
0000
0001
0010
0001
0000
1100
0000
,
0000
0000
1100
0000
0101
0000
0001
0000
1000
0000
0010
0100
0010
0000
2000
0000
,
0000
0000
3002
0000
0023
0000
0230
0000
1300
0100
0010
0001
1000
0100
0020
0000
,
0032
2003
3001
1001
1000
1010
0010
0110
,
0100
0010
1000
0010
0100
0000
0100
0001
0010
0000
1000
0000
0010
0000
0002
0000
,
0000
0000
0000
0000
,
0000
0000
0000
0000
,
0003
0000
0000
0000
;
