#TITLE:Ievan Polkka (VSNS Remix Nightcore);
#SUBTITLE:;
#ARTIST:VSNS Remixed by Syrex;
#TITLETRANSLIT:Ievan Polkka (VSNS Remix Nightcore);
#SUBTITLETRANSLIT:;
#ARTISTTRANSLIT:VSNS Remixed by Syrex;
#GENRE:POP;
#CREDIT:;
#BANNER:Ievan Polkka (VSNS Remix Nightcore).png;
#BACKGROUND:Ievan Polkka (VSNS Remix Nightcore)-bg.png;
#LYRICSPATH:;
#CDTITLE:;
#MUSIC:Ievan Polkka (VSNS Remix Nightcore).ogg;
#OFFSET:-0.028000;
#SAMPLESTART:32.882999;
#SAMPLELENGTH:12.516000;
#SELECTABLE:YES;
#DISPLAYBPM:153.000000;
#BPMS:0.000000=153.399994
;
#STOPS:
;
#BGCHANGES:3.750=Ievan Polkka (VSNS Remix Nightcore).avi=1.000=0=0=0=====,
99999=-nosongbg-=1.000=0=0=0 // don't automatically add -songbackground-
;
#KEYSOUNDS:;
#ATTACKS:;

//---------------dance-single - ----------------
#NOTES:
     dance-single:
     :
     Hard:
     14:
     0.656982,0.768475,0.127747,0.127747,0.291422,576.000000,560.000000,16.000000,16.000000,0.000000,0.000000,0.656982,0.768475,0.127747,0.127747,0.291422,576.000000,560.000000,16.000000,16.000000,0.000000,0.000000:
0000
0000
0000
0000
,
0000
0000
0000
0000
,
0000
0000
0000
0000
,
0000
0000
0000
0000
,
0000
0000
0000
0000
,
0001
0100
0010
0000
1000
0010
0100
0000
,
0001
0100
0010
1000
0010
0100
0001
0000
,
0001
0010
0100
0000
1000
0100
0010
0000
,
0001
0010
0100
1000
0100
0010
0001
0000
,
0001
0100
0101
0000
1000
0100
1100
0000
,
0001
0100
0001
1000
0100
1000
1001
0000
,
1000
0100
1100
0000
0001
0100
0101
0000
,
1000
0100
1000
0001
0100
0001
1001
0000
,
0001
0000
1000
0000
0010
0000
0100
0001
0100
0000
0010
0000
1000
0000
0001
0010
,
0001
0000
0010
0000
0100
0000
1000
0100
1000
0000
0001
0000
0100
0000
0001
0000
,
0010
0000
0100
1000
0100
0000
1000
0001
1000
0000
0001
0100
0001
0000
1000
0001
,
2000
0000
3002
0000
2003
0000
3001
2000
,
0002
0000
0000
0000
,
0000
0000
0000
0000
,
0000
0000
0000
0000
,
0000
0000
0000
3003
,
1000
0010
0010
0000
0100
0001
0010
0100
,
0010
0001
1000
0010
0100
0001
1000
0000
,
1000
0000
0010
0000
0010
0000
0000
1000
0001
0000
1000
0001
0000
1000
0001
0000
,
0100
0100
0100
0001
1000
0010
0100
0010
,
1000
0000
0100
0000
0001
0000
0100
0000
1000
0000
0001
0100
0000
0001
0100
0000
,
0010
0000
0010
0000
1000
0000
1000
0000
0001
0000
0001
0010
0000
0000
0000
0000
,
0100
1000
0100
0010
0100
1000
0100
0001
,
0100
0000
0100
0000
1000
0000
1000
0000
0001
0000
0100
0010
0000
0000
0000
0000
,
0010
0000
1000
0000
0100
0000
0000
0000
0010
0000
0001
0000
1000
0000
0010
0100
,
0010
0000
1000
0000
0001
0000
0010
0000
0100
0000
0010
0000
0001
0000
1000
0100
,
1000
0000
0010
0000
0010
0000
0000
0100
0001
0000
1000
0001
0000
0100
0001
0000
,
1000
0000
1000
0000
0001
0000
0001
0000
0010
0000
0100
0000
1000
0000
0001
0100
,
0001
0000
0010
0000
0100
0000
0010
0000
0001
0000
1000
0010
0000
0000
0100
0000
,
0001
0000
0001
0000
1000
0000
1000
0000
0001
0000
1000
0001
0000
0000
0100
0010
,
0100
0001
0100
0010
1000
0001
0010
0100
,
1000
0000
1000
0000
0001
0000
0001
0000
0100
0000
0010
0100
0000
0000
1000
0000
,
0100
0000
0001
0000
0010
0000
0100
0000
1000
0000
0001
0010
0000
0000
0100
1000
,
0100
0010
0001
0010
0100
1000
0010
0000
,
0100
0000
0001
0000
0001
0000
1000
0000
0001
0000
0100
0010
0000
0100
0001
0000
,
0010
0000
0010
0000
0100
0000
0100
0000
1000
0000
0100
0000
0010
0000
0001
1000
,
0001
0000
0100
0001
0100
0000
0010
0000
1000
0000
0010
0000
0100
0000
0001
1000
,
0001
0000
1000
0100
1000
0000
0100
0000
0010
0000
0001
0000
0010
0000
0100
0010
,
0100
0000
0010
0001
0010
0000
0100
0000
1000
0000
0001
0000
0100
0000
0010
0100
,
0010
0000
1000
0010
1000
0000
0100
0000
0001
0000
0100
0000
1000
0000
0000
0000
,
0100
0010
0100
0000
0010
0001
0010
0000
,
0001
1000
0001
0000
0100
0001
0100
0010
,
1000
0100
1000
0000
0001
0010
0001
0000
,
1000
0100
1000
0000
0100
0010
0100
1000
,
0001
1000
0010
0000
0100
0001
0010
0000
,
0100
1000
0001
0000
0100
0001
1000
0001
,
0010
0100
1000
0000
0010
0100
0001
0000
,
0001
0000
0010
0000
0100
0000
1000
0000
0100
0000
0010
0000
0001
0000
1000
0100
,
2000
0000
0001
0000
3001
0000
1000
0100
2000
0000
0001
0000
3001
0000
1000
0100
,
2000
0000
0001
0000
3001
0000
1000
0100
2000
0000
0001
0000
3001
0000
0001
0100
,
0002
0000
1000
0000
1003
0000
0001
0100
0002
0000
1000
0000
1003
0000
0001
0100
,
0002
0000
1000
0000
1003
0000
0001
0100
0002
0000
1000
0000
1003
0000
0001
0010
,
0001
0000
1000
0100
1000
0000
0001
0010
0001
0000
1000
0100
1000
0000
0010
1000
,
0010
0000
0100
0001
0100
0000
0010
1000
0010
0000
0100
0001
0100
0000
0001
0000
,
0010
0100
1000
0001
0100
0010
1000
0001
,
0020
0100
0230
0000
1300
0001
1001
0000
,
1000
0000
0100
0000
0100
0000
0001
0000
0100
0000
0010
1000
0000
0001
0010
0000
,
0100
1000
0100
0001
0100
1000
1001
0000
,
0001
0000
0100
0000
0100
0000
1000
0000
0001
0000
1000
0010
0000
0100
0001
0000
,
1000
1000
0001
0001
1000
0100
0110
0000
,
0010
0000
0100
0000
0100
0000
0001
0000
1000
0000
0001
0100
0000
0001
1000
0000
,
0100
1000
0010
0001
0010
1000
1001
0000
,
0001
0100
0101
0000
1000
0100
1100
0000
,
0001
0000
1000
0000
1001
0000
0000
0100
0010
0100
0010
0100
0010
0000
0110
0000
,
1002
0000
0000
0000
0103
0000
1000
0000
0100
0000
0001
0010
0000
0010
1000
0000
,
0001
0100
1000
0100
1000
0001
0100
0010
,
1000
0000
0100
0000
0100
0000
0001
0000
1000
0000
0001
0100
0000
0100
1000
0000
,
0001
0000
0010
0000
1000
0000
0100
0000
0010
0000
0100
0000
1000
0000
0001
0100
,
0001
0000
0001
1000
0001
0000
0010
0000
0100
0000
0001
0000
0100
0000
1000
0100
,
1000
0000
1000
0001
1000
0000
0010
0000
0100
0000
0001
0000
1000
0000
0100
0010
,
0100
0000
0100
1000
0100
0000
0001
0000
0100
0000
1000
0000
0001
0000
0100
0010
,
0100
0000
0100
0001
0100
0000
0010
0000
1000
0000
0100
0000
1000
0000
0001
0000
,
1001
0000
0000
0000
;

//---------------dance-single - ----------------
#NOTES:
     dance-single:
     :
     Challenge:
     17:
     0.967224,1.075866,0.782448,0.510986,0.910194,848.000000,750.000000,98.000000,64.000000,0.000000,0.000000,0.967224,1.075866,0.782448,0.510986,0.910194,848.000000,750.000000,98.000000,64.000000,0.000000,0.000000:
// measure 0
0000
0000
0000
0000
,  // measure 1
0000
0000
0000
0000
,  // measure 2
0000
0000
0000
0000
,  // measure 3
0000
0000
0000
0000
,  // measure 4
0000
0000
0000
0000
,  // measure 5
0001
0000
1000
0000
0001
0100
0001
0100
0010
0000
1000
0000
0001
0010
0001
0010
,  // measure 6
0100
0000
1000
0000
0010
0100
0010
0100
0001
0000
1000
0100
1000
0000
0001
0100
,  // measure 7
0001
0000
0010
0000
0100
0000
1000
0100
1000
0000
0010
0000
0100
0000
0001
0100
,  // measure 8
0001
0000
0010
0100
1000
0100
1000
0001
0010
0001
0010
0100
1000
0100
0010
0001
,  // measure 9
1000
0000
0010
0000
0110
0000
0100
0001
1000
0000
0100
0000
1100
0000
1000
0001
,  // measure 10
0100
0000
0010
0000
0110
0000
0100
0001
1000
0000
0001
0000
0011
0000
0010
0100
,  // measure 11
1000
0000
1000
0100
0010
0000
0010
0001
0100
0000
0100
0001
1000
0000
0001
0100
,  // measure 12
0010
0000
0010
0100
0001
0000
0001
0010
0100
0000
0100
1000
0001
0100
0010
0100
,  // measure 13
0001
0000
1000
0100
0010
0000
0110
0000
0010
0001
1000
0000
1010
0000
0010
0100
,  // measure 14
0001
0000
1001
0000
1000
0010
0100
0000
0101
0000
0001
0010
0100
0000
1001
0000
,  // measure 15
0001
0010
0100
1000
0001
1000
0010
0100
0001
1000
0010
0100
0001
0010
0100
1000
,  // measure 16
0001
0000
0000
0100
0000
0010
0000
0100
0000
0010
0000
0000
1000
0000
0000
0100
0000
0010
0000
0100
0000
0010
0000
0000
0001
0000
0000
0100
0000
0010
0000
0100
0000
0010
0000
0000
1000
0000
0000
0000
0000
0000
0002
0000
0000
0000
0000
0000
,  // measure 17
2000
0000
0000
0000
,  // measure 18
0000
0000
0000
0000
,  // measure 19
0000
0000
0000
0000
,  // measure 20
0000
0000
0000
0000
3003
0000
0001
1000
0100
0000
0100
0000
0010
0001
0010
0100
,  // measure 21
1000
0000
0010
0000
0010
0000
0000
0100
0001
0100
0010
1000
0001
0000
0001
0010
,  // measure 22
0100
0000
1000
0000
0010
0000
1000
0000
0001
0000
1000
0000
0100
0000
0010
0001
,  // measure 23
1000
0000
0100
0000
0100
0000
0000
0010
0001
0000
0010
0100
0000
0010
1000
0010
,  // measure 24
0001
0010
0001
0010
0001
1000
0010
0000
0100
0000
0001
0000
1000
0000
0001
0100
,  // measure 25
0010
0000
0100
0000
0001
0000
0100
0000
0010
0000
1000
0100
0000
0010
0100
0010
,  // measure 26
0001
0100
0001
0100
1000
0100
1000
0100
0001
0000
1000
0010
0000
0000
0000
0100
,  // measure 27
0001
0000
1000
0000
0100
0000
0010
0000
0100
0000
0001
0000
0100
1000
0100
1000
,  // measure 28
0001
0010
0001
0010
1000
0010
1000
0010
0001
0000
1000
0010
0000
0000
0000
0100
,  // measure 29
0001
0000
1010
0000
1010
0000
0000
0100
0001
1000
0100
0010
0100
0000
0100
1000
,  // measure 30
0010
0000
1010
0000
0010
0000
0110
0000
0100
0000
0101
0000
1001
0000
1000
0001
,  // measure 31
0010
0000
0011
0000
0011
0000
0000
0010
0100
0000
0010
0001
0000
0001
1000
0010
,  // measure 32
0100
0001
0100
0001
1000
0100
0010
0000
0011
0000
0110
0000
1100
0000
1000
0100
,  // measure 33
0010
0000
0011
0000
1000
0000
0101
0000
0010
0000
1000
0001
0000
0001
0010
0100
,  // measure 34
1000
0010
1000
0010
0100
0001
0100
0001
1000
0000
0001
0010
0000
0000
0000
0000
,  // measure 35
0010
0000
0110
0000
0100
0000
0110
0000
1000
0000
1010
0000
0100
0010
1000
0010
,  // measure 36
0100
1000
0100
1000
0100
0001
0100
0001
0010
0000
0100
0010
0000
0000
0010
0010
,  // measure 37
0002
0000
0100
0000
0203
0000
0320
0000
2030
0000
0001
3020
0000
0000
0130
0010
,  // measure 38
0200
0301
2000
3002
0203
2300
3020
0230
,  // measure 39
0302
0000
1000
0000
2003
0000
0100
0000
3002
0000
0103
2000
0000
3010
0100
0010
,  // measure 40
0002
0000
0023
0000
0230
0000
0302
0000
2003
0000
3200
0000
0320
0000
0031
0010
,  // measure 41
2000
0000
3010
0001
0200
0000
0320
0000
0032
0000
1000
0000
2003
0000
3100
0001
,  // measure 42
0020
0000
0130
1000
0020
0000
0230
0000
0302
0000
2003
0000
3002
0000
1003
0010
,  // measure 43
0002
0000
0013
1000
0200
0000
0320
0000
2030
0000
0001
0000
3002
0000
0103
1000
,  // measure 44
0020
0000
0130
0001
0020
0000
0230
0000
2300
0000
3200
0000
0302
0000
0003
0000
,  // measure 45
0110
0100
0110
0010
0011
1000
1010
0100
,  // measure 46
0110
0000
0001
0000
0110
0000
1000
0000
1100
0000
0100
0000
1001
0000
1000
0001
,  // measure 47
0110
0010
0110
1000
0101
0010
1100
0010
,  // measure 48
1001
0000
0100
0000
1001
0000
0010
0000
0110
0000
0100
0000
1001
0000
1000
0010
,  // measure 49
0101
1000
0011
1000
0101
1000
0011
0100
,  // measure 50
1010
0000
0001
0000
1100
0000
0001
0000
1010
0000
0001
0000
1100
0000
1000
0100
,  // measure 51
0011
0100
1010
0100
0011
0100
1010
0010
,  // measure 52
0101
0000
0010
0000
1100
0000
0010
0000
0101
0000
0010
0000
1001
0000
1000
0100
,  // measure 53
0010
0000
1100
0000
0011
0000
1000
0100
0010
0000
1100
0000
0011
0000
1000
0100
,  // measure 54
0010
0000
1100
0000
0011
0000
1000
0100
0010
0000
1100
0000
0011
0000
0001
0100
,  // measure 55
0010
0000
0101
0000
1010
0000
0001
0100
0010
0000
0101
0000
1010
0000
0001
0100
,  // measure 56
0010
0000
0101
0000
1010
0000
0001
0100
0010
0000
0101
0000
1010
0000
1000
0100
,  // measure 57
0010
0000
0001
0100
0010
0000
1000
0100
0010
0000
0001
0100
0010
0000
1000
0010
,  // measure 58
0100
0000
0001
0010
0100
0000
1000
0010
0100
0000
0001
0010
0100
0000
1000
0100
,  // measure 59
0010
0001
0100
0010
1000
0001
0010
0100
1000
0001
0100
0010
1000
0001
0010
0100
,  // measure 60
1000
0000
1001
0000
1001
0000
0100
0001
0010
0100
1000
0010
0110
0000
0010
1000
,  // measure 61
0100
0000
0110
0000
0120
0000
0001
0000
0130
0000
1000
0020
0000
0031
1000
0100
,  // measure 62
0010
0000
1010
0000
0100
0000
0101
0000
0002
0000
1000
0000
0103
0000
0100
0001
,  // measure 63
0010
0000
1100
0000
1200
0000
1000
0000
0301
0000
0001
0200
0000
1300
0010
0100
,  // measure 64
1000
0100
1000
0100
0001
0000
0101
0000
1000
0000
0110
0000
1001
0000
0001
0010
,  // measure 65
0100
0000
0011
0000
0012
0000
1000
0000
0103
0000
0100
0002
0000
0100
1003
0100
,  // measure 66
0010
0110
0001
1010
0100
0011
1100
0000
,  // measure 67
1000
0100
1100
0000
0001
0100
0101
0000
,  // measure 68
0100
0000
0010
0000
0110
0000
0000
0100
0001
0010
1000
0010
0001
0000
1001
0000
,  // measure 69
0002
0000
0000
0000
0103
0010
0100
0001
1000
0010
0100
0001
0010
0100
1000
0001
,  // measure 70
1000
0001
0100
0010
1000
0001
0100
0010
1000
0001
0010
0100
2000
0000
3002
0000
,  // measure 71
1003
0100
0010
0001
0010
0100
0010
0001
1000
0010
0100
0001
1000
0100
1000
0001
,  // measure 72
0010
0100
0010
0100
1000
0001
1000
0001
0100
0010
0100
0001
2000
0000
3001
0100
,  // measure 73
0010
1000
0010
0100
0010
1000
0001
0010
0001
1000
0100
0001
2000
0000
3001
0100
,  // measure 74
1000
0010
0100
0010
1000
0010
0100
0010
0001
1000
0100
0001
0020
0000
0130
1000
,  // measure 75
0010
0100
0001
0100
0010
0100
0001
0010
0100
1000
0001
0100
0001
1000
0001
0100
,  // measure 76
2000
0000
3100
0001
0010
0000
1100
0000
0012
0000
0203
0000
2300
0000
3100
0000
,  // measure 77
0110
0000
0000
0000
;
