#TITLE:アイドル;
#SUBTITLE:;
#ARTIST:YOASOBI;
#TITLETRANSLIT:Idol;
#SUBTITLETRANSLIT:;
#ARTISTTRANSLIT:YOASOBI;
#GENRE:Anime;
#CREDIT:;
#MUSIC:Idol.ogg;
#BANNER:Idol.png;
#BACKGROUND:Idol-bg.png;
#CDTITLE:;
#SAMPLESTART:55.124;
#SAMPLELENGTH:11.928;
#SELECTABLE:YES;
#OFFSET:2.261;
#BPMS:0.000=166.000
,120.000=83.000
,128.000=166.000
,151.000=83.000
,151.500=166.000
;
#STOPS:;
#LASTBEATHINT:3.411278;
#BGCHANGES:6.250=Idol.avi=1.000=0=0=0=StretchNoLoop====,
99999.000=-nosongbg-=1.000=0=0=0=StretchNoLoop====
;
#FGCHANGES:;

//--------------- dance-single - ----------------
#NOTES:
     dance-single:
     :
     Medium:
     12:
     0.681661,0.849599,0.399485,0.632518,0.122065,430,394,36,57,0,0,0.681661,0.849599,0.399485,0.632518,0.122065,430,394,36,57,0,0:
0000
0000
0000
0000
,
0000
0000
0000
0000
,
0101
0000
0001
0010
0100
1000
0010
1000
,
0001
0100
0010
0100
0001
1000
0001
0000
,
1001
0000
1000
0100
0010
0100
1000
0001
,
0100
0010
0100
0001
1000
0100
1100
0000
,
0011
0010
0001
1000
0010
0100
0010
1000
,
0001
0010
1000
0010
0001
0100
0010
0000
,
0110
0000
0001
0100
1000
0001
0010
0100
,
0001
0010
1000
0001
0100
0010
0110
0000
,
0011
0000
1100
0000
1000
0010
0100
0001
,
0000
1000
0000
0010
0100
0000
1001
0000
,
0002
0203
0320
2030
,
3200
0320
0032
2003
,
3001
0100
0010
1000
0100
0000
0100
1000
,
0010
1000
0001
0010
0100
0000
0100
1000
,
0100
0001
0100
1000
0001
1000
0010
0001
,
0010
0000
0100
0000
0001
0000
1000
0000
0001
0000
0000
0000
0001
0000
1000
0100
,
1000
0010
0100
0010
1000
0000
0001
0010
,
0100
0010
0001
1000
0001
0000
1000
0010
,
0100
0010
1000
0001
0010
0100
1000
0001
,
0100
1000
0100
0001
1000
0000
0001
0000
,
0011
0000
0000
1100
0000
0000
0011
0000
0000
0000
0001
0000
0100
0000
0010
0000
,
1010
0000
0000
0101
0000
0000
1010
0000
0000
0000
1000
0000
0100
0000
0010
0000
,
0001
0100
0101
0000
1000
0100
1100
0000
,
0001
1000
0001
0100
0110
0001
0010
0100
,
1100
0000
0000
0101
0000
0000
1100
0000
0000
0000
1000
0000
0010
0000
0100
0000
,
0101
0000
0000
1100
0000
0000
0101
0000
0000
0000
0001
0100
0001
0000
1000
0000
,
0010
0000
0100
0000
0110
0000
0000
1000
0001
0000
0010
0000
0100
0000
0020
0000
,
0000
0031
1000
0001
0100
0000
0100
0001
,
2000
3000
0000
0000
0000
0000
0000
0000
0000
0000
0000
0000
0000
0000
0000
0000
0000
0000
0000
0000
0000
0000
0000
0000
0010
0000
0000
0000
0000
0000
0000
0000
0000
0000
0000
0000
0100
0000
0000
0000
0000
0000
0000
0000
0000
0000
0000
0000
0000
0000
0000
0000
0000
0000
0000
0000
0000
0000
0000
0000
0001
0000
0000
0000
0000
0000
0000
0000
0000
0000
0000
0000
0000
0000
0000
0000
0000
0000
0000
0000
0000
0000
0000
0000
1000
0000
0000
0000
0000
0000
0000
0000
0000
0000
0000
0000
0000
0000
0000
0000
0000
0000
0000
0000
0000
0000
0000
0000
0001
0000
0000
0000
0000
0000
0000
0000
0000
0000
0000
0000
0010
0000
0000
0000
0000
0000
0000
0000
0000
0000
0000
0000
0100
0000
0000
0000
0000
0000
0000
0000
0000
0000
0000
0000
1000
0000
0000
0000
0000
0000
0000
0000
0000
0000
0000
0000
0000
0000
0000
0000
0000
0000
0000
0000
0000
0000
0000
0000
0001
0000
0000
0000
0000
0000
0000
0000
0000
0000
0000
0000
0100
0000
0000
0000
0000
0000
0000
0000
0000
0000
0000
0000
,
0001
0000
1000
0100
1000
0000
0001
0100
0001
1000
0100
1000
0010
0000
0100
0001
,
2000
0000
3001
0100
0000
0010
0000
1000
,
0000
0001
0010
0100
1000
0000
0001
0100
,
0001
0000
0000
0000
1000
0000
0000
0000
0010
0000
0000
0010
0000
0000
0010
0000
,
0000
0100
0001
1000
0001
0010
0100
1000
,
0001
0000
0000
0100
0010
0000
0010
0100
,
0000
0000
0000
0000
0000
0000
0000
0000
0000
0000
0000
0000
0000
0000
0000
0000
0000
0000
0000
0000
0000
0000
0000
0000
0100
0000
0000
0000
0000
0000
0000
0000
0000
0000
0000
0000
0000
0000
0000
0000
0000
0000
0000
0000
0000
0000
0000
0000
0001
0000
0000
0000
0000
0000
0000
0000
0000
0000
0000
0000
0000
0000
0000
0000
0000
0000
0000
0000
0000
0000
0000
0000
1000
0000
0000
0000
0000
0000
0000
0000
0000
0000
0000
0000
0000
0000
0000
0000
0000
0000
0000
0000
0000
0000
0000
0000
1100
0000
0000
0000
0000
0000
0000
0000
0000
0000
0000
0000
0000
0000
0000
0000
0000
0000
0000
0000
0000
0000
0000
0000
0000
0000
0000
0000
0000
0000
0000
0000
0000
0000
0000
0000
0000
0000
0000
0000
0000
0000
0000
0000
0000
0000
0000
0000
0002
0003
0000
0000
0000
0000
0000
0000
0000
0000
0000
0000
2000
3000
0000
0000
0000
0000
0000
0000
0000
0000
0000
0000
0200
0300
0000
0000
0000
0000
0000
0000
0000
0000
0000
0000
0000
0000
0000
0000
0000
0000
0000
0000
0000
0000
0000
0000
,
0000
1001
0000
1000
0010
0100
0001
0000
,
0001
0010
0100
1000
0000
0001
0100
0010
,
0000
0000
1010
0000
0000
0000
0101
0000
0000
0001
1000
0000
0100
0000
0000
0000
,
0100
1000
0010
0110
0000
1001
0000
1000
,
0000
0001
0000
0010
0100
0010
0001
0000
,
1000
0010
0100
0001
0000
0010
0100
1000
,
0000
0001
1000
0010
0000
0010
0100
0000
,
0100
0000
0100
0001
1000
0020
0000
0200
,
0330
0110
0100
0001
1000
0001
0010
1000
,
0000
1000
0010
0001
0100
1000
0100
0010
,
0000
0110
0000
0100
1000
0100
0001
1000
,
0020
0230
0302
0023
0230
2300
3002
0103
,
0000
1010
1000
0100
0010
0100
1000
0001
,
0000
0000
0001
0000
0010
0100
0010
0000
0001
0000
1000
0000
0010
0000
0200
0000
,
0302
0023
2030
3020
0032
0203
2300
0000
,
3100
0001
1000
1100
0000
1001
0000
0002
,
0000
0203
0000
0320
1030
0002
0000
0023
,
0000
0230
0000
2300
3001
0200
0000
0320
,
0000
0230
0000
0302
1003
0200
0000
2300
,
0001
3100
0000
0002
1000
0103
0000
2000
,
3100
0002
0103
2000
3010
0200
0310
2000
,
3001
0200
1300
0200
0301
0020
0130
0020
,
0031
0020
1030
0002
0103
2000
0000
3010
,
1000
0001
0100
0000
0000
0000
0000
0000
;

//--------------- dance-single - ----------------
#NOTES:
     dance-single:
     :
     Hard:
     15:
     0.884574,0.849599,0.510453,0.699099,0.543744,558,512,46,63,0,0,0.884574,0.849599,0.510453,0.699099,0.543744,558,512,46,63,0,0:
0000
0000
0000
0000
,
0000
0000
0000
0000
,
0101
0000
0001
1000
0001
0100
0010
1000
,
0001
1000
0100
0010
0001
1000
1010
0000
,
0101
0000
0000
0000
0100
0000
0001
0000
0010
0000
0100
0000
1000
0000
0001
0100
,
0001
1000
0100
1000
0010
0100
0101
0000
,
1000
0000
0001
1000
0100
0000
0010
0000
0100
0000
1000
0000
0001
0000
0100
0010
,
0100
0001
1000
0100
1000
0001
0101
0000
,
1010
0000
0000
0000
0010
0000
0100
0001
1000
0000
0100
0000
0001
0000
0100
0000
,
1000
0000
0001
0000
0100
0000
0010
1000
0001
0000
0010
0000
0110
0000
0000
0000
,
1001
0000
1100
0000
0101
0001
1000
1010
,
0000
0101
0000
1100
1001
0000
0110
0000
,
0002
0103
2000
3100
0020
1030
0200
0310
,
2000
3010
0200
1300
0002
0103
0020
0000
,
0130
0000
0001
0000
1000
0000
0010
0100
0002
0000
0013
0000
0002
0000
0103
0000
,
0001
0000
1000
0000
0100
0000
0010
0100
2000
0000
3010
0000
2000
0000
3100
0000
,
0010
0000
0100
1000
0010
0000
0001
0000
0010
0000
0100
0001
0010
0000
1000
0000
,
0010
0000
0100
1000
0001
0000
0100
0001
1000
0000
0100
0000
0010
0000
0001
0100
,
0010
0000
0100
0000
1000
0000
0100
0010
0200
0000
0301
0000
2000
0000
3001
0010
,
0100
0000
0010
0000
1000
0000
0010
0100
0020
0000
0031
0000
2000
0000
3001
0100
,
0010
0000
1000
0000
0001
0000
0010
0100
1000
0000
0001
0010
0100
0000
1000
0000
,
0001
0000
0100
0010
0100
0000
0001
0000
2000
0000
0000
0000
3001
0000
0000
0000
,
0011
0000
0000
0110
0000
0000
1100
0000
0001
0000
1000
0010
0100
0000
0010
0000
,
1010
0000
0000
0110
0000
0000
0101
0000
1000
0000
0001
0010
0100
0000
1000
0000
,
0010
0000
0010
0000
0101
0000
0000
0001
0010
0000
0010
0000
1100
0000
0000
1000
,
0010
0000
0100
0000
0001
0000
1000
0000
1001
0000
0001
0100
0001
0000
0001
0010
,
0100
0000
1000
0010
0000
0100
0002
0000
1000
0000
1003
0100
1000
0000
1000
0010
,
0100
0000
0001
0010
0000
0100
2000
0000
0001
0000
3001
0010
0100
0000
0010
0000
,
0001
0000
0100
0000
1010
0000
0000
0001
0010
0000
0100
0000
0011
0000
2000
0000
,
0000
3001
0100
0010
0110
0000
0100
0001
,
2000
3000
0000
0000
0000
0000
0000
0000
0000
0000
0000
0000
0000
0000
0000
0000
0000
0000
0000
0000
0000
0000
0000
0000
0010
0000
0000
0000
0000
0000
0000
0000
0000
0000
0000
0000
0100
0000
0000
0000
0000
0000
0000
0000
0000
0000
0000
0000
0000
0000
0000
0000
0000
0000
0000
0000
0000
0000
0000
0000
0001
0000
0000
0000
0000
0000
0000
0000
0000
0000
0000
0000
0000
0000
0000
0000
0000
0000
0000
0000
0000
0000
0000
0000
1000
0000
0000
0000
0000
0000
0000
0000
0000
0000
0000
0000
0000
0000
0000
0000
0000
0000
0000
0000
0000
0000
0000
0000
0001
0000
0000
0000
0000
0000
0000
0000
0000
0000
0000
0000
0010
0000
0000
0000
0000
0000
0000
0000
0000
0000
0000
0000
0100
0000
0000
0000
0000
0000
0000
0000
0000
0000
0000
0000
1000
0000
0000
0000
0000
0000
0000
0000
0000
0000
0000
0000
0000
0000
0000
0000
0000
0000
0000
0000
0000
0000
0000
0000
0010
0000
0000
0000
0000
0000
0000
0000
0000
0000
0000
0000
0100
0000
0000
0000
0000
0000
0000
0000
0000
0000
0000
0000
,
0010
0000
0100
0010
0100
0000
0001
1000
0001
0010
0100
1000
0001
0000
1000
0100
,
0020
0030
0000
0000
0000
0000
0000
0000
0000
0000
0000
0000
0000
0000
0000
0000
0000
0000
0000
0000
0000
0000
0000
0000
0000
0000
0000
0000
0000
0000
0000
0000
0000
0000
0000
0000
0000
0000
0000
0000
0000
0000
0000
0000
0000
0000
0000
0000
0001
0000
0000
0000
0000
0000
0000
0000
0000
0000
0000
0000
0000
0000
0000
0000
0000
0000
0000
0000
0000
0000
0000
0000
0100
0000
0000
0000
0000
0000
0000
0000
0000
0000
0000
0000
0000
0000
0000
0000
0000
0000
0000
0000
0000
0000
0000
0000
1000
0000
0000
0000
0000
0000
0000
0000
0000
0000
0000
0000
0000
0000
0000
0000
0000
0000
0000
0000
0000
0000
0000
0000
0100
0000
0000
0000
0000
0000
0000
0000
0000
0000
0000
0000
0001
0000
0000
0000
0000
0000
0000
0000
0000
0000
0000
0000
1000
0000
0000
0000
0000
0000
0000
0000
0000
0000
0000
0000
0000
0000
0000
0000
0000
0000
0000
0000
0000
0000
0000
0000
0100
0000
0000
0000
0000
0000
0000
0000
0000
0000
0000
0000
0000
0000
0000
0000
0000
0000
0000
0000
0000
0000
0000
0000
,
0001
0000
0100
1000
0001
0000
0100
0000
0010
0000
0000
0000
0100
0000
0001
0010
,
0100
0000
0000
0000
1100
0000
0000
0000
0101
0000
0000
1100
0000
0000
0101
0000
,
0000
0001
0100
0010
1000
0100
0010
0001
,
2001
0000
0100
0000
3100
0000
0010
0000
0001
0000
1000
0100
0010
0001
1000
0000
,
0000
0000
0000
0000
0000
0000
0000
0000
0000
0000
0000
0000
0000
0000
0000
0000
0000
0000
0000
0000
0000
0000
0000
0000
1000
0000
0000
0000
0000
0000
0000
0000
0000
0000
0000
0000
0000
0000
0000
0000
0000
0000
0000
0000
0000
0000
0000
0000
0010
0000
0000
0000
0000
0000
0000
0000
0000
0000
0000
0000
0000
0000
0000
0000
0000
0000
0000
0000
0000
0000
0000
0000
0100
0000
0000
0000
0000
0000
0000
0000
0000
0000
0000
0000
0000
0000
0000
0000
0000
0000
0000
0000
0000
0000
0000
0000
0001
0000
0000
0000
0000
0000
0000
0000
0000
0000
0000
0000
0000
0000
0000
0000
0000
0000
0000
0000
0000
0000
0000
0000
0000
0000
0000
0000
0000
0000
0000
0000
0000
0000
0000
0000
0000
0000
0000
0000
0000
0000
0000
0000
0000
0000
0000
0000
0002
0003
0000
0000
0000
0000
0000
0000
0000
0000
0000
0000
2000
3000
0000
0000
0000
0000
0000
0000
0000
0000
0000
0000
0200
0300
0000
0000
0000
0000
0000
0000
0000
0000
0000
0000
0000
0000
0000
0000
0000
0000
0000
0000
0000
0000
0000
0000
,
0000
0000
1100
0000
1000
0000
0010
0000
0100
0001
1000
0000
0100
0000
0010
0000
,
0100
1000
0001
0000
1000
0010
0002
0000
0023
0000
2030
0000
3200
0000
0310
0000
,
0000
0000
1001
0000
1000
0010
0100
0000
0001
0010
0100
0000
2000
0000
0000
0000
,
3001
0010
0001
0010
0100
0000
0110
0000
0000
0000
1001
0000
0000
0000
1100
0000
,
0100
1000
0010
0000
0100
0001
0020
0000
0000
0000
0130
0000
1000
0000
0010
0000
,
0100
0001
1000
0000
0001
0010
2000
0000
3020
0000
0032
0000
0203
0000
0310
0000
,
1000
0010
1000
0000
0001
0000
1000
0000
0001
0010
0001
0000
0200
0000
0000
0000
,
0310
0000
1000
0000
0100
0000
1000
0001
1000
0001
0010
0000
0100
0000
1100
0000
,
0000
0000
0011
0000
0001
0000
1000
0000
0010
0100
0010
1000
0001
0010
0100
0000
,
0000
0000
0100
0000
1000
0000
0001
0000
0100
0010
0100
0001
1000
0100
0010
0000
,
0000
0000
1001
0000
0000
0000
0101
0000
0001
0100
0010
0000
1000
0100
0010
0000
,
0002
0203
2300
3200
0302
0023
0230
2300
,
3000
0000
1100
0000
1000
0000
0001
0000
0100
0010
0100
0000
0010
1000
0001
0000
,
0000
0000
1000
0000
0100
0010
0100
0000
0010
0001
1000
0000
0010
0000
0200
0000
,
2300
3200
0302
2003
3200
0310
0011
0000
,
1100
0000
0101
0110
0000
0000
0000
0002
,
0103
0020
0130
2000
3100
0002
0013
0200
,
1300
0002
1003
0020
1030
0200
0310
0002
,
0013
0200
0310
2000
3010
0002
1003
0010
,
0100
0001
0100
0000
0010
0100
0010
0000
1000
0001
1000
0000
0001
0010
0100
0000
,
0010
0000
0001
0100
0000
0010
0100
0000
0001
0000
0010
0100
0000
1000
0001
0000
,
0100
0000
0010
1000
0000
0001
0010
0000
0100
0000
1000
0010
0000
0100
0001
0010
,
0100
0000
0010
0001
1000
0000
0001
0100
1000
0000
0100
0010
1000
0000
0001
0000
,
0010
0100
0010
0001
1000
0000
0000
0000
0000
0000
0000
0000
0000
0000
0000
0000
;

//--------------- dance-single - ----------------
#NOTES:
     dance-single:
     :
     Challenge:
     17:
     1.054197,1.121471,0.477163,0.599228,1.032003,665,622,43,54,0,0,1.054197,1.121471,0.477163,0.599228,1.032003,665,622,43,54,0,0:
0000
0000
0000
0000
,
0000
0000
0000
0000
,
0101
0000
0000
0000
0000
0000
0000
0000
0000
0000
0000
0000
0001
0000
0100
0000
0001
0000
0100
0000
0001
0000
0100
0000
0001
0000
0000
0000
0000
0000
1000
0000
0000
0000
0000
0000
0010
0000
0000
0000
0000
0000
0100
0000
0000
0001
0000
0000
,
1000
0100
1100
1000
0001
0101
0100
0010
,
1001
0000
0000
0000
0000
0000
0000
0000
0000
0000
0000
0000
1000
0000
0100
0000
1000
0000
0100
0000
1000
0000
0100
0000
1000
0000
0000
0000
0000
0000
0001
0000
0000
0000
0000
0000
0100
0000
0000
0000
0000
0000
0010
0000
0000
1000
0000
0000
,
0001
0000
0000
0010
0100
0010
0100
0000
0000
1000
0000
0000
0010
0000
0000
1010
0000
0000
0100
0000
0000
0001
0000
0000
,
0101
0000
0000
0000
0000
0000
0100
0000
0000
0000
0000
0000
0001
0000
1000
0000
0001
0000
1000
0000
0001
0000
1000
0000
0001
0000
0000
0000
0000
0000
0010
0000
0000
0000
0000
0000
0100
0000
0000
0000
0000
0000
1000
0000
0000
0001
0000
0000
,
0100
0000
0010
0000
1001
0000
0100
0000
0110
0000
1000
0100
0010
0000
0100
0000
,
1100
0000
0000
1000
0000
0000
0001
0100
0001
0100
0001
0100
0001
0000
0000
0010
0000
0000
0100
0000
0000
1000
0000
0000
,
0001
0000
0000
0000
0000
0000
0100
0000
0010
0000
0100
0000
0010
0000
0000
0000
0000
0000
1000
0000
0000
0000
0000
0000
0001
0000
0000
0000
0000
0000
0011
0000
0000
0000
0000
0000
1000
0000
0000
0000
0000
0000
0001
0000
0000
0100
0000
0000
,
0010
0000
0000
0000
0000
0000
1001
0000
0000
0000
0000
0000
1000
0000
0000
0001
0010
0100
1000
0001
0010
0100
0000
0000
,
0000
1100
0000
0101
1100
0000
1001
0000
,
0002
0000
0000
0100
0000
0000
0023
0000
0000
0000
0130
0000
1000
0000
0001
0000
,
0200
0000
0000
0010
0000
0000
0302
0000
0000
0000
1003
0000
0200
0000
0000
0000
,
0310
0000
0001
0000
1000
0001
1000
0001
0200
0000
1300
0000
0200
0000
0301
0010
,
0100
0000
1000
0000
0001
1000
0001
1000
0200
0000
0301
0000
0200
0000
1300
0001
,
0010
0000
0100
1000
0001
0010
0100
0010
0001
0010
0100
1000
0010
0000
0100
0000
,
0001
0000
0100
0010
1000
0100
0010
0001
1000
0000
0010
0000
0100
0000
0010
1000
,
0001
0000
0010
0100
0010
0100
1000
0010
0001
0000
0010
0000
1000
0000
0100
0000
,
0001
0000
0100
0010
0100
0010
0001
0100
1000
0000
0100
0000
0001
0000
0010
0000
,
0100
0000
1000
0001
1000
0001
0010
0100
1000
0000
0010
0100
0010
0000
1000
0000
,
0001
1000
0010
0100
1000
0001
0010
0100
0002
0000
0023
0000
0230
0000
1300
0000
,
1100
0000
0100
1000
0000
1000
0010
0000
0100
0000
0001
1000
0001
0010
0100
1000
,
0010
0000
0100
0001
0000
0001
0010
0000
0100
0000
1000
0001
1000
0010
0100
0001
,
0010
0000
0100
0000
1100
0000
0000
0100
1000
0000
0001
0000
0101
0000
0000
0000
,
1100
0000
0001
0000
0101
0000
1000
0000
1001
0000
0001
0100
0001
0100
0001
0100
,
1000
0000
0100
0010
0000
0100
0001
0000
1000
0000
0001
0010
0001
0010
0001
0010
,
1000
0000
0010
0100
0000
0010
0001
0000
1000
0000
0001
0100
0010
0000
0100
0001
,
1000
0000
0100
0000
1100
0000
0000
1000
0001
0000
0100
0000
0101
0000
2000
0000
,
0000
0000
0000
3001
0000
0000
1000
0000
0000
0001
0100
0001
0100
0000
0000
0001
0000
0000
0010
0000
0000
0100
1000
0100
,
2000
3000
0000
0000
0000
0000
0000
0000
0000
0000
0000
0000
0000
0000
0000
0000
0000
0000
0000
0000
0000
0000
0000
0000
0010
0000
0000
0000
0000
0000
0000
0000
0000
0000
0000
0000
0100
0000
0000
0000
0000
0000
0000
0000
0000
0000
0000
0000
0001
0000
0000
0000
0000
0000
0000
0000
0000
0000
0000
0000
0000
0000
0000
0000
0000
0000
0000
0000
0000
0000
0000
0000
1001
0000
0000
0000
0000
0000
0000
0000
0000
0000
0000
0000
0100
0000
0000
0000
0000
0000
0000
0000
0000
0000
0000
0000
0000
0000
0000
0000
0000
0000
0000
0000
0000
0000
0000
0000
0010
0000
0000
0000
0000
0000
0000
0000
0000
0000
0000
0000
0100
0000
0000
0000
0000
0000
0000
0000
0000
0000
0000
0000
0010
0000
0000
0000
0000
0000
0000
0000
0000
0000
0000
0000
0100
0000
0000
0000
0000
0000
0000
0000
0000
0000
0000
0000
0000
0000
0000
0000
0000
0000
0000
0000
0000
0000
0000
0000
0110
0000
0000
0000
0000
0000
0000
0000
0000
0000
0000
0000
1000
0000
0000
0000
0000
0000
0000
0000
0000
0000
0000
0000
,
0001
0000
0000
0000
0001
0000
1000
0000
0100
0000
0000
0000
1001
0000
1000
0000
0001
0000
0010
0000
0100
0000
1000
0000
0001
0100
0001
0100
0010
0000
1000
0000
,
0001
0100
1001
0010
0100
0010
1001
0100
,
0001
1000
0110
0001
1000
0001
0110
1000
,
0001
0000
0000
0000
0101
0000
0000
0000
1100
0000
0000
0101
0000
0000
1100
0000
,
0000
1000
0010
0100
0001
1000
0100
0010
,
2001
0000
0010
0000
3010
0000
0100
0000
0101
0000
0001
0010
0100
1000
0001
0000
,
0000
0000
0000
0000
0000
0000
0000
0000
0000
0000
0000
0000
0000
0000
0000
0000
0000
0000
0000
0000
0000
0000
0000
0000
0001
0000
0000
0000
0000
0000
0000
0000
0000
0000
0000
0000
0000
0000
0000
0000
0000
0000
0000
0000
0000
0000
0000
0000
0010
0000
0000
0000
0000
0000
0000
0000
0000
0000
0000
0000
0000
0000
0000
0000
0000
0000
0000
0000
0000
0000
0000
0000
0100
0000
0000
0000
0000
0000
0000
0000
0000
0000
0000
0000
0000
0000
0000
0000
0000
0000
0000
0000
0000
0000
0000
0000
1100
0000
0000
0000
0000
0000
0000
0000
0000
0000
0000
0000
0000
0000
0000
0000
0000
0000
0000
0000
0000
0000
0000
0000
0000
0000
0000
0000
0000
0000
0000
0000
0000
0000
0000
0000
0000
0000
0000
0000
0000
0000
0000
0000
0000
0000
0000
0000
2000
3000
0000
0000
0000
0000
0000
0000
0000
0000
0000
0000
0002
0003
0000
0000
0000
0000
0000
0000
0000
0000
0000
0000
0200
0300
0000
0000
0000
0000
0000
0000
0000
0000
0000
0000
0000
0000
0000
0000
0000
0000
0000
0000
0000
0000
0000
0000
,
0000
0000
0010
0000
0100
0001
1000
0001
0100
0001
0010
0100
1000
0000
0010
0000
,
0100
0001
0100
0010
0100
0001
2000
0000
3200
0000
0302
0000
0203
0000
1300
0000
,
0010
0100
0010
0000
0100
0001
0010
0000
0100
0010
0100
1000
0001
0000
0100
0000
,
0010
0000
0100
0000
0001
0100
1000
0100
0001
0010
1000
0010
0001
0100
0010
0000
,
1000
0001
0010
0000
0100
0010
0001
0010
0100
1000
0001
0000
0100
0000
0010
0100
,
0001
0010
0100
1000
0001
0100
2000
0000
3200
0000
0302
0000
2003
0000
3100
0000
,
0010
0001
0010
0001
1000
0000
0010
0000
0100
0001
0100
0001
0010
0000
0100
0000
,
1000
0000
0000
0100
0000
0000
1000
0000
0000
0001
0000
0000
0100
0000
0000
0001
0000
0000
1000
0000
0000
0010
0000
0000
0100
0000
0001
0000
0100
0000
0001
0000
0000
0000
0000
0000
1000
0000
0001
0000
1000
0000
0001
0000
0000
0000
0000
0000
,
0010
0000
1100
0000
0001
0000
1000
0000
0010
0100
0000
0001
0010
0000
0100
0000
,
1000
0010
0100
0000
0001
0000
1000
0000
0100
0010
0000
0001
0100
0000
0101
0000
,
0000
0000
1010
0000
1000
0010
0100
0000
0010
1000
0001
0000
0010
0100
1000
0000
,
0002
0100
0023
0000
0230
0001
2300
0000
3002
0010
0203
0000
0320
0001
2030
0000
,
3001
0010
0100
0000
1000
0000
0001
0000
1000
0100
0000
1000
0010
0000
0100
0001
,
0010
0100
1000
0000
0001
0100
0010
0000
0100
0000
0010
0000
1000
0000
0002
0000
,
0023
0100
2030
0000
3020
1000
0032
0000
0023
0100
2030
0000
3020
0000
0000
0000
,
0130
0001
1000
1100
0000
1001
0000
0002
,
1003
0100
0020
0000
0130
0000
2000
0000
3001
0100
0020
0000
0130
0000
0002
0000
,
0013
0100
2000
0000
3001
0000
2000
0000
3010
0100
0002
0000
0013
0000
0200
0000
,
1300
0010
0002
0000
0013
0000
0200
0000
0301
0010
2000
0000
3010
0000
0100
1000
,
0010
0100
0010
1000
0100
0001
0100
1000
0001
0100
0010
0100
0001
0010
1000
0000
,
0010
0000
0100
1000
0010
0100
0010
1000
0001
0000
0010
0000
0100
0000
1000
0000
,
0001
0100
0001
0010
0100
0000
1000
0000
0001
0100
0010
0000
1000
0000
0010
0000
,
0100
0001
0010
0100
1000
0001
1000
0010
0100
0000
0001
0000
1000
0000
0100
0010
,
0100
1000
0001
0010
0100
0000
0000
0000
0000
0000
0000
0000
0000
0000
0000
0000
;
