#TITLE:いつかオトナになれるといいね。;
#SUBTITLE:;
#ARTIST:ツユ;
#TITLETRANSLIT:ITSUKA OTONA NI NARERU TO IINE;
#SUBTITLETRANSLIT:;
#ARTISTTRANSLIT:TUYU;
#GENRE:POP;
#CREDIT:;
#MUSIC:ITSUKA OTONA NI NARERU TO IINE.ogg;
#BANNER:ITSUKA OTONA NI NARERU TO IINE.png;
#BACKGROUND:ITSUKA OTONA NI NARERU TO IINE-bg.png;
#CDTITLE:;
#SAMPLESTART:6.333;
#SAMPLELENGTH:11.420;
#SELECTABLE:YES;
#OFFSET:1.337;
#BPMS:0.000=176.000
,166.000=88.000
,168.500=176.000
;
#STOPS:100.000=0.170
,100.500=0.170
,324.500=0.170
,325.000=0.170
;
#LASTBEATHINT:0.988533;
#BGCHANGES:6.500=ITSUKA OTONA NI NARERU TO IINE.avi=1.000=0=0=0=StretchNoLoop====,
99999.000=-nosongbg-=1.000=0=0=0=StretchNoLoop====
;
#FGCHANGES:;

//--------------- dance-single - ----------------
#NOTES:
     dance-single:
     :
     Medium:
     12:
     0,0,0,0,0:
0000
0000
0000
0000
,
0000
0000
0000
0000
,
0101
0000
1010
0000
0010
1000
0100
0000
,
1100
0000
0011
0000
0010
0001
0100
0000
,
1001
0000
0110
0000
0010
1000
0100
0000
,
1001
0000
0001
1000
0001
0100
0010
0100
,
0020
0000
0130
0000
0100
0001
1000
0200
,
0010
0000
0001
0000
2300
0000
3001
0100
,
0020
0000
1030
0001
1000
0000
1100
0000
,
0021
0100
0031
1002
,
0200
0000
0303
0000
0010
1000
0100
0000
,
0100
0001
0100
1000
0010
0000
0200
0000
,
0001
0000
0310
1000
0002
0000
1003
0200
,
0000
0310
0001
1000
0100
0010
0100
1000
,
0001
0000
0101
0000
0010
1000
1100
0000
,
1000
0000
0011
0000
1000
0001
0101
0000
,
1010
0000
1100
0000
0101
0000
0001
0010
,
0000
0010
0100
1000
0002
0000
0103
0000
,
1010
0000
1100
0000
1000
0010
0110
0000
,
0101
0000
0011
0000
0001
0010
0120
0000
,
1000
0032
0023
0230
,
1300
0001
1000
0001
0100
0010
0100
0010
,
1000
0000
0000
0000
1000
0000
0001
0000
0100
0000
0000
0100
0000
0000
0010
0000
,
1000
0000
0000
1000
0000
0000
0001
0000
0010
0000
0000
0010
0000
0000
0100
0000
,
2000
0001
3002
0103
,
2002
3003
0000
0000
0000
0000
0000
0000
0000
0000
0000
0000
0000
0000
0000
0000
0000
0000
0000
0000
0000
0000
0000
0000
2002
3003
0000
0000
0000
0000
0000
0000
0000
0000
0000
0000
0000
0000
0000
0000
0000
0000
0000
0000
0000
0000
0000
0000
1001
0000
0000
0000
0000
0000
0000
0000
0000
0000
0000
0000
0000
0000
0000
0000
0000
0000
0000
0000
0000
0000
0000
0000
0000
0000
0000
0000
0000
0000
0000
0000
0000
0000
0000
0000
0000
0000
0000
0000
0000
0000
0000
0000
0000
0000
0000
0000
0110
0000
0000
0000
0000
0000
0000
0000
0000
0000
0000
0000
0000
0000
0000
0000
0000
0000
0000
0000
0000
0000
0000
0000
0000
0000
0000
0000
0000
0000
0000
0000
0000
0000
0000
0000
0000
0000
0000
0000
0000
0000
0000
0000
0000
0000
0000
0000
1000
0000
0000
0000
0000
0000
0000
0000
0000
0000
0000
0000
0000
0000
0000
0000
0000
0000
0000
0000
0000
0000
0000
0000
0000
0000
0000
0000
0000
0000
0000
0000
0000
0000
0000
0000
0000
0000
0000
0000
0000
0000
0000
0000
0000
0000
0000
0000
,
0001
0100
0001
0000
1000
0100
0000
0001
,
0100
0000
1000
0001
1000
0000
0010
0100
,
0010
1000
0001
0100
0000
2010
0000
3001
,
0010
0100
1000
0001
0100
0010
1000
0000
,
1001
0000
0001
0020
0000
0130
0000
0100
,
1000
0000
0001
0100
1000
0000
0100
0000
,
0001
0000
0001
1000
0000
0200
0000
1300
,
0001
0000
0000
1000
0000
0000
0001
0000
0000
0000
0000
0000
1001
0000
0000
0000
0000
0000
1000
0000
0000
0000
0001
0000
,
0100
0000
0000
0001
0000
1000
0100
0000
0000
0010
0000
0001
,
0100
0000
0010
0100
0000
0001
1000
0000
0001
0010
0000
0010
,
0100
0000
0000
1000
0000
0010
0100
0000
0000
0002
0000
0000
,
0023
0000
0000
0230
0000
0000
2300
0000
0000
3001
0000
0100
,
0010
0000
0000
1000
0000
0100
0010
0000
0000
0001
0000
1000
,
0100
0000
1000
0010
0000
1000
0100
0000
0000
0010
0000
0001
,
1000
0000
0000
0010
0000
1000
0001
0000
0000
0011
0000
0000
,
1100
0000
0001
1000
0020
0000
0000
0000
,
0030
1010
0000
1100
0000
0100
1000
0010
,
0000
0011
0000
1010
0000
1000
0010
0001
,
0000
0101
0000
0011
0000
0010
0001
0100
,
0000
1100
0000
0101
0000
0001
0100
1000
,
0000
1010
0000
1100
0000
0100
1000
0010
,
0000
0011
0000
1010
0000
1000
0010
0001
,
0000
0101
0000
0011
0000
0010
0001
0100
,
0000
0110
0000
1001
0000
0100
0020
0000
,
0000
1030
0000
0100
0002
0000
0103
1000
,
0002
0000
0103
0020
0000
0130
0001
1000
,
0200
0000
0310
0001
0200
0000
0310
1000
,
0200
0000
0310
0002
0000
0203
0000
1300
,
0100
0002
0000
0023
0000
0130
1000
0200
,
0000
0320
0000
0230
0000
2300
0000
3002
,
0000
0103
1000
0100
0001
0100
1000
0100
,
0001
2000
0000
0000
0000
0000
3010
0100
,
0010
0200
0000
0310
0000
0010
1000
0001
,
0020
0100
0000
1000
0000
0032
0000
1003
,
0010
0200
0000
0301
1000
0001
0000
0011
,
0000
1200
0000
0010
0000
1300
0000
2001
,
0000
0020
0000
3030
0010
0100
0001
0010
,
1000
0001
0100
1000
0010
0100
0000
0020
,
0000
1000
0000
0130
0001
2000
0000
3001
,
0020
0000
0130
1000
0001
0010
0100
0010
,
0001
1000
0000
1010
0000
0100
0001
0011
,
0000
0001
0000
1100
0000
0001
1000
1010
,
0000
0101
0000
0011
0000
1010
0000
1000
,
0100
0000
0100
0010
0001
2000
0000
3010
,
0000
0101
0000
0011
0000
0001
0100
0110
,
0000
1010
0000
1100
0000
1000
0100
0210
,
0000
0001
0000
2300
0000
3200
0000
0320
,
0000
0031
1000
0001
1000
0010
0100
0010
,
0100
0000
0001
0000
0000
0000
0001
0000
1000
0000
0010
0000
0000
0010
0000
0000
,
0100
0000
0001
0000
0000
0001
0000
0000
1000
0000
0100
0000
0000
0100
0000
0000
,
0010
0000
0001
0000
0000
0000
1000
0000
0010
0000
0100
0000
0000
0100
0000
0000
,
0001
0000
1000
0000
0000
1000
0000
0000
0100
0000
0010
0000
0000
0010
0000
0000
,
0100
0000
1000
0000
0001
0000
0100
0000
0010
0000
0100
0000
0000
0101
0000
0000
,
0001
0000
0010
0000
0000
0110
0000
0000
0100
0000
1000
0000
0000
1001
0000
0000
,
0001
1000
0000
1000
0000
0001
0000
0001
,
0000
0000
0000
0000
0000
0000
0000
0000
0000
0000
0000
0000
0000
0000
0000
0000
0000
0000
0000
0000
0000
0000
0000
0000
0220
0330
0000
0000
0000
0000
0000
0000
0000
0000
0000
0000
0000
0000
0000
0000
0000
0000
0000
0000
0000
0000
0000
0000
0220
0330
0000
0000
0000
0000
0000
0000
0000
0000
0000
0000
0000
0000
0000
0000
0000
0000
0000
0000
0000
0000
0000
0000
0110
0000
0000
0000
0000
0000
0000
0000
0000
0000
0000
0000
0000
0000
0000
0000
0000
0000
0000
0000
0000
0000
0000
0000
0000
0000
0000
0000
0000
0000
0000
0000
0000
0000
0000
0000
0000
0000
0000
0000
0000
0000
0000
0000
0000
0000
0000
0000
0000
0000
0000
0000
0000
0000
0000
0000
0000
0000
0000
0000
0000
0000
0000
0000
0000
0000
0000
0000
0000
0000
0000
0000
0010
0000
0000
0000
0000
0000
0000
0000
0000
0000
0000
0000
0000
0000
0000
0000
0000
0000
0000
0000
0000
0000
0000
0000
2000
0000
0000
0000
0000
0000
0000
0000
0000
0000
0000
0000
0000
0000
0000
0000
0000
0000
0000
0000
0000
0000
0000
0000
,
0000
0001
0000
3001
0020
0000
0230
0000
,
1300
0001
0000
0001
0200
1000
0000
0310
,
0000
1001
0000
1000
0002
0000
0023
0000
,
1000
0000
0001
0000
1030
0010
0001
1000
,
0000
1100
0000
0010
0002
0000
2003
0000
,
0010
3010
0000
0110
0000
1001
0000
0001
,
0010
0100
0000
1000
0001
0000
0101
0000
,
0001
0100
0010
2000
0000
0001
3001
0000
;

//--------------- dance-single - ----------------
#NOTES:
     dance-single:
     :
     Hard:
     15:
     0,0,0,0,0:
0000
0000
0000
0000
,
0000
0000
0000
0000
,
0101
0000
0001
1000
0100
0000
0020
0000
0001
0000
0130
0000
1100
0000
0000
0000
,
1100
0000
1000
0001
0100
0000
0020
0000
1000
0000
0130
0000
0101
0000
0000
0000
,
0011
0000
0001
1000
0010
0000
0200
0000
0001
0000
0310
0000
1010
0000
0000
0000
,
1001
0000
0100
0010
0120
0130
0010
0100
,
0120
0000
1030
0000
1000
0100
0001
0100
,
1000
0000
0010
0100
0010
0000
1000
0000
0002
0000
0000
0000
0013
0000
0100
0000
,
2000
0000
0000
0000
3001
0000
0100
0000
0010
0000
1000
0100
1000
0000
0001
0100
,
0001
0000
0100
0010
1000
0000
0100
0000
0010
0000
0001
0000
2000
0000
0000
0000
,
3010
0000
0110
0000
0100
0001
0010
1000
,
0010
0001
0100
0010
1000
0000
2001
0000
,
3100
0010
0100
1000
0002
0000
0103
2000
,
0000
0000
3100
0001
0010
0000
0100
0000
1000
0000
0001
1000
0010
0000
0100
0001
,
2000
0000
0000
0000
3001
0010
0001
0010
0100
0000
1000
0000
1100
0000
0000
0000
,
1000
0000
0001
0100
0001
0000
0010
0001
0010
0000
0100
0000
0110
0000
0000
0000
,
1001
0000
1000
0001
0100
0010
0100
0010
,
0000
1000
0100
0010
0002
0000
1003
0000
,
0010
0000
1000
0010
1000
0000
0001
0100
0001
0000
1000
0000
1100
0000
0000
0000
,
1000
0000
0001
0010
0001
0000
1000
0100
1000
0100
0010
0000
0120
0000
0000
0000
,
0031
2000
3020
0230
,
0301
0000
1000
0000
0001
0000
1000
0000
0010
0100
0010
0100
0010
0100
0010
0100
,
0001
0000
0000
0000
1000
0000
0100
0000
0010
0000
0000
0010
0000
0000
0001
0000
,
1000
0000
0000
1000
0000
0000
0010
0000
0100
0000
0000
0100
0000
0000
0001
0000
,
2000
0000
0100
0000
3010
0010
0100
0100
,
0202
0303
0000
0000
0000
0000
0000
0000
0000
0000
0000
0000
0000
0000
0000
0000
0000
0000
0000
0000
0000
0000
0000
0000
2200
3300
0000
0000
0000
0000
0000
0000
0000
0000
0000
0000
0000
0000
0000
0000
0000
0000
0000
0000
0000
0000
0000
0000
1002
0000
0000
0000
0000
0000
0000
0000
0000
0000
0000
0000
0000
0000
0000
0000
0000
0000
0000
0000
0000
0000
0000
0000
0100
0000
0000
0000
0000
0000
0000
0000
0000
0000
0000
0000
0000
0000
0000
0000
0000
0000
0000
0000
0000
0000
0000
0000
0103
0000
0000
0000
0000
0000
0000
0000
0000
0000
0000
0000
0000
0000
0000
0000
0000
0000
0000
0000
0000
0000
0000
0000
0010
0000
0000
0000
0000
0000
0000
0000
0000
0000
0000
0000
0000
0000
0000
0000
0000
0000
0000
0000
0000
0000
0000
0000
1000
0000
0000
0000
0000
0000
0000
0000
0000
0000
0000
0000
0000
0000
0000
0000
0000
0000
0000
0000
0000
0000
0000
0000
0001
0000
0000
0000
0000
0000
0000
0000
0000
0000
0000
0000
0000
0000
0000
0000
0000
0000
0000
0000
0000
0000
0000
0000
,
0010
0100
1000
0001
0000
0101
0000
0001
,
0100
0000
1000
0000
0100
0000
0001
0000
1000
0100
1000
0100
0010
0000
0001
0000
,
1000
0010
1000
0010
0100
0000
0001
0000
0000
0000
2001
0000
0000
0000
3001
0000
,
0010
0000
1000
0000
0001
0000
0100
0000
1000
0000
0001
0000
0100
0000
0010
1000
,
0010
0100
0001
2000
0000
3100
0000
0010
,
0100
0000
0010
0000
0001
0000
0100
0000
1000
0000
0001
0000
0010
0000
1000
0001
,
1000
0000
0001
1000
0001
0000
0010
0000
0000
0000
0200
0000
0000
0000
0310
0000
,
0001
0000
0000
1000
0000
0000
0010
0000
0000
0000
0000
0000
0110
0000
0000
0000
0000
0000
0001
0000
0010
0000
0100
0000
,
1000
0000
0000
0001
0100
0010
1000
0000
0000
0100
0000
0100
,
1000
0100
0010
0100
1000
0100
0010
0000
0010
0001
1000
0100
,
0010
0000
0000
0000
0000
0000
0001
0000
0100
0000
0010
0000
1000
0000
0000
0000
0000
0000
2000
0000
0000
3002
0000
0000
,
2003
0000
0000
3200
0000
0000
0320
0000
0000
0230
0000
0000
2300
0000
0000
3002
0000
0000
0103
0000
0001
0000
0010
0000
,
1000
0000
0000
0001
0100
1000
0010
0000
0000
0100
0001
0010
,
0100
1000
0010
0100
0001
1000
0001
0000
0000
0001
0010
0100
,
1000
0000
0000
0000
0000
0000
0000
0000
0000
0000
0000
0000
1000
0000
0000
0000
0010
0000
0000
0000
0100
0000
0000
0000
0001
0000
0000
0000
0000
0000
0000
0000
0000
0000
0000
0000
0001
0000
0000
0000
0000
0000
1000
0000
0000
0100
0000
0000
,
1000
0000
0001
0010
0001
0000
1000
0000
0200
0000
0000
0000
0000
0000
0000
0000
,
0300
0000
1001
0000
0001
0100
0010
0000
0100
0001
0010
0000
0100
0010
0001
0000
,
1000
0000
0001
0000
1000
0100
0010
0000
0100
1000
0010
0000
0100
0010
1000
0000
,
0001
0000
1000
0000
0001
0010
0100
0000
0010
0001
0100
0000
0010
0100
0001
0000
,
1000
0000
0001
0000
1000
0010
0100
0000
0010
1000
0100
0000
0010
0100
1000
0000
,
0001
0000
1000
0000
0001
0100
1000
0000
0100
0001
0010
0000
0100
1000
0010
0000
,
1000
0000
0001
0000
1000
0010
0001
0000
0010
1000
0100
0000
0010
0001
0100
0000
,
0001
0000
1000
0000
0001
0100
1000
0000
0100
0001
0010
0000
1000
0010
0001
0000
,
1000
0011
0000
1100
0000
0001
2000
0000
,
0000
3020
0000
0130
0001
1000
0100
0010
,
0002
0000
0000
0000
1003
0100
1000
0000
0010
0100
0010
0000
1000
0000
0001
0000
,
0020
0000
0130
1000
0200
0000
1300
0001
,
2000
0000
0000
0000
3001
0100
0002
0000
0000
0000
1003
0000
0010
0100
0010
0000
,
1000
0000
0002
0000
0000
0000
1003
0000
0001
0100
0001
0000
1000
0001
1000
0000
,
0001
0010
0001
0000
1000
0100
1000
0000
0010
0100
0010
0000
0100
0001
0100
0000
,
0001
1000
0001
0000
1000
0100
1000
0000
0001
0010
0001
0000
1000
0100
1000
0001
,
0100
0001
2000
0000
0000
0000
0000
0000
0000
0000
0000
0000
3001
0000
0100
0000
,
0001
0010
0000
0110
0000
0100
1000
0001
,
0100
0010
0100
1000
0100
0002
0000
1003
,
0100
0000
0110
0000
0000
0000
0010
0000
0001
0000
1000
0000
0010
0100
0010
0000
,
0100
0001
0100
0000
0001
1000
0100
0000
0010
0000
0001
0000
1000
0000
2100
0000
,
0000
3020
0000
0000
1030
0100
0010
0001
,
1000
0010
0100
0001
1000
1001
0000
0002
,
0000
0013
0100
0010
0100
1100
0000
0001
,
0200
0000
0000
0000
1300
0000
0100
0000
0001
0000
1000
0000
0001
0010
0100
0000
,
1000
0000
1100
0000
0000
0000
1000
0100
1000
0100
0010
0000
0001
0000
1001
0000
,
0000
0000
0001
0100
0010
0000
0100
0000
0001
0000
0100
0000
0010
0000
1010
0000
,
0000
1000
0010
0001
1000
0200
0000
0301
,
1000
0000
1000
0100
0010
0002
0000
0103
,
0000
0000
0010
0100
0010
0100
0001
0010
0100
1000
0001
0100
0010
0000
0200
0000
,
0000
0000
0310
1000
0001
1000
0001
0000
0010
0000
0100
0000
0010
0000
1001
0000
,
0000
1001
0000
0002
0000
0023
0000
0230
,
0000
0000
1300
0000
0100
0000
0010
0000
0001
0000
1000
0100
1000
0100
1000
0100
,
1000
0100
0010
0000
0000
0000
0001
0000
1000
0000
0010
0000
0000
0010
0000
0000
,
0100
0000
0001
0000
0000
0001
0000
0000
0010
0000
0100
0000
0000
0100
0000
0000
,
1000
0000
0001
0000
0000
0000
1000
0000
0010
0000
0100
0000
0000
0100
0000
0000
,
0001
0000
1000
0000
0000
1000
0000
0000
0001
0000
0010
0000
0000
0010
0000
0000
,
0100
1000
0001
1000
0010
0100
0001
0100
,
1000
0001
0010
1000
0100
0010
1000
0010
,
0001
0100
0010
0100
0010
1000
1000
0001
,
0001
0000
0000
0000
0000
0000
0000
0000
0000
0000
0000
0000
0000
0000
0000
0000
0000
0000
0000
0000
0000
0000
0000
0000
0202
0303
0000
0000
0000
0000
0000
0000
0000
0000
0000
0000
0000
0000
0000
0000
0000
0000
0000
0000
0000
0000
0000
0000
2200
3300
0000
0000
0000
0000
0000
0000
0000
0000
0000
0000
0000
0000
0000
0000
0000
0000
0000
0000
0000
0000
0000
0000
2001
0000
0000
0000
0000
0000
0000
0000
0000
0000
0000
0000
0000
0000
0000
0000
0000
0000
0000
0000
0000
0000
0000
0000
0010
0000
0000
0000
0000
0000
0000
0000
0000
0000
0000
0000
0000
0000
0000
0000
0000
0000
0000
0000
0000
0000
0000
0000
3010
0000
0000
0000
0000
0000
0000
0000
0000
0000
0000
0000
0000
0000
0000
0000
0000
0000
0000
0000
0000
0000
0000
0000
0100
0000
0000
0000
0000
0000
0000
0000
0000
0000
0000
0000
0000
0000
0000
0000
0000
0000
0000
0000
0000
0000
0000
0000
0010
0000
0000
0000
0000
0000
0000
0000
0000
0000
0000
0000
0000
0000
0000
0000
0000
0000
0000
0000
0000
0000
0000
0000
,
1000
0000
0001
0000
0010
0100
0010
0000
0002
0000
0000
0000
2003
0000
0000
0000
,
3010
0000
0100
0000
0010
0000
1000
0000
0001
0010
0100
0000
1000
0000
0001
0000
,
0100
0010
0100
0000
0001
0000
1000
0000
0200
0000
0000
0000
0320
0000
0000
0000
,
0130
0000
1000
0000
0001
0000
0100
0000
1000
0000
0001
0010
0100
0000
0001
0000
,
0010
0100
0010
0000
0001
0000
1000
0000
0020
0000
0000
0000
0230
0000
0000
0000
,
0301
1000
0100
1000
0001
0100
1000
0001
,
0010
0100
0001
0010
0100
0000
1100
0000
,
1000
0000
0001
0000
0100
0000
0010
0000
1000
0001
1000
0000
1001
0000
0000
0000
;

//--------------- dance-single - ----------------
#NOTES:
     dance-single:
     :
     Challenge:
     17:
     0.965189,1.340796,0.040264,0,0.539539,839,834,5,0,0,0,0.965189,1.340796,0.040264,0,0.539539,839,834,5,0,0,0:
0000
0000
0000
0000
,
0000
0000
0000
0000
,
0001
0010
0100
1000
0010
0100
0001
1000
0001
0100
0010
1000
0100
0010
0001
1000
,
0001
0010
0100
1000
0010
0100
0001
1000
0001
0100
0010
1000
0100
0010
0001
1000
,
0001
0010
0100
1000
0010
0100
0001
1000
0001
0100
0010
1000
0100
0010
0001
1000
,
0010
0000
0010
0000
0010
0000
0100
0000
1001
0000
0001
0100
0010
0000
1000
0001
,
0010
0000
0110
0000
0100
0010
1001
0100
,
0010
0100
1001
0001
1000
0000
1001
1000
,
0020
0000
0000
0000
0130
0000
0001
0000
1000
0000
0001
0100
0010
0000
0100
0001
,
1000
0000
0100
0010
0100
0000
0010
0000
0001
0010
0100
1000
0020
0000
0000
0000
,
0130
0000
0101
1000
0010
1000
0101
0010
,
0100
0010
1100
0001
0010
0001
2100
0000
,
3001
0100
0110
1000
0002
0000
0013
0200
,
0000
0000
1300
0010
0001
0000
0010
0000
1000
0000
0100
0010
0100
0010
0100
1000
,
0002
0000
0000
0000
0103
0010
1000
0100
0010
0000
0100
0000
0110
0000
0000
0000
,
0010
0001
0100
0001
0010
0001
0100
0010
0001
0000
0010
0000
0110
0000
0000
0000
,
1001
0000
0011
0001
0100
0010
1100
0001
,
0000
1000
0110
0001
2000
0000
3100
0000
,
0010
0000
0100
1000
0010
0000
0010
1000
0100
0010
0100
1000
0010
0000
0000
0000
,
0100
0001
0010
0100
0010
0001
1000
0100
0010
0100
1000
0000
0101
0000
0000
0000
,
0001
1000
0200
0000
0320
0000
0230
0000
,
1300
0000
0010
0000
1000
0000
0010
0000
0100
0001
0100
0001
0100
0001
0100
0001
,
1000
0000
0000
0000
1000
0000
0100
0000
0010
0000
0000
0010
0001
0000
0100
0000
,
0010
0000
0000
0100
0001
0000
1000
0000
0100
0000
0000
0010
0001
0000
1000
0000
,
0020
0000
0000
0000
1000
0000
1030
0000
0010
0100
0010
0100
0001
0010
0001
0010
,
0200
0300
0000
0000
0000
0000
0000
0000
0000
0000
0000
0000
0000
0000
0000
0000
0000
0000
0000
0000
0000
0000
0000
0000
2200
3300
0000
0000
0000
0000
0000
0000
0000
0000
0000
0000
0000
0000
0000
0000
0000
0000
0000
0000
0000
0000
0000
0000
0012
0000
0000
0000
0000
0000
0000
0000
0000
0000
0000
0000
0000
0000
0000
0000
0000
0000
0000
0000
0000
0000
0000
0000
0100
0000
0000
0000
0000
0000
0000
0000
0000
0000
0000
0000
0000
0000
0000
0000
0000
0000
0000
0000
0000
0000
0000
0000
0103
0000
0000
0000
0000
0000
0000
0000
0000
0000
0000
0000
0000
0000
0000
0000
0000
0000
0000
0000
0000
0000
0000
0000
0010
0000
0000
0000
0000
0000
0000
0000
0000
0000
0000
0000
0000
0000
0000
0000
0000
0000
0000
0000
0000
0000
0000
0000
1000
0000
0000
0000
0000
0000
0000
0000
0000
0000
0000
0000
0000
0000
0000
0000
0000
0000
0000
0000
0000
0000
0000
0000
0001
0000
0000
0000
0000
0000
0000
0000
0000
0000
0000
0000
0100
0000
0000
0000
0000
0000
0000
0000
0000
0000
0000
0000
,
0001
0000
0010
0000
0100
0000
1000
0000
0000
0000
1001
0000
0000
0000
1000
0100
,
1000
0000
0010
0100
0010
0000
1000
0000
0001
0010
0001
0010
0200
0000
0301
0100
,
0010
0001
1000
0001
1000
0000
0110
0000
0001
0000
1000
0000
0000
0000
0101
0000
,
0010
0000
1100
0000
0010
0000
0101
0000
0010
0000
0100
0000
1001
0000
0001
0100
,
0010
0100
0010
0000
1000
0000
0002
0000
0000
0000
0013
0000
0000
0000
0100
0000
,
1000
0000
0100
0000
0010
0000
0100
0000
1000
0000
0001
0000
0100
0000
0010
1000
,
0010
0000
0100
0001
0100
0000
0001
0000
1000
0000
0200
0000
0000
0000
0310
0000
,
0100
0000
0000
0000
0000
0000
1000
0000
0000
0000
0000
0000
0010
0000
0000
0100
0000
0000
0010
0000
0000
1000
0000
0000
0001
0000
0000
0010
0000
0000
0001
0000
0000
0010
0000
0000
0100
0000
0000
0000
1000
0000
0000
0000
0100
0000
0000
0000
,
0010
0000
0000
0100
1000
0010
0100
0000
0000
0100
0010
0100
,
1000
0100
0001
0100
0010
0100
1000
0000
1000
0100
0001
0010
,
0100
0000
0000
0000
0000
0000
0100
0000
1000
0000
0010
0000
0100
0000
0000
0000
0000
0000
0100
0000
0000
0001
0000
0000
,
1000
0000
0000
0000
0000
0000
0001
0000
0000
0000
0000
0000
0010
0000
0000
0100
0000
0000
1000
0000
0000
0100
0000
0000
0010
0000
0000
0001
0000
0000
0010
0000
0000
0100
0000
0000
1000
0000
0000
0000
0100
0000
0000
0000
0100
0000
0000
0000
,
0001
0000
0000
0001
0010
0010
1000
0000
0000
1000
0100
0100
,
0001
0010
0010
1000
0100
0100
0001
0000
0000
0010
0100
0100
,
0010
0000
0000
0000
0000
0000
0000
0000
0000
0000
0000
0000
0010
0000
0000
0000
0100
0000
0000
0000
0100
0000
0000
0000
0010
0000
0000
0000
0000
0000
0000
0000
0000
0000
0000
0000
0100
0000
0000
0000
0000
0000
1000
0000
0000
0001
0000
0000
,
0100
0000
0000
0000
0000
0000
0000
0000
0000
0000
0000
0000
0000
0000
0000
0000
0000
0000
0000
0000
0000
0000
0000
0000
0010
0000
0000
0000
0000
0000
0000
0000
0000
0000
0000
0000
1000
0000
0000
0000
0000
0000
0000
0000
0000
0000
0000
0000
0001
0000
0000
0000
0000
0000
0000
0000
0000
0000
0000
0000
0000
0000
0000
0000
0000
0000
0000
0000
0000
0000
0000
0000
0010
0000
0000
0000
0000
0000
0000
0000
0000
0000
0000
0000
0100
0000
0000
0000
0000
0000
0000
0000
0000
0000
0000
0000
0020
0030
0000
0000
0000
0000
0000
0000
0000
0000
0000
0000
0000
0000
0000
0000
0000
0000
0000
0000
0000
0000
0000
0000
0001
0000
0000
0000
0000
0000
0010
0000
0000
0000
0000
0000
0001
0000
0000
0000
0000
0000
0010
0000
0000
0000
0000
0000
0100
0000
0000
0000
0000
0000
0000
0000
0000
0000
0000
0000
1000
0000
0000
0000
0000
0000
0001
0000
0000
0000
0000
0000
1000
0000
0000
0000
0000
0000
0001
0000
0000
0000
0000
0000
1000
0000
0000
0000
0000
0000
0010
0000
0000
0000
0000
0000
,
0100
0000
0001
0010
0100
1000
0010
0100
0001
1000
0001
0100
0010
1000
0100
0010
,
0001
1000
0001
0010
0100
1000
0010
0100
0001
1000
0001
0100
0010
1000
0100
0010
,
0001
1000
0001
0010
0100
1000
0010
0100
0001
1000
0001
0100
0010
1000
0100
0010
,
0001
1000
0001
0010
0100
1000
0010
0100
0001
1000
0001
0100
0010
1000
0100
0010
,
0001
1000
0001
0010
0100
1000
0010
0100
0001
1000
0001
0100
0010
1000
0100
0010
,
0001
1000
0001
0010
0100
1000
0010
0100
0001
1000
0001
0100
0010
1000
0100
0010
,
0001
1000
0001
0010
0100
1000
0010
0100
0001
1000
0001
0100
0010
1000
0100
0010
,
0001
0100
0020
0000
0100
0000
0230
0000
0010
0000
0310
1000
0001
0010
0100
1000
,
0001
0010
0200
0000
0000
0000
2300
0000
3020
0000
0130
0001
0200
0000
0320
0000
,
0230
0000
0000
0000
0301
0010
0100
1000
0001
0010
0200
0000
1000
0000
2300
0000
,
3002
0000
0203
0320
0230
0000
0302
2003
,
3002
0000
0000
0000
1003
0100
0020
0000
0000
0000
0230
0000
0310
0001
0200
0000
,
0320
0000
0032
0000
0000
0000
0013
1000
0100
0010
0100
1000
0001
0010
0100
0010
,
1000
0001
0100
1000
0010
0100
0001
0010
0100
0010
0001
1000
0100
0010
0100
1000
,
0001
0100
2000
0000
3100
0001
0010
0100
0010
1000
0010
0100
1000
0010
0100
0010
,
0001
0010
0100
0000
0100
0001
0010
0000
0100
0000
1000
0100
1000
0100
0010
0001
,
1000
0100
0010
0000
0100
0000
2001
0000
0000
0000
3001
0000
0010
0000
0110
0000
,
0100
0000
1000
0000
0010
0100
0010
0000
0100
0001
2000
0000
0000
0000
3001
0000
,
0010
0100
1000
0000
0001
0100
0010
0000
0100
0000
0110
0000
0010
1000
0100
0000
,
0100
1000
0010
0000
0100
0001
0010
0000
0110
0000
0100
1000
0001
0010
0200
0000
,
0000
0010
0300
0110
0001
1000
0010
1010
,
0100
0101
0001
0110
1000
1001
0000
0002
,
0000
0000
0013
0000
0100
0000
0010
0000
0100
0000
1000
0000
0001
0100
0010
0000
,
0200
0000
0000
0000
0310
1000
0001
0000
1000
0100
1000
0000
0001
0100
0010
0100
,
0001
0100
0020
0000
0000
0000
1030
0001
0010
0100
1000
0000
1100
0000
1010
0000
,
0000
0000
0010
1000
0100
1000
0010
1000
0100
0000
0010
0000
0011
0000
1001
0000
,
0000
0110
0010
1000
0001
0200
0000
0310
,
1010
0000
1000
0100
0010
0012
0000
1003
,
0000
0000
0001
1000
0100
1000
0010
0100
0001
0010
1000
0010
0100
1000
0020
0000
,
0000
0000
0130
0001
0100
0001
0010
0000
0100
1000
0010
0000
0100
0000
1001
0000
,
0000
1001
0000
0002
0000
0023
0000
0230
,
0000
0000
1300
0000
0100
0000
0010
0000
0001
0000
1000
0010
0100
0010
0100
0010
,
0100
0001
1000
0000
0000
0000
0001
0000
0010
0000
0100
0000
0000
0100
1000
0000
,
0010
0000
0100
0000
0000
0100
0001
0000
1000
0000
0100
0000
0000
0100
0010
0000
,
0001
0000
1001
0000
0000
0000
1000
0000
0010
0000
0100
0000
0000
0100
0001
0000
,
0010
0000
0100
0000
0000
0100
1000
0000
0001
0000
0100
0000
0000
0100
0010
0000
,
1000
0000
1001
0000
0001
0000
1000
0000
0010
0000
0100
0000
0001
0010
0100
0000
,
1000
0000
0001
0000
0100
0010
0001
0000
1000
0000
0100
0000
0001
0010
0100
0000
,
1000
0000
0010
0000
0100
0000
0010
0000
0100
0000
0001
0000
1000
0001
1000
0000
,
0100
0000
0000
0000
0000
0000
0000
0000
0000
0000
0000
0000
0000
0000
0000
0000
0000
0000
0000
0000
0000
0000
0000
0000
2200
3300
0000
0000
0000
0000
0000
0000
0000
0000
0000
0000
0000
0000
0000
0000
0000
0000
0000
0000
0000
0000
0000
0000
0202
0303
0000
0000
0000
0000
0000
0000
0000
0000
0000
0000
0000
0000
0000
0000
0000
0000
0000
0000
0000
0000
0000
0000
2001
0000
0000
0000
0000
0000
0000
0000
0000
0000
0000
0000
0000
0000
0000
0000
0000
0000
0000
0000
0000
0000
0000
0000
0010
0000
0000
0000
0000
0000
0000
0000
0000
0000
0000
0000
0000
0000
0000
0000
0000
0000
0000
0000
0000
0000
0000
0000
3010
0000
0000
0000
0000
0000
0000
0000
0000
0000
0000
0000
0000
0000
0000
0000
0000
0000
0000
0000
0000
0000
0000
0000
0100
0000
0000
0000
0000
0000
0000
0000
0000
0000
0000
0000
0000
0000
0000
0000
0000
0000
0000
0000
0000
0000
0000
0000
0101
0000
0000
0000
0000
0000
0000
0000
0000
0000
0000
0000
0000
0000
0000
0000
0000
0000
0000
0000
0000
0000
0000
0000
,
0001
0010
0100
0000
0010
0000
0100
0010
0001
0000
1000
0000
1010
0000
0000
0000
,
1000
0010
0100
0000
0010
0000
0100
0000
0010
1000
0100
0000
0010
0000
0100
0000
,
1000
0001
0100
0010
0100
0001
1000
0000
1200
0000
0000
0000
1300
0000
0000
0000
,
1010
0000
0100
0000
0101
0000
0001
0000
1000
0001
0010
0000
0100
0010
0100
0000
,
0010
0001
0100
0000
0010
0000
0100
0000
0002
0000
0000
0000
0023
0000
0000
0000
,
0130
0000
1001
0000
0100
0000
1000
0000
0001
0000
0110
0000
1000
0000
0001
0100
,
0010
0000
0100
0000
0010
0100
0001
0000
0010
0000
0100
0000
1100
0000
0000
0000
,
1000
0000
0001
0000
0100
0000
0110
0000
0010
1000
0001
0000
1001
0000
0000
0000
;
