#TITLE:I'm Your Treasure Box *あなたは マリンせんちょうを たからばこからみつけた。;
#SUBTITLE:;
#ARTIST:宝鐘マリン;
#TITLETRANSLIT:I'm Your Treasure Box;
#SUBTITLETRANSLIT:;
#ARTISTTRANSLIT:Houshou Marine;
#GENRE:POP;
#CREDIT:;
#MUSIC:I'm Your Treasure Box.ogg;
#BANNER:I'm Your Treasure Box.png;
#BACKGROUND:I'm Your Treasure Box-bg.png;
#CDTITLE:;
#SAMPLESTART:86.035;
#SAMPLELENGTH:16.000;
#SELECTABLE:YES;
#OFFSET:-0.032;
#BPMS:0.000=120.000
,188.000=60.000
,188.125=240.000
,189.667=60.000
,190.000=120.000
,203.333=111.000
,204.000=120.000
,240.000=110.000
,244.000=90.000
,247.000=77.000
,248.000=60.000
,251.000=61.000
,252.000=54.000
,254.000=50.000
,255.000=38.000
;
#STOPS:188.500=0.042
,188.667=0.042
,188.833=0.042
;
#DISPLAYBPM:120.000;
#BGCHANGES:1.875=I'm Your Treasure Box.avi=1.000=0=0=0=StretchNoLoop====,
99999.000=-nosongbg-=1.000=0=0=0=StretchNoLoop====
;
#FGCHANGES:;

//--------------- dance-single - ----------------
#NOTES:
     dance-single:
     :
     Medium:
     11:
     0,0,0,0,0:
0000
0000
0000
0000
,
0000
0000
0000
0000
,
0000
0000
0000
0000
,
0000
0000
0000
0000
,
0000
0000
0000
0000
,
0000
0000
0000
0000
,
0000
0000
0000
0000
,
2000
0000
3020
0000
,
0230
0000
0302
0000
,
0000
0000
0000
0000
,
1003
0100
1000
0001
1000
0010
0100
0000
,
0101
0000
1001
0000
0001
0010
0100
0000
,
0010
0001
1000
0001
1000
0010
0001
0000
,
0010
0000
1010
0000
1000
0100
0010
0000
,
0200
0000
2300
0000
3001
0100
0001
1000
,
0010
0000
0101
0000
0001
0010
0100
0000
,
0010
0001
1000
0000
0010
0100
0010
0000
,
0100
0000
1001
0000
0001
0010
0200
0000
,
1300
0100
0010
0100
1000
0010
0001
0010
,
2000
0000
3001
0000
0010
0100
0010
0000
,
0001
0000
1000
0010
0100
0000
0110
0000
,
0010
0000
0000
0000
1000
0000
0100
0000
0010
0000
0000
0100
0000
0000
0001
0000
,
0100
1000
0010
0000
0100
1000
0100
0000
,
0101
0000
1001
0000
1000
0010
0100
0000
,
1000
0100
0001
0010
0200
0000
2300
0000
,
3001
0000
0010
0000
0100
0000
1000
0000
0001
0000
0000
1000
0000
0000
1001
0000
,
0000
0001
0010
1000
0001
0100
1000
0010
,
0110
0000
1001
0000
1000
0010
0100
0000
,
0010
1000
0001
0000
0010
0001
1000
0000
,
0100
0000
0110
0000
0010
0001
1000
0000
,
0001
0000
0100
0000
1000
0000
0100
0000
0001
0000
0000
0001
0000
0000
1000
0000
,
0100
0010
0110
0000
0010
0001
0010
0000
,
0100
0000
1000
0001
1000
0000
0010
0000
,
0100
0010
1000
0000
0001
0010
0100
0000
,
1000
1000
0001
0001
0100
0100
0010
0010
,
0110
0000
1000
0000
0001
0000
0000
0000
0100
0000
0000
0100
0000
0000
0001
0000
,
0000
0000
0010
0000
0100
0000
0010
0000
0001
0000
0000
0001
0000
0000
2000
0000
,
0000
0000
3010
0000
1000
0000
0010
0000
0200
0000
0000
2300
0000
0000
3200
0000
,
0000
0301
0010
0100
0110
0000
0000
0000
,
1000
0000
0001
0000
1000
0000
0001
0000
0100
0000
0000
0100
0000
0000
0200
0000
,
0000
0301
0010
1000
0020
0000
0031
0200
,
0000
0000
0310
0000
1000
0000
0001
0000
0100
0000
0000
0100
0000
0000
0010
0000
,
0000
0100
0010
0100
1001
0000
1001
0000
,
0110
0000
1001
0000
0001
0100
0010
0000
,
1000
0100
0010
0100
1000
0001
0100
0000
,
0110
0000
1001
0000
0001
0100
1000
0000
,
1000
0100
0001
0000
0001
0010
0100
0000
,
0220
0330
1001
0000
1000
0100
0001
0000
,
0001
0100
1000
0000
1000
0010
0100
0000
,
0100
0101
0000
0011
0000
1010
0000
1100
,
0000
0000
0000
1000
0000
0000
0001
0000
0000
0100
0000
0000
0010
0000
0000
1000
0000
0001
0000
0000
1001
0000
0000
0000
,
1000
0100
0001
1000
0010
0100
1000
0010
,
0100
1001
0010
0110
,
0001
0010
1000
0001
0100
0010
0001
0100
,
2000
0000
0000
0000
0000
0000
3200
0000
0000
0000
0000
0000
0301
0000
0010
0000
0000
0100
0000
0000
0010
0000
0000
0001
,
0000
1000
0010
0100
1000
0100
0001
0010
,
0100
1100
0010
0101
,
0001
0010
0100
0000
1000
0010
0100
0000
,
0101
1010
1100
0011
,
1001
0110
0101
1010
,
2000
0000
0000
0000
,
3020
0000
0230
0302
,
0023
0230
2300
3020
,
0230
0302
2003
3200
,
0320
0000
0000
0000
,
0000
0000
0030
0000
;

//--------------- dance-single - ----------------
#NOTES:
     dance-single:
     :
     Hard:
     14:
     0.574953,0.762154,0.328544,0.157428,0.578375,588,540,48,23,0,0,0.574953,0.762154,0.328544,0.157428,0.578375,588,540,48,23,0,0:
0000
0000
0000
0000
,
0000
0000
0000
0000
,
0000
0000
0000
0000
,
0000
0000
0000
0000
,
0000
0000
0000
0000
,
0000
0000
0000
0000
,
0000
0000
0000
0000
,
1001
0000
0101
0000
,
1001
0000
1100
0000
,
0000
0000
0000
0000
,
1100
0000
0000
1000
0000
0001
0100
0000
0100
0001
0000
1000
0010
0000
0100
0010
0000
1000
0100
0000
0100
0010
0000
0001
,
1000
0000
0000
0010
0000
0000
0100
0000
0001
0010
0000
0000
0010
0000
0100
0000
0000
0100
0000
0000
1000
0001
0000
0001
,
0100
0000
0000
0010
0000
0000
0100
0000
0001
0000
0000
1000
0100
0000
0010
0000
0000
0010
0000
0000
0001
1000
0000
0000
,
1000
0000
0000
0010
0000
0000
0100
0000
0100
0001
0000
0000
0010
0000
0000
0100
0000
1000
0001
0000
0000
0100
0000
0010
,
0200
0000
0000
1000
0000
0000
0010
0000
0000
0301
0000
0000
0010
0000
0100
1000
0000
1000
0010
0000
0000
0100
0000
0000
,
0100
0000
0000
0001
0000
0000
0010
0000
0001
1000
0000
0000
0010
0000
0000
0100
0000
0100
0001
0000
0000
0010
0000
0100
,
1000
0000
0000
0001
0000
0000
1000
0000
0000
0010
0000
0000
0100
0000
0010
0000
0000
0100
0001
0000
0000
1000
0000
0000
,
0100
0000
0000
0010
0000
0000
0100
0000
0000
1000
0000
0000
0001
0000
0000
1000
0000
0001
0020
0000
0000
0100
0000
0000
,
0001
0000
0000
0130
0000
1000
0010
0000
0010
0100
0000
0001
1000
0000
0001
0010
0000
0010
0100
0000
1000
0001
0000
0100
,
0010
0000
0000
0100
0000
0000
0010
0000
0000
0100
0000
0000
0001
0000
0000
1000
0000
0001
0010
0000
0000
0010
0000
0000
,
0100
0000
0000
1000
0000
0000
0010
0000
0000
1000
0000
0001
0100
0000
0000
0010
0000
0100
0000
0000
0100
0010
0000
0000
,
1001
0000
0000
1000
0000
0000
0001
0000
0000
0010
0000
0000
0010
0000
0000
0100
0000
0100
0000
0000
0000
1000
0000
0000
,
0001
0000
0000
0100
0000
0000
0001
0000
0010
0000
0100
0000
1000
0000
0000
0001
0000
0000
0100
0000
0000
0110
0000
0000
,
0000
0000
0000
1001
0000
0000
1000
0000
0000
0001
0000
0010
0100
0000
0000
1000
0000
0010
0000
0000
0010
0100
0000
0000
,
0001
0000
0000
1000
0000
0000
0100
0000
0000
0001
0000
0000
0100
0000
0000
1000
0000
0010
0100
0000
0000
1000
0000
0000
,
0100
0000
0000
0001
0000
0000
0020
0000
0000
0100
0000
0000
0031
0000
0000
1000
0000
0010
0000
0000
0000
0110
0000
0000
,
1000
0000
0000
0001
0000
0010
0100
0000
0010
0001
0000
1000
0010
0000
0100
0010
0000
1000
0100
0000
0100
0010
0000
0001
,
1000
0010
0100
0010
1000
0001
0010
0100
,
1000
0000
0000
1000
0000
0001
1000
0000
0000
1010
0000
0000
0010
0000
0000
0010
0000
0100
0010
0000
1000
0000
0000
0001
,
0010
0000
0000
0000
0000
0000
0011
0000
0000
0001
0000
0000
1000
0000
0000
0010
0000
0100
0000
0000
0000
1000
0000
0000
,
0100
0000
0000
0001
0000
0010
0000
0000
0000
0001
0000
0000
1000
0000
0000
0100
0000
0001
0000
0000
0000
0100
0000
0000
,
0110
0000
0000
0110
0000
0000
1001
0000
0000
0001
0000
0010
0000
0000
0100
1000
0000
0000
0100
0000
0000
1000
0000
0000
,
0001
0000
0000
0100
0000
0000
0010
0000
0000
0100
0000
0001
0100
0000
0000
0010
0000
1000
0000
0000
0001
0010
0000
0010
,
0100
0000
0000
0010
0000
0000
0001
0000
0000
1000
0000
0000
0010
0000
0000
0100
0000
0100
0000
0000
0001
1000
0000
0000
,
1100
0100
0011
0010
0101
0100
1010
0010
,
1000
0000
0000
0001
0000
0000
1000
0000
0000
0001
0000
0000
0010
0000
0000
0010
0000
0100
0000
0000
0000
1000
0000
0000
,
0001
0000
0000
0100
0000
0000
1010
0000
0000
0101
0000
0000
1010
0000
0000
0001
0000
0010
0000
0000
0000
0200
0000
0000
,
0000
0000
0310
0001
1000
0000
0020
0000
0001
0000
0000
0100
0000
0000
2030
0000
,
3001
0000
0000
0110
0000
0000
1000
0000
0000
0110
0000
0000
1001
0000
0000
0001
0000
0010
0000
0000
0010
0100
0000
0000
,
1000
0000
0000
0001
0000
0100
0001
0000
0000
0010
0000
0000
0100
0000
0000
0100
0000
1000
0000
0000
0000
1000
0000
0000
,
0001
0000
0000
0100
0000
0010
0100
0000
0000
0001
0000
1000
0001
0000
0000
0010
0000
0000
0001
0000
0000
1000
0000
0010
,
0100
0000
0100
0001
0000
0001
1000
0000
1000
0100
0000
0100
0001
0000
1000
0010
0000
0001
1000
0001
1000
0001
1000
0001
,
1000
0000
0000
1000
0000
0010
0100
0000
0000
0110
0000
0000
1001
0000
0000
1001
0000
0000
0001
0000
0010
0100
0000
1000
,
0010
0000
0000
0000
0000
0000
0110
0000
0000
0001
0000
0000
0010
0000
0100
1000
0000
1000
0010
0000
0000
0100
0000
0001
,
1000
0000
0000
0010
0000
0000
0010
0000
0000
0100
0000
0000
0001
0000
0000
0010
0000
0100
0000
0000
1000
0000
0000
0001
,
0100
0000
0000
0000
0000
0000
0110
0000
0000
1000
0000
0000
0010
0000
0100
0001
0000
0001
0010
0000
0000
0100
0000
0000
,
1000
0000
0000
0011
0000
0000
0100
0000
0000
1010
0000
0000
0110
0000
0000
0010
0000
0100
0000
0000
0001
0010
0000
0000
,
0200
0000
0000
1300
0001
1000
0002
0000
0000
0000
0000
0000
0013
0000
0100
1000
0000
1000
0001
0000
0000
0100
0000
0010
,
0100
0000
0000
0101
0000
0000
0010
0000
0000
1100
0000
1000
0001
0000
0000
0001
0000
0010
0000
0000
0100
0000
0000
1000
,
0100
0000
0000
1000
0000
0001
1000
0000
0000
0001
0000
0100
0001
0000
0001
0010
0000
0010
0100
0000
0100
1000
0000
1000
,
0001
0000
1000
0100
1000
0001
0100
0001
1000
0100
1000
0001
0100
0000
0000
0110
0000
0110
0000
0000
1001
0000
0000
0000
,
0001
0000
0100
0010
0000
0100
0001
0000
0000
0010
0000
0010
0100
0000
0000
1000
0000
1000
0010
0000
0000
0100
0000
0000
,
0001
0000
0010
0100
0000
0010
0000
0000
0100
1000
0000
0010
0100
0000
0000
1000
0000
0100
0000
0000
0100
0001
0000
0001
,
1000
0000
0100
0010
0000
0100
1000
0000
0000
0001
0000
0100
0010
0000
0000
0100
0000
0000
0010
0000
1000
0001
0000
0001
,
0010
0000
0000
0100
0000
1000
0000
0000
0010
0100
0000
0000
1001
0000
1001
0000
0000
1100
0000
0000
0010
0001
0000
0001
,
0100
0000
0100
0010
0000
0010
1000
0000
0000
0010
0000
1000
0100
0000
0000
0010
0000
0001
0100
0000
0000
1000
0000
0100
,
0001
0000
0010
0000
0000
0110
0000
0000
0100
1000
0000
1000
0010
0000
0100
0000
0000
0100
0000
0000
0001
1000
0000
0100
,
0010
0000
0100
1000
0000
0010
0100
0000
0001
0010
0000
0100
0001
0000
0100
0010
0000
0100
1000
0000
0010
0100
0000
0000
,
0101
0010
1100
0100
0011
0010
1100
1000
,
0101
0001
1010
0010
0110
0100
2001
0000
,
3002
0000
0000
0000
,
0023
0000
0000
0032
2003
0000
3020
0000
,
0230
0302
2003
3020
,
0230
0302
0023
0230
,
0320
0000
0000
0000
,
0000
0000
0030
0000
;

//--------------- dance-single - ----------------
#NOTES:
     dance-single:
     :
     Challenge:
     18:
     0.776382,1.098399,0.574953,0.20534,1.091725,794,710,84,30,0,0,0.776382,1.098399,0.574953,0.20534,1.091725,794,710,84,30,0,0:
0000
0000
0000
0000
,
0000
0000
0000
0000
,
0000
0000
0000
0000
,
0000
0000
0000
0000
,
0000
0000
0000
0000
,
0000
0000
0000
0000
,
0000
0000
0000
0000
,
1001
0000
0101
0000
,
1001
0000
1100
0000
,
0000
0000
0000
0000
,
0101
0000
0000
0001
0000
1000
0100
0000
0010
0100
0000
0100
1000
0000
0001
0100
0000
0100
0010
0000
1000
0001
0000
0001
,
0010
0000
0110
0000
0000
1000
0010
0000
0100
0001
0000
0000
0010
0000
0010
0000
0000
0100
1000
0000
0001
0100
0000
0010
,
1000
0010
1000
0001
0000
0000
0001
0000
1000
0100
0000
0100
0010
0000
0010
0001
0000
1000
0010
0000
0100
0001
0010
0100
,
1000
0000
1010
0000
0000
0010
0100
0000
0100
0001
0000
0000
1100
0000
0100
1000
0000
1000
0001
0000
0100
0010
0000
1000
,
0020
0000
0000
1000
0000
0000
0100
0000
0000
0031
0000
0010
1000
0000
1000
0100
0000
0100
0010
0000
0000
0010
0001
1000
,
0001
0000
0000
1001
0000
0000
1000
0000
1000
0100
0000
1000
0001
0000
0001
0100
0000
0100
1000
0000
0000
1100
0000
0100
,
0001
0000
0000
0011
0000
0010
0100
0000
0000
1000
0000
0001
0100
0000
0001
1000
0000
1000
0100
0000
0000
0110
0000
0010
,
0001
0000
0000
1001
0000
0000
1001
0000
0010
0100
0000
0000
0110
0000
1000
0001
0000
0001
0020
0000
0000
0130
0000
1000
,
0010
0000
0000
0100
0000
0100
0010
0000
0010
1000
0000
1000
0010
0000
0001
0010
0000
0100
0001
0000
1000
0100
0000
0010
,
0110
0000
0000
1000
0000
0000
0001
0000
0000
0100
0000
0000
0010
0000
0000
0100
0000
0001
0010
0000
0000
0010
0000
0100
,
1000
0000
0000
0001
0000
0000
0100
0000
0000
1000
0000
0100
0001
0000
0000
1000
0000
1000
0001
0000
0000
0010
0000
0000
,
0110
0000
0000
1000
0000
0000
0001
0000
0001
0100
0000
0000
0010
0000
0000
1000
0000
0100
0001
0000
0000
0100
0000
0000
,
1001
0000
0000
0001
0000
0000
0001
0000
0010
0000
0100
0000
1000
0000
0000
0001
0000
0100
0010
0000
0000
0110
0000
0000
,
0100
0000
0000
0001
0000
0000
1000
0000
0000
0001
0000
0100
0010
0000
0000
1000
0000
0100
0010
0000
0000
0100
0000
1000
,
0001
0000
0000
0100
0000
0000
0010
0000
0010
1000
0000
1000
0001
0000
0000
0010
0000
0010
0100
0000
0000
1000
0000
0000
,
0001
0000
0000
0000
0000
0000
0000
0000
0000
0000
0000
0000
0100
0000
0000
0000
0000
0000
0000
0000
0000
0000
0000
0000
0001
0000
0000
0010
0000
0000
0100
0000
0000
1000
0000
0000
0001
0000
0000
0010
0000
0000
0100
0000
0000
1000
0000
0000
0001
0000
0000
0000
0000
0000
0000
0000
0000
0000
0000
0000
0100
0000
0000
0000
0000
0000
0000
0000
0110
0000
0000
0000
0000
0000
0000
0000
0000
0000
0000
0000
0000
0000
0000
0000
1001
0000
0000
0000
0000
0000
0000
0000
0000
0000
0000
0000
,
0001
0000
0000
0010
0000
0100
1000
0000
1000
0010
0000
0010
0100
0000
0100
1000
0000
1000
0100
0000
0100
0001
0000
0001
,
1000
0000
0000
0100
0000
0000
0110
0000
0000
0001
0000
0000
1000
0000
0000
0010
0000
0010
0100
0000
0000
0001
0000
0000
,
1001
0000
0000
1000
0000
0001
0010
0000
0000
0100
0000
0000
0110
0000
0000
1000
0000
0001
0100
0000
0010
0100
0000
0001
,
1000
0000
0000
0000
0000
0000
0000
0000
0100
0000
0000
0000
0000
0000
0000
0000
0000
0000
0000
0000
0000
0000
0000
0000
1100
0000
0000
0000
0000
0000
0000
0000
0000
0000
0000
0000
0001
0000
0000
0000
0000
0000
0000
0000
0000
0000
0000
0000
1000
0000
0000
0000
0000
0000
0000
0000
0000
0000
0000
0000
0010
0000
0000
0000
0000
0000
0000
0000
0100
0000
0000
0000
0001
0000
0000
0000
0000
0000
0000
0000
0000
0000
0000
0000
1000
0000
0000
0100
0000
0000
0010
0000
0000
0001
0000
0000
,
1000
0000
0000
0010
0000
0010
0100
0000
0000
0001
0000
0000
1000
0000
0000
1000
0000
0010
0100
0000
0000
0010
0000
0000
,
0110
0000
0000
0110
0000
0000
1001
0000
0000
0001
0000
1000
0100
0000
0000
1000
0000
0001
0100
0000
0000
0010
0000
1000
,
0001
0000
0000
0011
0000
0000
1000
0000
0000
1010
0000
0010
0100
0000
0000
0001
0000
1000
0100
0000
0100
0010
0000
0001
,
1000
0000
0000
1100
0000
0000
0001
0000
0000
0101
0000
0000
1000
0000
0000
1010
0000
0010
0000
0000
0100
0001
0000
0000
,
1001
0000
0000
1000
0000
0000
0110
0000
0000
0100
0000
0000
1001
0000
0000
0001
0000
1000
0000
0000
0010
0100
0000
0000
,
0011
0000
0100
1000
0000
0000
1010
0000
0100
0001
0000
0000
0101
0000
0000
0001
0000
1000
0000
0000
1000
0100
0000
0000
,
0110
0000
0000
0001
0000
0001
1000
0000
0010
0100
0000
0001
0020
0000
0000
0100
0000
0130
0000
0000
0100
2000
0000
0000
,
0010
0000
3010
0100
0001
0000
0010
0000
1100
0000
0000
0011
0000
0000
1001
0000
,
0001
0000
0000
0100
0000
0010
1000
0000
0100
0010
0000
1000
0010
0000
0000
0001
0000
0100
0000
0000
1000
0100
0000
0000
,
0110
0000
0000
0010
1000
0100
0010
0000
0000
0100
0000
0000
1000
0000
0001
0100
0000
0100
0010
0000
0000
1000
0001
1000
,
0001
0000
0000
0010
0000
0010
0100
0000
0100
1000
0000
1000
0001
0000
0000
0100
0000
0010
0000
0000
1000
0100
1000
0100
,
0010
0000
0010
0001
1000
0001
1000
0000
1000
0010
0000
0010
0100
0000
0100
0001
0000
0001
0010
1000
0001
0100
1000
0010
,
0100
0000
0000
0110
0000
0010
1000
0000
1000
0001
0000
0000
0011
0000
0000
1100
0000
0000
1001
0000
1000
0001
0100
0010
,
0110
0000
0000
0000
0000
0000
1001
0000
0000
1000
0000
0010
0100
0000
0001
1000
0000
1000
0100
0000
0000
0011
0000
0010
,
0100
0000
0000
1000
0000
0000
0100
0000
0000
1000
0000
0000
0001
0000
0000
0000
0000
0000
0000
0000
0100
0000
0000
0000
0010
0000
0000
0000
0000
0000
0000
0000
0000
0000
0000
0000
0100
0000
0000
0000
0000
0000
0000
0000
0000
0000
0000
0000
0110
0000
0000
0000
0000
0000
0000
0000
0010
0000
0000
0000
1000
0000
0000
0000
0000
0000
0000
0000
1001
0000
0000
0000
0000
0000
0000
0000
0000
0000
0000
0000
1001
0000
0000
0000
0000
0000
0000
0000
0000
0000
0000
0000
0100
0000
0000
0000
,
0110
0000
0000
0000
0000
0000
1001
0000
0000
0001
0000
1000
0010
0000
0100
0001
0000
0001
0010
0000
0000
1100
0000
0100
,
0010
0000
0000
0001
0000
0000
0010
0000
0000
0001
0000
0000
1000
0000
0000
0000
0000
0000
0000
0000
0000
0000
0000
0000
0010
0000
0000
0000
0000
0000
0000
0000
0010
0000
0000
0000
0100
0000
0000
0000
0000
0000
0000
0000
0100
0000
0000
0000
0010
0000
0000
0000
0000
0000
0000
0000
0000
0000
0000
0000
0110
0000
0000
0000
0000
0000
0000
0000
0100
0000
0000
0000
0000
0000
0000
0000
0000
0000
0000
0000
0001
0000
0000
0000
1000
0000
0000
0000
0000
0000
0000
0000
0000
0000
0000
0000
,
2000
0000
0000
3001
0010
0100
2000
0000
0000
0000
3000
0000
1001
0000
0001
0100
0000
0010
0100
0000
0000
0100
0001
0010
,
0100
0000
0000
0000
0000
0000
0000
0000
0100
0000
0000
0000
1000
0000
0000
0000
0000
0000
0000
0000
1000
0000
0000
0000
0001
0000
0000
0000
0000
0000
0000
0000
0000
0000
0000
0000
0101
0000
0000
0000
0000
0000
0000
0000
0100
0000
0000
0000
0010
0000
0000
0000
0000
0000
0000
0000
0000
0000
0000
0000
1010
0000
0000
0000
0000
0000
0000
0000
1000
0000
0000
0000
0000
0000
0000
0000
0000
0000
0000
0000
0010
0000
0000
0000
0100
0000
0000
0001
0000
0000
0010
0000
0000
0100
0000
0000
,
1000
0000
0001
0100
0000
0010
1000
0000
1000
0010
0000
0000
0100
0001
0100
0001
0000
0010
0100
1000
0100
1000
0001
0010
,
0100
0000
1000
0001
1000
0010
0100
0010
1000
0100
0010
0001
1000
0000
0000
0110
0000
0110
0000
0000
1001
0000
0000
0000
,
1001
0000
0000
0000
0000
0000
0000
0000
1000
0000
0000
0000
0010
0000
0000
0000
0000
0000
0000
0000
0100
0000
0000
0000
0001
0000
0000
1000
0000
0000
0100
0000
0000
1000
0000
0000
0100
0000
0000
1000
0000
0000
0100
0000
0000
0000
0000
0000
1000
0000
0000
0001
0000
0000
0100
0000
0000
0001
0000
0000
0100
0000
0000
0001
0000
0000
0100
0000
0000
0000
0000
0000
0010
0000
0000
1000
0000
0000
0001
0000
0000
1000
0000
0000
0001
0000
0000
1000
0000
0000
0001
0000
0000
0010
0000
0000
,
0100
0000
0000
0000
0000
0000
0000
0000
1000
0000
0000
0000
0001
0000
0000
0000
0000
0000
0000
0000
0010
0000
0000
0000
0100
0000
0000
0000
0000
0000
1000
0000
0000
0100
0000
0000
1000
0000
0000
0000
0000
0000
0000
0000
0001
0000
0000
0000
1000
0000
0000
0000
0000
0000
0001
0000
0000
0100
0000
0000
0001
0000
0000
0000
0000
0000
0000
0000
0101
0000
0000
0000
0000
0000
0000
0000
0000
0000
0100
0000
0000
0010
0000
0000
1000
0000
0000
0000
0000
0000
0000
0000
0001
0000
0000
0000
,
1000
0000
0000
0000
0000
0000
0000
0000
1000
0000
0000
0000
0100
0000
0000
0000
0000
0000
0000
0000
0010
0000
0000
0000
0001
0000
0000
1000
0000
0000
0010
0000
0000
1000
0000
0000
0010
0000
0000
1000
0000
0000
0010
0000
0000
0000
0000
0000
1000
0000
0000
0001
0000
0000
0010
0000
0000
0001
0000
0000
0010
0000
0000
0001
0000
0000
0010
0000
0000
0000
0000
0000
0100
0000
0000
1000
0000
0000
0001
0000
0000
1000
0000
0000
0001
0000
0000
1000
0000
0000
0001
0000
0000
0100
0000
0000
,
0010
0000
0000
0000
0000
0000
0100
0000
0000
0001
0000
0000
0100
0000
0000
0000
0000
0000
0001
0000
0000
1000
0000
0000
0001
0000
0000
0000
0000
0000
1000
0000
0000
0100
0000
0000
1000
0000
0000
0000
0000
0000
0100
0000
0000
0010
0000
0000
0100
0000
0000
0000
0000
0000
0000
0000
0110
0000
0000
0000
0000
0000
0000
0000
0000
0000
0000
0000
0110
0000
0000
0000
0000
0000
0000
0000
0000
0000
0000
0000
0001
0000
0000
0000
0010
0000
0000
0000
0100
0000
0000
0000
1000
0000
0000
0000
,
0010
0000
0000
0000
0000
0000
0000
0000
0010
0000
0000
0000
0100
0000
0000
0000
0000
0000
0000
0000
0010
0000
0000
0000
1000
0000
0000
0001
0000
0000
0100
0000
0000
0001
0000
0000
1000
0000
0000
0001
0000
0000
0100
0000
0000
0000
0000
0000
0001
0000
0000
1000
0000
0000
0100
0000
0000
1000
0000
0000
0001
0000
0000
1000
0000
0000
0100
0000
0000
0000
0000
0000
0010
0000
0000
0001
0000
0000
1000
0000
0000
0001
0000
0000
0100
0000
0000
0001
0000
0000
1000
0000
0000
0010
0000
0000
,
0100
0000
0000
0000
0000
0000
0000
0000
0010
0000
0000
0000
1000
0000
0000
0000
0000
0000
0001
0000
0000
0010
0000
0000
0001
0000
0000
0000
0000
0000
0000
0000
0010
0000
0000
0000
0100
0000
0000
0000
0000
0000
1000
0000
0000
0100
0000
0000
1000
0000
0000
0000
0000
0000
0000
0000
0010
0000
0000
0000
0100
0000
0000
0000
0000
0000
0010
0000
0000
1000
0000
0000
0001
0000
0000
0000
0000
0000
0000
0000
1000
0000
0000
0000
0100
0000
0000
0000
0000
0000
0000
0000
0010
0000
0000
0000
,
0100
0000
0000
0000
0000
0000
0000
0000
0100
0000
0000
0000
1000
0000
0000
0000
0001
0000
0000
0000
0100
0000
0000
0000
0001
0000
0000
1000
0000
0000
0100
0000
0000
0010
0000
0000
0100
0000
0000
1000
0000
0000
0100
0000
0000
0010
0000
0000
0001
0000
0000
0010
0000
0000
0100
0000
0000
0010
0000
0000
0001
0000
0000
0010
0000
0000
0100
0000
0000
1000
0000
0000
0001
0000
0000
0100
0000
0000
0010
0000
0000
0100
0000
0000
0001
0000
0000
0100
0000
0000
0010
0000
0000
1000
0000
0000
,
0001
0010
1100
1000
0011
0001
0110
1000
,
1010
0010
0101
0001
0110
0100
2001
0000
,
3002
0000
0000
0000
,
0023
0000
0000
0032
2003
0000
3020
0030
,
0220
0330
0202
0303
2002
3003
2200
3300
,
0022
0033
2020
3030
2200
3300
0202
0303
,
2002
0000
0000
0000
,
0000
0000
3003
0000
;
