#TITLE:I believe what you said;
#SUBTITLE:;
#ARTIST:亜咲花;
#TITLETRANSLIT:I believe what you said;
#SUBTITLETRANSLIT:;
#ARTISTTRANSLIT:Asaka;
#GENRE:ANIME;
#CREDIT:;
#MUSIC:I believe what you said.ogg;
#BANNER:I believe what you said.png;
#BACKGROUND:I believe what you said-bg.png;
#CDTITLE:;
#SAMPLESTART:46.818;
#SAMPLELENGTH:14.130;
#SELECTABLE:YES;
#OFFSET:1.641;
#BPMS:0.000=138.000;
#STOPS:;
#LASTBEATHINT:1.528168;
#BGCHANGES:4.000=I believe what you said.avi=1.000=0=0=0=StretchNoLoop====,
99999.000=-nosongbg-=1.000=0=0=0=StretchNoLoop====
;
#FGCHANGES:;

//--------------- dance-single - ----------------
#NOTES:
     dance-single:
     :
     Medium:
     12:
     0,0,0,0,0:
0000
0000
0000
0000
,
1000
0001
0100
0001
1000
0100
0000
1000
,
0001
0000
0000
0000
0001
0000
1000
0000
0000
0000
1100
0000
0000
0101
0000
0000
,
0001
0010
0100
0000
1000
0100
0000
0001
,
0100
0000
1000
0010
0000
0001
0010
0000
,
1000
0010
0100
0000
0001
0100
0000
1000
,
0100
0000
0001
0010
0000
1000
0010
0000
,
0001
0010
0100
0010
0001
0100
0010
0100
,
0001
0100
1000
0100
0010
1000
0010
0001
,
1000
0100
0010
1000
0100
0010
0001
1000
,
0020
0000
0000
0000
,
0130
0001
0001
1000
0100
0000
0010
0100
,
1000
0010
0100
0010
0000
0100
0001
0010
,
0000
0100
1000
0100
1000
0000
0001
0100
,
0010
0100
0001
1000
0002
0023
0230
2300
,
3100
0010
0100
1000
0001
0000
0100
1000
,
0100
0001
0010
0010
0000
0100
1000
0010
,
0100
0001
0100
0001
1000
0010
1000
0010
,
0100
0001
1000
0100
0010
1000
0010
0001
,
0020
0000
0000
0100
0230
0000
1300
0001
,
0000
0000
0101
0000
0000
0000
1010
0000
0100
0000
0000
0001
0000
0000
1000
0000
,
0200
0000
0000
0010
0320
0000
0031
2000
,
0000
0000
3200
0000
0000
0000
0310
0001
0010
0000
0001
1000
0000
0001
0100
0000
,
0110
0010
1000
0100
0010
0001
1000
1000
,
0001
0100
0010
1000
0100
1000
0001
0001
,
1000
0100
0010
0001
1000
0001
0010
0100
,
1000
0001
1000
0001
0010
0100
0010
0100
,
1001
0000
0000
0000
0001
0100
0001
0000
0000
0000
1010
0000
0000
0000
1000
0000
,
0010
0000
0100
0001
0010
0100
1000
0010
,
1000
1000
0100
1000
0001
0001
1000
0100
,
0010
0000
0100
1000
0010
0100
0001
0010
,
0001
0001
0100
0001
1000
1000
0001
0100
,
0010
1000
1010
0100
0001
0010
0011
0000
,
0010
0001
0101
0010
1000
0100
1100
0000
,
1000
0100
0110
0100
1000
0100
0110
0010
,
0001
0000
0001
0100
0000
0100
0010
0000
0000
0010
1000
0000
0100
0000
0001
0000
,
0100
1000
0100
1000
0001
0100
0001
0100
,
0010
0000
0010
1000
0000
1000
0100
1000
,
0001
0100
0001
0100
1000
0100
1000
0100
,
0001
0000
0001
0010
0100
0001
0100
2000
,
0000
3002
0000
1000
1000
2003
0000
3001
,
0100
1000
0001
2000
0000
3100
0001
0010
,
1000
0010
0110
0010
0001
0100
0110
0010
,
0010
1000
0000
1000
0100
0000
0100
0010
0000
0010
0001
0000
0001
0100
0010
0000
,
0110
1000
0001
1000
0110
0001
1000
0001
,
0100
0000
0010
0000
0100
0000
0010
0000
0100
0010
0000
0010
1000
0000
1000
0100
,
0020
0000
0200
0330
,
0100
0000
0000
0011
0000
0000
0100
0000
1010
0000
0000
0110
0000
0000
0010
0000
,
2002
0000
0000
3003
1001
0000
0000
0000
,
2010
0100
0001
3100
,
2100
0001
0001
3001
;

//--------------- dance-single - ----------------
#NOTES:
     dance-single:
     :
     Hard:
     16:
     0.317217,0.253556,0,0,0,200,200,0,0,0,0,0.317217,0.253556,0,0,0,200,200,0,0,0,0:
0000
0000
0000
0000
,
1001
0001
0100
0001
0011
0101
0000
1010
,
1100
0000
0000
0000
0000
0000
0100
0000
0000
0000
0000
0000
0011
0000
0000
0000
0000
0000
1001
0000
0000
0000
0000
0000
0001
0000
0100
0000
0001
0000
0100
0000
0000
0000
0000
0000
0000
0000
0000
1010
0000
0000
0000
0000
0000
0000
0000
0000
,
0101
0010
1000
0000
1000
0100
0010
0011
,
1001
1000
1010
0101
0001
0011
0110
0000
,
1010
0100
0001
0010
0011
1001
1000
1100
,
0011
0001
0101
1001
1000
1010
0110
0000
,
0101
0001
1001
0001
0011
0001
1001
0110
,
1100
1000
1001
1000
1010
1000
0110
0001
,
1000
0100
1000
0100
0010
0100
1000
0001
0100
0010
0100
0010
1000
0001
0010
0002
,
2000
0000
0000
0000
0000
0000
0000
3003
,
1001
0000
0001
0000
0010
0000
0000
0100
1000
0000
0001
0000
0100
0001
0010
0001
,
0100
0000
0010
1000
0001
0000
0000
0001
0010
0000
0100
0000
1000
0100
0010
0100
,
1000
0000
0001
0000
1000
0000
0000
1000
0010
0000
0100
0000
0001
1000
0001
0100
,
0010
0000
0100
0001
1000
0000
0001
0000
0011
0000
0101
0000
1100
0000
1010
0000
,
0100
0001
0010
0000
0100
0000
0000
1000
0001
0000
1000
0010
0100
0001
1000
0000
,
1010
0000
0100
0000
0010
0000
0000
0100
0001
0000
1000
0000
0001
0100
0010
0100
,
0101
0011
0101
0011
1100
1010
1100
1010
,
0010
0100
0001
0010
0100
1000
0010
0100
0001
0010
0100
1000
0010
0100
0001
0010
,
0120
0100
0130
1000
1001
0000
0011
0001
,
0010
0000
0000
0100
0000
0000
0010
0000
0000
0100
0000
0000
1000
0000
0000
0000
0000
0000
1001
0000
0000
0000
0000
0000
0001
0000
0000
0000
0000
0000
0100
0000
0000
0000
0000
0000
0010
0000
1000
0000
0010
0000
1000
0000
0000
0000
0000
0000
,
1100
0000
0000
0110
0000
0000
0011
0000
1001
0000
0000
0000
1100
0000
1000
0000
,
0010
0000
0100
0001
0100
0001
1000
0010
1010
0000
0100
0001
0000
1000
0010
0000
,
0101
0000
0001
0000
0010
0000
0110
0000
1000
0100
0010
0100
1000
0000
0001
0000
,
0100
0000
0110
0000
1000
0000
0001
0000
1000
0010
0100
0001
1000
0000
0001
0000
,
0020
0000
0100
0000
0130
0000
1000
0000
0001
0100
0010
0100
1000
0000
0100
0000
,
0001
0000
1000
0000
0001
0010
0100
1000
0001
0010
0000
0010
0001
1000
0100
0010
,
1001
0000
0000
0000
0011
0010
1100
0000
0000
0000
1001
0000
0000
0000
0001
0100
,
0001
0010
0100
0000
0110
0000
0100
1000
0010
0000
0100
0000
0101
0000
0001
0100
,
0010
1000
0001
0000
0101
0000
0100
0001
1000
0000
0001
0000
0011
0000
0010
0100
,
1000
0100
0010
0000
0110
0000
0100
1000
0001
0000
1000
0000
1100
0000
0100
0010
,
0100
1000
0010
0000
0110
0000
0100
0001
1000
0100
0010
0000
0011
0000
0001
0100
,
1000
0100
0001
0000
1001
0000
1000
0100
0010
0000
0100
0000
1100
0000
1000
0100
,
0010
0001
0100
0000
0101
0000
0001
0100
1000
0000
1100
0000
0100
0001
0010
0001
,
0100
0000
0010
0000
1010
0000
1000
0010
0100
0000
1000
0000
0100
0000
0001
0100
,
0001
0000
0000
0000
0000
0000
0001
0000
0000
0010
0000
0000
0000
0000
0000
0010
0000
0000
0100
0000
0000
0000
0000
0000
0100
0000
1000
0000
0100
0000
1000
0000
0000
0000
0000
0000
0001
0000
0000
0010
0000
0000
0100
0000
0000
0000
0000
0000
,
0001
0000
0100
0000
1001
0000
1000
0001
0100
0000
0010
0000
0101
0000
1000
0010
,
0100
1000
0001
0000
0011
0000
0010
1000
0100
0000
1000
0000
0101
0000
0100
0001
,
0010
0100
0010
0001
0100
0000
0010
1000
0100
0010
0100
0000
0110
0000
0010
0001
,
0100
0010
0001
0010
1000
0000
1000
0100
0010
0001
0010
0000
1001
0000
0001
0010
,
0100
1000
0001
0000
0101
0000
1000
0010
0100
0000
0001
0000
1000
0000
0001
0010
,
0100
0010
1000
0000
0001
0000
1000
0010
0001
0000
0100
0000
0110
0000
0010
1000
,
0001
1000
0001
0000
1010
0000
1000
0001
0100
0000
0010
0000
1000
0000
0001
1000
,
0010
0100
0000
0100
0001
0000
0001
0010
0000
0010
0100
0000
0100
1000
0010
0000
,
0101
0011
0101
0011
1100
1010
1100
1010
,
1000
0100
0010
1000
0010
0001
0100
0010
0001
1000
0000
1000
0100
0000
0100
0001
,
0020
0000
0000
0000
0200
0000
0000
0330
,
0011
0000
0000
1001
0000
0000
1010
0000
0101
0000
0000
1001
0000
0000
0110
0000
,
0001
1000
0001
1000
0001
1000
0001
1000
0001
1000
0001
1000
0001
0000
0000
0000
0000
0000
0000
0000
0000
0000
0000
0000
,
0101
0001
0100
0001
1000
0100
1100
1000
0100
1000
0001
0100
,
0101
0001
1000
1100
0100
0010
0110
0100
1000
1001
0000
0000
;

//--------------- dance-single - ----------------
#NOTES:
     dance-single:
     :
     Challenge:
     19:
     0,0,0,0,0:
0000
0000
0000
0000
,
0001
0000
0000
0100
0000
0000
0001
0000
0000
0100
0000
0000
0001
0000
0000
1000
0000
0000
0001
0000
0000
0100
0000
0000
0001
0000
0010
0000
0001
0000
0010
0000
0000
0000
0000
0000
0100
0000
0000
0000
0000
0000
1000
0000
0100
0000
1000
0000
,
0100
0000
0000
0000
0000
0000
1000
0000
0000
0000
0000
0000
0001
0000
1000
0000
0001
0000
1000
0000
0000
0000
0000
0000
0100
0000
0000
1000
0000
0000
0001
0000
0000
0000
0000
0000
0000
0000
0000
0010
0000
0000
0000
0000
0000
0000
0000
0000
,
0100
0000
0000
1000
0000
0000
0001
0000
0000
0100
0000
0000
0010
0000
0000
0100
0000
0000
0001
0000
0000
1000
0000
0000
0100
0000
0010
0000
0100
0000
0010
0000
0000
0000
0000
0000
0001
0000
0000
0000
0000
0000
1000
0000
0100
0000
1000
0000
,
0001
0000
0000
0100
0000
0000
0001
0100
0001
1000
0000
0000
0100
0000
0000
1000
0100
1000
0100
0000
0000
0010
0000
0000
,
0100
0000
0000
1000
0000
0000
0010
0000
0000
1000
0000
0000
0001
0000
0000
0100
0000
0000
0001
0000
0000
1000
0000
0000
0010
0000
0100
0000
0010
0000
0100
0000
0000
0000
0000
0000
0001
0000
0000
0000
0000
0000
1000
0000
0100
0000
1000
0000
,
0010
0000
0000
0100
0000
0000
0001
0100
0001
1000
0000
0000
0010
0000
0000
0100
0001
0100
0001
0000
0000
0100
0000
0000
,
0001
0000
0000
1000
0000
0000
0010
0000
0000
0100
0000
0000
0010
0000
0000
0100
0000
0000
0010
0000
0000
1000
0000
0000
0001
0000
1000
0000
0001
0000
0100
0000
0000
0010
0000
0000
1000
0000
0000
0100
0000
0000
1000
0000
0100
0000
1000
0000
,
0001
0000
0000
0010
0000
0000
0001
0000
0000
1000
0000
0000
0100
0000
1000
0000
0100
0000
0010
0000
0000
0001
0000
0000
1000
0000
0000
0010
0000
0000
0100
0000
0010
0000
1000
0000
0010
0000
0000
0100
0000
0000
0001
0000
0000
1000
0000
0000
,
0001
0100
0001
0100
0010
1000
0010
0100
0001
1000
0010
1000
0001
1000
0010
0100
0001
0100
0001
0100
0010
1000
0010
0100
,
0001
0000
0000
0000
,
0001
0000
0000
0010
0000
0000
0100
0000
0000
1000
0000
0000
0100
0000
0000
0010
0000
0000
0001
0000
0000
0100
0000
0000
0001
0000
0000
1000
0000
0000
0001
0000
0100
0000
0001
0000
1000
0000
0000
0000
0000
0000
0100
0000
0000
0000
0000
0000
,
1000
0000
0000
0100
0000
0000
1000
0000
0000
0100
0000
0000
0010
0000
0000
0100
0000
0000
1000
0000
0000
0100
0000
0000
0010
0000
0000
0001
0000
0000
0100
0000
0001
0000
0100
0000
0001
0000
0000
1000
0000
0000
0100
0000
0000
0000
0000
0000
,
1000
0000
0000
0001
0000
0000
0010
0000
0000
0100
0000
0000
1000
0000
0000
0100
0000
0000
1000
0000
0100
0000
1000
0000
0001
0000
0000
0010
0000
0000
0100
0000
0000
0000
0000
0000
0010
0000
0000
0001
0000
0000
0010
0000
0000
0100
0000
0000
,
1000
0000
0000
0001
0000
0000
0010
0000
0000
0001
0000
0000
0100
0000
0000
0001
0000
0000
0100
0000
0001
0000
1000
0000
0010
0000
0000
0010
0000
0000
0100
0000
0000
0100
0000
0000
0001
0000
0000
0001
0000
0000
1000
0000
0000
1000
0000
0000
,
0010
0000
0000
1000
0000
0000
0100
0000
0000
0010
0000
0000
0100
0000
0000
1000
0000
0000
0100
0000
0000
0010
0000
0000
0001
0000
0000
1000
0000
0000
0001
0000
0010
0000
0001
0000
1000
0000
0000
0100
0000
0000
1000
0000
0000
0000
0000
0000
,
0100
1000
0001
0010
0100
0010
0001
0000
1000
0100
1000
0100
1000
0010
0100
0010
,
0100
0001
0010
0001
1000
0001
0100
0010
0100
0001
0010
0100
0010
0100
0010
0001
,
1000
0100
1000
0100
0010
0001
0010
0001
0010
0100
0010
0100
1000
0100
0010
0001
0010
0001
0010
0100
1000
0100
1000
0100
,
0010
0000
0000
0001
0010
0100
1000
0000
0000
0100
0000
0000
1000
0100
0010
0001
0000
0000
1000
0000
0000
0001
0100
0001
,
0100
0000
0000
0000
0000
0000
0001
0000
1000
0000
0001
0000
1000
0000
0000
0000
0000
0000
0100
0000
1000
0000
0100
0000
1000
0000
0000
0000
0000
0000
0000
0000
0000
0010
0000
0000
0000
0000
0000
0000
0000
0000
0100
0000
0000
0000
0000
0000
,
0001
0000
0000
1000
0010
0100
0001
0000
0000
1000
0000
0000
0001
0100
0010
1000
0000
0000
0001
0000
0000
1000
0100
1000
,
0100
0000
0000
0000
0000
0000
0000
0000
0000
0000
0000
0000
1000
0000
0000
0000
0001
0000
0000
0000
1000
0000
0000
0000
0001
0000
0000
0000
0000
0000
0000
0000
0000
0000
0000
0000
0100
0000
0000
0000
0001
0000
0000
0000
0100
0000
0000
0000
0001
0000
0000
0000
0000
0000
0000
0000
0000
0000
0000
0000
1000
0000
0000
0001
0000
0000
1000
0000
0000
0000
0000
0000
0000
0000
0000
0000
0000
0000
0001
0000
0000
1000
0000
0000
0001
0000
0000
0000
0000
0000
0000
0000
0000
0000
0000
0000
,
1000
0000
0000
0100
0000
0000
1000
0000
0000
0100
0000
0000
1000
0000
0000
0100
0000
0000
1000
0000
0000
0100
0000
0000
1000
0000
0100
0000
0010
0000
0001
0000
0000
0100
0000
0000
0001
0000
0000
0100
0000
0000
0001
0000
0000
0100
0000
0000
,
0001
0000
0000
0100
0000
0000
0001
0000
0000
0100
0000
0000
0001
0000
0000
0100
0000
0000
0001
0000
0000
0100
0000
0000
0001
0000
0100
0000
0010
0000
1000
0000
0000
0010
0000
0000
1000
0000
0000
0010
0000
0000
1000
0000
0000
0010
0000
0000
,
1000
0000
0000
0010
0000
0000
1000
0000
0000
0010
0000
0000
1000
0000
0000
0010
0000
0000
1000
0000
0000
0010
0000
0000
1000
0000
0010
0000
0100
0000
0001
0000
0000
0010
0000
0000
0001
0000
0000
0010
0000
0000
0001
0000
0000
0010
0000
0000
,
0001
0000
0000
0000
0000
0000
0010
0000
0000
0000
0000
0000
0001
0000
0000
0000
0000
0000
0010
0000
0000
0000
0000
0000
0001
0000
0000
0000
0000
0000
0010
0000
0000
0000
0000
0000
0001
0000
0000
0000
0000
0000
0010
0000
0000
0000
0000
0000
0001
0000
0000
0000
0000
0000
0010
0000
0000
0000
0000
0000
0001
0000
0000
0000
0000
0000
0010
0000
0000
0000
0000
0000
0001
0000
0000
0000
1000
0000
0000
0000
0001
0000
0000
0000
1000
0000
0000
0001
0000
0000
1000
0000
0000
0001
0000
0000
,
1000
0000
0000
0000
0000
0000
0001
0100
0001
0100
0000
0000
0000
0000
0000
0010
0000
0000
0000
0000
0000
1000
0100
1000
,
0001
0010
0001
0100
0010
0100
0010
1000
0100
0010
0001
0100
0010
1000
0001
0100
,
0010
1000
0001
0010
0001
0100
0010
1000
0100
0010
0100
1000
0010
1000
0001
0100
0010
1000
0100
0010
0001
0010
0001
1000
,
0001
1000
0001
0100
0010
1000
0100
0010
0100
1000
0001
0010
0100
0010
0001
0010
,
0100
0010
0001
1000
0001
0010
0100
0010
0001
0100
0001
1000
0010
1000
0010
1000
0100
0010
0100
0010
0001
0010
0001
1000
,
0010
1000
0001
0010
0001
0100
0010
1000
0100
1000
0010
1000
0100
0010
0001
0010
,
0001
0010
0100
1000
0100
0010
0100
0010
0001
1000
0010
1000
0010
0100
0001
0010
,
0100
1000
0010
1000
0100
1000
0001
0100
0001
1000
0010
0100
0010
1000
0001
1000
0100
1000
0001
0010
0001
0010
0100
0010
,
0001
0010
0001
0000
0000
0000
0010
0100
0010
0000
0000
0000
0100
1000
0100
0000
0000
0000
0000
0000
1000
0001
1000
0001
1000
0000
0000
0000
0010
0000
0000
0000
,
0100
0010
0100
0010
1000
0100
0010
0001
0010
0100
0010
0001
0100
0010
0100
0001
,
0100
0001
1000
0001
1000
0010
1000
0001
0100
0001
0100
0001
0010
0100
0010
0001
0010
0001
0100
0010
0100
0010
1000
0001
,
0100
0010
0100
0010
1000
0010
0100
0001
0100
0001
1000
0001
0100
0010
0100
0010
,
1000
0100
1000
0001
0010
0100
1000
0010
1000
0001
0100
0010
1000
0001
0100
0010
1000
0100
1000
0100
0010
0001
0010
0100
,
0010
0001
0010
0100
0010
0100
1000
0010
1000
0010
1000
0100
0010
0100
1000
0100
,
1000
0001
0100
0001
1000
0010
1000
0001
0010
0100
1000
0100
1000
0001
1000
0001
,
0100
0001
0010
0100
1000
0010
0100
0001
0010
0100
0010
0100
0010
0001
1000
0010
0100
0001
0100
0010
0100
0001
1000
0100
,
1000
0100
1000
0000
0000
0000
0100
0010
0100
0000
0000
0000
0010
0001
0010
0000
0000
0000
0100
0010
0100
0000
0000
0000
1000
0100
1000
0100
1000
0100
1000
0100
,
1000
0100
0010
0001
1000
0001
0010
0100
1000
0001
1000
0100
0010
0001
1000
0001
0010
0100
1000
0001
1000
0100
0010
0001
,
1000
0000
0000
0000
0001
0000
0000
0000
0010
0000
0000
0000
0100
0000
0000
0000
1000
0000
0000
0000
0001
0000
0000
0000
1000
0000
0000
0000
0100
0000
0000
0000
0010
0000
0000
0000
0001
0000
0000
0000
1000
0000
0000
0000
0001
0000
0000
0000
0010
0000
0000
0100
0000
0000
0010
0000
0000
0000
0000
0000
0000
0000
0000
0000
0000
0000
0100
0000
0000
1000
0000
0000
0100
0000
0000
0000
0000
0000
0000
0000
0000
0000
0000
0000
1000
0000
0000
0001
0000
0000
1000
0000
0000
0001
0000
0000
,
1000
0000
0000
0000
0000
0000
0001
0000
0000
0000
0000
0000
1000
0010
1000
0010
0100
0001
0100
0001
0010
0001
0010
0100
,
1000
0000
0000
0000
0000
0000
0000
0000
0000
0100
0000
0000
0000
0000
0000
0000
0000
0000
0010
0000
0001
0000
0010
0000
0100
0000
0000
0000
0000
0000
0000
0000
0000
1000
0000
0000
0000
0000
0000
0000
0000
0000
0001
0000
0000
0000
0000
0000
,
1000
0001
1000
0001
1000
0001
1000
0001
1000
0001
1000
0001
1000
0001
1000
0001
1000
0000
0000
0000
0000
0000
0000
0000
0000
0000
0000
0000
0000
0000
0000
0000
,
0100
1000
0100
1000
0100
1000
0100
1000
0100
1000
0100
1000
0001
1000
0100
1000
0100
1000
0100
1000
0100
1000
0100
1000
,
0001
1000
0100
1000
0100
1000
0001
1000
0100
1000
0100
1000
0001
1000
0100
1000
0100
1000
0001
0000
0000
0000
0000
0000
;
