#TITLE:ハイパーゴアムササビスティックディサピアリジーニャス;
#SUBTITLE:;
#ARTIST:nyanyannya feat.P丸様。;
#TITLETRANSLIT:Hyper Gore Flying Squirrel Stick Disappear-y Genius;
#SUBTITLETRANSLIT:;
#ARTISTTRANSLIT:nyanyannya feat.Pmaru sama.;
#GENRE:POP;
#CREDIT:;
#MUSIC:Hyper Gore Flying Squirrel Stick Disappear-y Genius.ogg;
#BANNER:Hyper Gore Flying Squirrel Stick Disappear-y Genius.png;
#BACKGROUND:Hyper Gore Flying Squirrel Stick Disappear-y Genius-bg.png;
#CDTITLE:;
#SAMPLESTART:60.973;
#SAMPLELENGTH:15.143;
#SELECTABLE:YES;
#OFFSET:1.491;
#BPMS:0.000=158.491
,166.000=79.245
,166.500=158.491
,273.250=117.491
,274.000=158.491
;
#STOPS:;
#DISPLAYBPM:79.000:158.000;
#LASTBEATHINT:1.209326;
#BGCHANGES:8.000=Hyper Gore Flying Squirrel Stick Disappear-y Genius.avi=1.000=0=0=0=StretchNoLoop====,
99999.000=-nosongbg-=1.000=0=0=0=StretchNoLoop====
;
#FGCHANGES:;

//--------------- dance-single - ----------------
#NOTES:
     dance-single:
     :
     Medium:
     12:
     0,0,0,0,0:
0000
0000
0000
0000
,
0000
0000
0000
0000
,
0000
0000
0000
0000
,
0001
0010
0001
0010
0100
1000
0001
0000
,
1000
0010
1000
0010
0100
0001
1000
0000
,
0001
0100
0001
0100
0010
1000
0001
0000
,
1000
0100
1000
0100
0001
0100
1001
0000
,
0001
0000
0100
0000
1000
0000
0100
0000
0001
0000
0000
1000
0000
0100
0000
0000
,
1000
0000
0100
0000
0001
0000
0100
0000
1000
0000
0000
0001
0000
0100
0000
0001
,
0000
1000
0100
1000
0001
0100
0010
0100
,
1000
0100
0001
0010
2000
0000
3010
0000
,
0001
0000
0010
0000
1000
0000
0010
0000
0001
0000
0000
1000
0000
0010
0000
0000
,
0001
0000
0010
0000
1000
0000
0000
0100
0000
0000
1000
0000
0000
0001
0000
0100
,
0000
0010
1000
0100
0001
0100
1000
0010
,
0100
0001
0100
0001
1000
0100
0110
0000
,
0011
0000
1100
0000
1000
0010
0100
0000
,
0100
0001
1000
0000
1000
0100
0010
0000
,
0110
0000
1001
0000
0001
0100
0010
0000
,
0010
1000
0001
0000
0001
0010
0100
0000
,
1100
0000
0101
0000
0100
0001
0010
0000
,
0010
0100
1000
0000
1000
0010
0001
0000
,
0011
0000
0000
1010
0000
0000
1000
0000
1100
0000
0000
0101
0000
0000
0010
0000
,
0110
1001
0110
1001
,
1000
0001
0000
0001
0000
0001
0100
0000
0001
0000
1000
0000
0100
0000
0010
0000
,
0001
1000
0000
1000
0000
1000
0100
0000
1000
0000
0001
0000
0100
0000
0010
0000
,
1000
0001
0000
0001
0000
0001
0010
0000
0001
0000
1000
0000
0010
0000
0100
0000
,
0001
1000
0000
1000
0000
1000
0010
0000
0100
0000
0001
0000
1000
0000
0000
0000
,
1000
0000
0100
0000
0010
0000
0100
0000
1000
0000
0000
1000
0000
0000
0001
0000
,
0100
0000
0000
0101
0000
0000
0001
0000
1000
0000
0000
1100
0000
0000
0001
0000
,
0100
0000
0010
0000
0100
0000
0010
0000
1000
0000
0000
0001
0000
0000
1000
0000
,
1100
0000
0000
1001
0000
0000
0001
0000
0101
0000
0000
1001
0000
0000
1000
0000
,
0010
0100
1000
0001
0010
1000
0100
0001
,
0100
0000
0000
0110
0000
0000
1000
0000
0001
0000
0000
1001
0000
0000
1000
0000
,
0010
0000
0100
0000
0001
0010
1000
0000
,
0001
0100
1000
0010
0100
0001
0101
0000
,
0001
0100
0010
0100
1000
0100
0001
0000
,
1000
0100
0010
0100
1000
0001
0100
0000
,
1000
0100
0001
0010
0100
1000
0001
0000
,
0101
0000
0000
1100
0000
0000
0101
0000
0000
1100
0000
0000
0011
0000
0000
0101
,
0000
0000
1010
0000
0000
0100
0000
0110
0000
0000
1001
0000
0000
0010
0000
0110
,
0000
0000
1001
0000
0000
0001
0000
0010
0000
1000
0000
0010
0000
0001
0000
1000
,
0000
0000
0000
1001
0000
0000
0000
0000
0210
0000
0301
0000
0010
0000
0100
0000
,
1000
0010
0100
0101
0000
0001
0010
2000
,
0000
0000
3010
0000
0001
0000
1000
0000
0000
1000
0000
0000
0010
0000
0100
0000
,
0000
0100
0000
0000
0001
0000
0010
0000
1000
0000
0001
0000
0100
0000
1000
0000
,
0010
0100
0010
1000
0000
1001
0000
0001
,
0010
0100
1000
1100
0000
1000
0010
0002
,
0000
0013
0000
0100
0001
0010
0100
0010
,
0001
1000
0000
1000
0010
0100
0010
1000
,
0100
0010
0001
2000
0100
0000
0001
0001
,
0000
0010
0000
0000
3100
0000
0010
0000
0001
0000
1000
0000
0001
0000
0110
0000
,
0000
1001
0000
0002
0000
0000
0000
0023
,
0000
0230
0000
2300
0000
3002
0000
0203
,
0000
0000
0000
0320
0000
0000
0000
0000
,
0000
2030
0000
0000
0000
0000
0000
3002
,
0000
0000
0000
0023
0000
0000
0000
0230
,
0000
2300
0000
3002
0000
0203
0000
0320
,
0000
0000
0030
2020
0000
0000
0000
3030
,
0000
2002
0000
0000
0000
3003
0000
0201
,
0000
0301
0000
1000
0000
0010
0100
0000
,
0010
1000
0001
0000
0010
0100
1000
0001
,
0000
1000
0100
1000
0000
0001
0100
0001
,
0000
1000
0100
1100
0000
0101
0000
1001
,
0000
1001
0000
0001
0100
1000
0000
1000
,
0100
0001
0000
1000
0100
0001
0100
1000
,
0000
1001
0100
0020
0000
0100
0000
0130
,
0010
0000
1001
0000
0000
0000
0101
0000
0000
1010
0000
0000
1100
0000
0000
0011
,
0000
0000
0101
0000
0000
1010
0000
0000
1100
0000
0000
0110
0000
1001
0000
0000
,
0000
1001
0000
0000
0000
2000
0000
0000
3010
0000
0000
0000
0100
0000
0001
0000
,
1000
0100
0110
0000
1000
0010
0002
0000
,
0013
0000
0010
1000
0100
0010
0001
1000
,
0010
0000
0100
0001
1000
0001
0010
0100
,
1000
0000
0001
0100
1000
0100
0001
0010
,
0100
0000
1000
0000
1100
0000
0000
0101
0000
0000
1100
0000
0102
0000
0000
0000
,
1003
0000
0010
0000
0100
0000
0001
1000
,
0001
1000
0100
0000
0010
0001
0010
0001
,
1000
0010
1000
0010
0100
0001
0010
0100
,
2000
0002
0000
0000
,
0000
0000
0000
3003
,
0001
0010
0001
0010
0100
1000
0001
0000
,
1000
0020
0000
0130
0002
0000
0013
0100
,
1000
0100
1000
0100
0010
0001
1000
0000
,
0001
0200
0000
0310
2000
0000
3001
0010
,
0100
0100
1000
1000
0001
0001
0200
0000
,
0310
0000
1000
0000
0000
0001
0000
0100
0000
0010
0000
0100
0000
0001
1000
0000
,
0100
0000
0010
0000
0001
0000
1000
0010
0000
0100
0000
0002
0000
2000
0000
0000
,
0000
0000
0000
0000
,
0000
0000
0000
0000
,
0000
0000
0000
0000
,
3003
0000
0000
0000
;

//--------------- dance-single - ----------------
#NOTES:
     dance-single:
     :
     Hard:
     15:
     0,0,0,0,0:
0000
0000
0000
0000
,
0000
0000
0000
0000
,
0000
0000
0000
0000
,
0001
0100
0001
0100
0010
0000
0010
0000
1000
0000
1000
0000
0001
0000
0001
0000
,
1000
0100
1000
0100
0010
0000
0010
0000
0100
0000
0100
0000
1000
0000
0010
0000
,
0100
0010
0100
0010
1000
0000
1000
0000
0001
0000
0001
0000
0100
0000
0100
0000
,
0010
0100
0010
0100
0001
0000
0001
0000
1000
0000
1000
0000
0110
0000
0000
0000
,
0001
0000
0100
0000
1000
0000
0100
0000
0001
0010
0000
0010
0000
0100
0000
0000
,
1000
0000
0100
0000
0001
0000
0100
0000
1000
0010
0000
0010
0000
0100
0000
0002
,
0000
0000
1003
0000
0100
0000
1000
0000
0001
0000
1000
0100
0000
0010
0000
0100
,
0010
0001
1000
0000
0010
0000
0001
0000
0020
0000
0000
0000
1030
0000
0000
0000
,
1000
0000
0100
0000
0010
0000
0100
0000
1000
0001
0000
0001
0000
0200
0000
0000
,
0310
0000
1000
0000
0001
0100
0000
0100
0010
0000
0010
1000
0000
0001
0000
0020
,
0000
0000
0130
0000
1000
0000
0001
0000
0100
0000
0010
1000
0000
1000
0000
0001
,
0100
0001
0100
0000
0010
1000
0001
0000
0010
0000
0100
0000
1001
0000
0000
0000
,
0001
0000
0100
0000
1000
0000
0100
0000
0001
0000
0000
0001
0010
0000
0100
0000
,
1000
0000
0001
0100
0000
0001
0100
0000
0010
0000
1000
0000
0100
0000
0010
0000
,
0100
0000
1000
0010
0000
0100
0001
0000
0010
0000
0100
0000
1100
0000
0000
0000
,
1000
0000
0010
0000
0100
0000
0010
0000
1000
0000
0001
0010
0100
0000
1000
0000
,
0001
0000
0100
0010
0000
0100
0010
0000
1000
0000
0001
0000
0010
0000
0100
0000
,
1000
0001
0000
1000
0001
0000
0010
0000
0100
0000
1000
0000
0001
0000
1000
0000
,
0001
0000
0100
0010
0000
0000
1000
0000
0100
0010
0001
1000
0000
0000
0001
0000
,
1001
0000
1000
0010
0001
0000
1000
0100
0001
0000
1000
0000
0110
0000
0000
0000
,
0001
1000
0000
1000
0000
1000
0100
0000
0010
0000
0100
1000
0100
1000
0001
0000
,
0100
0001
0000
0001
0000
0001
0010
0000
0100
0010
0100
0010
0001
0000
0010
0000
,
0100
1000
0000
1000
0000
1000
0010
0000
0100
0000
0001
0010
0001
0010
0100
0000
,
1000
0001
0000
0001
0000
0001
0100
0000
0010
0000
0100
0001
1000
0000
0100
0000
,
0010
0000
0001
0000
1000
0000
0100
0000
0010
0001
0000
1000
0100
0000
0001
0000
,
0100
0000
0000
1100
0000
0000
1000
0000
0001
0000
0000
0101
0000
0000
0001
0000
,
0100
0000
0010
0000
1000
0000
0001
0000
0100
0000
0010
1000
0000
0000
0001
0000
,
0011
0000
0000
1100
0000
0000
1000
0000
1010
0000
0000
0101
0000
0000
1000
0100
,
0010
0100
1000
0001
0100
1000
0100
0001
,
0010
0000
0000
1001
0000
0000
0010
0000
0100
0000
0000
1001
0000
0000
1000
0000
,
0001
0000
0100
0000
0010
0100
0000
0000
0001
0010
0100
2000
0000
0000
3010
0000
,
0100
0001
0100
0000
0010
1000
0000
0001
0010
0000
0100
0000
1100
0000
0000
0000
,
1000
0000
0010
0100
0000
0001
0000
1000
0000
0001
0010
0001
0010
0000
0100
1000
,
0100
0000
1000
0000
0010
0100
0000
0010
1000
0000
0001
0010
0001
0000
0100
0000
,
0010
1000
0001
0000
0010
0100
0000
1000
0010
0000
0100
0001
0100
0000
0010
0000
,
1000
0000
1000
0100
0000
0100
0010
0000
0010
0001
0000
0001
1000
0000
1000
0010
,
0000
0010
0100
0000
0100
0001
0000
0011
0000
0000
1100
0000
0000
1000
0000
1010
,
0000
0000
0101
0000
0000
0001
0000
0010
0000
1000
0000
0010
0000
0001
0000
0100
,
0000
0000
0000
1001
0000
0000
0000
0000
0210
0000
0301
0000
1000
0100
0000
0100
,
1000
0010
0100
0001
1000
0001
0010
2000
,
0000
0000
3010
0000
0001
0000
0011
0000
0000
1100
0000
0000
0100
0000
1010
0000
,
0000
0101
0000
0000
0001
0000
1000
0100
1000
0100
0010
0000
0100
0000
1000
0000
,
1000
0000
0010
0000
0010
0000
0100
0000
0001
0000
1000
0000
0001
0100
0000
0100
,
0001
0010
0100
0001
0100
1000
0010
0002
,
0000
0000
0013
0000
1000
0000
0100
0000
0010
0000
0100
1000
0000
0010
0000
0100
,
0001
0000
1000
0000
0100
0000
0010
0000
0100
0000
1000
0000
0001
0100
0000
0010
,
0100
0000
1000
0000
0100
0001
0020
0000
0100
0000
0000
0000
0001
0000
0001
0000
,
0000
0100
0000
0000
0130
0000
0010
0000
0001
1000
0001
0000
0100
0000
0110
0000
,
0000
1001
0000
2000
0000
0000
0000
3020
,
0000
0230
0000
0302
0000
0023
0000
0230
,
0000
0000
0000
0000
0000
0000
0000
0000
0000
1300
0000
0100
0000
1000
0000
0100
0000
1000
0000
0100
0000
1000
0000
0100
,
0000
1000
0000
0001
0000
0100
0000
0001
0000
0100
0000
0001
0000
0100
0000
0001
0000
0100
0000
0001
0000
2000
0000
0000
,
0000
0000
0000
3002
0000
0000
0000
2003
,
0000
3020
0000
0230
0000
0302
0000
2003
,
0000
3000
0000
2020
0000
0000
0000
3030
,
0000
2002
0000
0000
0000
3003
0000
0202
,
0000
0303
0000
1000
0000
0010
0000
0100
,
0000
0001
0000
1000
0001
0010
0100
1000
,
0000
1010
0000
0010
0000
0101
0000
0010
,
0000
0000
1100
0000
0000
0000
1000
0000
0001
0000
0001
0100
0000
0010
1000
0000
,
0001
0010
0001
0010
0100
0000
1000
0000
0001
0000
0100
0010
0000
0100
0001
0000
,
1000
0100
1000
0100
0010
0000
0001
0000
1000
0000
0010
0100
0000
0100
0010
0000
,
1000
0001
0000
0001
1000
0000
1200
0000
0000
0000
0010
0000
0000
0000
0310
0000
,
0100
0000
1001
0000
0000
0001
0100
0000
0100
1000
0000
0001
0010
0000
0010
1000
,
0000
1000
0100
0000
0100
0001
0000
1000
0010
0000
0010
0001
0000
0001
0100
0000
,
0100
0001
0000
0000
0001
2000
0000
0000
3010
0000
0100
0001
0000
0001
1000
0000
,
0010
0001
0010
1000
0001
0010
2000
0000
,
3010
0000
0000
0000
0001
0000
0100
0010
0000
0010
0100
0000
0001
0000
1000
0100
,
0000
0100
1000
0000
0010
0000
0100
0000
1000
0000
0100
0000
0001
0000
0010
0000
,
0100
1000
0100
1000
0001
0000
0100
0000
0010
1000
0000
0001
0000
0010
0100
0000
,
1000
0000
0001
0000
0100
0000
0000
1010
0000
0000
0101
0000
1002
0000
0000
0000
,
0013
0000
0000
0000
0100
0000
1000
0000
0001
0000
0100
0000
0010
1000
0000
0100
,
0000
1000
0001
0000
0100
0000
0010
0000
0100
0000
0001
0010
0001
0010
0100
1000
,
0100
1000
0001
0010
0100
0000
0100
1000
0001
0000
0100
0000
0010
0000
1000
0000
,
0001
0100
0001
0100
0020
0000
0000
0000
0000
0000
0000
0000
0000
0000
0000
0000
,
0000
0000
0000
0000
,
0130
0001
0100
0001
1000
0000
1000
0000
0010
0000
0010
0000
1000
0000
0100
0000
,
0010
0001
2000
0000
0000
0000
3010
0000
0200
0000
0000
0000
0301
0000
1000
0000
,
0001
0100
0001
0100
0010
0000
0010
0000
0100
0000
0100
0000
0001
0000
1000
0000
,
0010
0100
0002
0000
0000
0000
0013
0000
0200
0000
0000
0000
1300
0000
0010
0000
,
0100
0001
0100
0001
1000
0000
1000
0000
0010
0000
0010
0000
0200
0000
0000
0000
,
0301
0010
0100
1000
0000
0001
0000
1000
0100
0010
0001
1000
0000
0010
0100
0000
,
0001
1000
0001
1000
0010
0100
0001
0010
0000
0100
0000
2000
0000
0002
0000
0000
,
0000
0000
0000
0000
,
0000
0000
0000
0000
,
0000
0000
0000
0000
,
3003
0000
0000
0000
;

//--------------- dance-single - ----------------
#NOTES:
     dance-single:
     :
     Challenge:
     17:
     0.93548,1.07685,0.329985,0.300653,1.279607,893,848,45,41,0,0,0.93548,1.07685,0.329985,0.300653,1.279607,893,848,45,41,0,0:
0000
0000
0000
0000
,
0000
0000
0000
0000
,
0000
0000
0000
0000
,
0001
1000
0001
1000
0100
0000
0100
0000
0010
0000
0010
0000
0001
0000
0110
0000
,
1000
0001
1000
0001
0100
0000
0100
0000
0010
0000
0010
1000
0001
0010
0100
1000
,
0010
0100
0010
0100
0001
0000
0001
0000
1000
0000
1000
0000
0010
0000
0110
0000
,
0100
0001
0100
0001
1000
0100
1000
0100
0010
0100
1000
0001
0010
0000
0100
1000
,
0001
0000
0010
0000
1000
0000
0010
0000
0001
0100
0000
0010
0000
1020
0000
0000
,
1030
0000
0010
0000
0001
0000
0010
0000
1000
0100
0000
0010
0000
0100
0000
1000
,
0001
0000
0100
1000
0100
0000
0010
0000
1000
0100
0010
0001
0000
0011
0000
0010
,
0100
1000
0010
0100
1000
0100
0001
0010
2000
0000
0000
0000
3010
0000
0010
0001
,
0100
0000
0010
0000
0100
0000
0001
0000
1000
0100
0000
0001
0000
0200
0000
0000
,
1300
0000
0010
0000
0001
0010
0000
0010
0100
0000
0100
0001
0000
1000
0000
0100
,
0000
0010
0001
0010
0100
0000
1000
0000
0001
0100
0010
1000
0000
0001
0000
0010
,
0100
0010
0100
1000
0001
1000
0001
0100
0010
0000
0110
0000
1001
0000
0000
0000
,
0000
0101
0000
0001
1000
0001
0010
0100
0010
0100
1000
0001
0100
0010
1000
0000
,
0001
0010
0100
1000
0001
0100
0000
0010
0000
0010
1000
0001
1000
0100
0010
0000
,
0000
0100
0000
1000
0100
0010
0100
1000
0100
0010
0001
0010
0100
0000
0000
0000
,
0000
1000
0001
0000
0001
0100
0010
0100
0001
0000
0001
0010
0100
1000
0001
0010
,
0100
1000
0010
1000
0010
0001
1000
0100
0001
0100
0001
1000
0100
0000
0000
0000
,
0000
1000
0010
0000
0010
1000
0010
0100
0001
0000
0001
0010
0100
0000
1000
0000
,
1100
0000
0001
0100
0000
0000
0101
0000
1000
0100
0010
0001
0000
0000
0010
0000
,
1001
0000
0001
0100
1000
0000
1000
0100
0001
0010
1000
0000
0110
0000
0001
0010
,
0100
1000
0000
1000
0000
1000
0010
0000
0100
0000
0100
0001
0010
0100
1000
0100
,
0010
0000
0000
0001
0000
0000
0000
0000
0000
0001
0000
0000
0000
0000
0000
0001
0000
0000
0010
0000
0000
0000
0000
0000
0100
0000
1000
0000
0100
0000
1000
0000
0100
0000
1000
0000
0001
0000
0000
0000
0000
0000
0101
0000
0000
0000
0000
0000
,
0001
1000
0000
1000
0000
1000
0010
0000
0100
0000
0001
0010
0100
1000
0001
0000
,
1000
0000
0000
0100
0000
0000
1000
0000
0000
0000
0000
0000
0001
0000
0000
0100
0000
0000
0001
0000
0000
0000
0000
0000
0100
0000
0010
0000
0100
0000
0010
0000
0000
1000
0000
0000
0001
0000
0000
0000
0000
0000
0001
0000
0000
0010
0000
0000
,
0100
0000
1100
0000
0100
0000
0101
0000
1000
0010
0000
0100
0010
0000
0001
0010
,
0100
0000
0000
0011
0000
0000
1000
0010
0100
0000
0000
1010
0000
0010
1000
0001
,
0100
0001
1000
0100
1000
0001
0010
0100
1000
0001
0100
0010
0000
0010
1000
0100
,
0010
0000
0000
0011
0000
0000
0001
0100
0010
0000
0000
1010
0000
0000
1000
0100
,
0010
0000
1000
0000
0010
0001
1000
0000
0001
0100
1000
0000
0100
0000
0001
0010
,
0100
0000
0000
1001
0000
0000
0010
0100
0010
0000
0000
1001
0000
0100
0010
0000
,
0110
0000
0001
0000
0010
0100
0000
0000
0100
1000
0010
0002
0000
0000
0013
0000
,
1000
0100
0010
0000
1000
0010
0000
0001
0010
0000
0100
0000
1000
0010
0100
0001
,
1000
0001
0010
0100
1000
0001
0000
0010
0000
0010
0100
0010
0001
0000
1000
0100
,
1000
0100
0010
0000
0010
0100
0000
1000
0010
1000
0010
0100
0001
0000
0001
0010
,
0100
0000
0000
1000
0000
0000
0100
0000
0000
1000
0000
0000
0010
0000
0000
0001
0000
0000
1000
0000
0000
0100
0000
0000
1000
0000
0000
0100
0000
0000
0001
0000
1000
0000
0001
0000
1000
0000
0000
0000
0000
0000
1000
0000
0000
0100
0000
0000
,
0010
0000
0010
0001
0000
0001
1000
0010
0000
0010
0100
0000
0100
0001
0100
0001
,
0000
0001
1000
0100
1000
0100
0010
0100
0000
1000
0001
0000
0100
0000
0010
0100
,
0000
0001
1000
0000
0100
0000
1000
0001
0010
0100
1000
0001
0010
0100
1000
0001
,
0010
0000
0100
0000
0110
0000
0010
0001
2000
0000
3010
0000
0100
0001
0000
0001
,
0010
0000
0100
0000
1100
0000
1000
0100
0010
0100
0001
0100
1000
0010
0002
0000
,
0000
0000
0013
0000
0100
0001
0010
0000
0001
1000
0000
0100
0010
0100
0010
0000
,
0001
1000
0000
0010
0100
0010
1000
0000
1000
0100
0010
0000
0010
0100
1000
0001
,
0100
0000
0010
1000
0010
1000
0100
0010
0001
0000
0010
0000
0100
1000
0000
1000
,
0010
0000
0100
0000
0101
0000
0001
0100
0010
0100
1000
0100
0001
0010
2000
0000
,
0000
0000
3010
0000
0001
0010
0100
1000
0010
0100
0010
1000
0100
0010
0001
0100
,
0010
0100
0001
0010
0100
1000
0010
0100
0010
0100
0001
1000
0001
1000
0010
0100
,
0001
0010
0100
1000
0001
0010
0200
0000
0010
0000
0000
0000
1000
0000
1000
0000
,
0000
0001
0000
0000
0310
0000
1001
0000
0001
0100
1000
0000
0100
0000
0001
0010
,
0001
0010
1000
0000
0000
0000
1020
0000
0000
0000
0100
0000
0000
0000
0032
0000
,
0000
2003
0000
3020
0000
0230
0000
0302
,
0000
0000
0000
1003
0000
0000
0000
0000
0000
0001
0000
0100
0000
0001
0000
1000
0000
0100
0000
1000
0000
0010
0000
0100
,
0000
0010
0000
1000
0000
0100
0000
1000
0000
0001
0000
0100
0000
0001
0000
0010
0000
0100
0000
1000
0000
2001
0000
0000
,
0000
3100
0000
1002
0000
0100
0000
0203
,
0000
0320
0000
2030
0000
3200
0000
0320
,
0000
0031
0000
0022
0000
0000
0000
0033
,
0000
2002
0000
0000
0000
3003
0000
2100
,
0000
3001
0010
0200
0000
0000
2300
0000
,
0000
0000
3010
0000
0200
0000
0000
0000
0301
0000
1000
0001
0000
0100
0000
0000
,
0100
0001
0000
0010
0000
0100
0000
0000
1000
0000
0001
0100
0000
0010
0000
0000
,
1000
0000
0010
0100
0000
0001
0000
0000
1000
0000
0001
0000
0010
0000
0100
0000
,
0000
0010
0001
2000
0000
0000
3001
0100
,
0010
0100
0010
0000
1000
0000
0001
0000
0010
0000
0100
0000
0000
0000
1001
0000
,
0000
0000
0110
0000
0010
1000
0001
0000
0010
0000
0100
1000
0000
0000
0010
0000
,
0100
0000
1001
0000
0000
0000
0001
0010
0001
0010
0100
1000
0100
1000
0010
0100
,
0010
0100
0001
0010
0100
1000
0001
0100
1000
0100
0001
1000
0100
0001
0100
1000
,
0100
0010
0001
1000
0010
0002
0000
0000
0013
0000
1000
0100
0000
0100
0010
0000
,
0100
0000
1000
0000
0010
0100
0010
0001
1000
0100
0001
0010
2000
0000
0000
0000
,
3010
0000
0001
0000
0101
0000
1000
0010
0000
0000
1000
0000
1100
0000
0001
0010
,
0000
0000
0010
0100
1000
0010
0100
0001
0010
0100
0010
0001
0100
0010
1000
0100
,
0010
0100
1000
0010
0100
0010
1000
0100
0010
0001
0000
0100
0000
0010
0100
0010
,
1000
0000
0000
0001
0000
0000
0000
0000
0000
0010
0000
0000
0100
0000
0000
0000
0000
0000
0000
0000
0000
1100
0000
0000
0000
0000
0000
0000
0000
0000
0101
0000
0000
0000
0000
0000
1001
0000
0000
0000
0000
0000
1000
0000
0100
0000
0010
0000
,
0001
0000
0010
0100
1000
0000
0010
0100
0000
0100
0001
0000
1000
0100
0010
0001
,
1000
0000
0001
0100
0010
1000
0010
0100
0000
0100
0001
0010
1000
0001
0100
1000
,
0100
0001
1000
0010
0001
0100
0010
1000
0001
0000
0010
0000
0100
0000
1000
0000
,
0001
0100
0001
0100
0020
0000
0000
0000
0000
0000
0000
0000
0000
0000
0000
0000
,
0000
0000
0000
0000
,
0130
0001
0100
0001
1000
0000
1010
0000
0001
0000
0101
0000
1000
0000
1100
0000
,
0100
1000
0002
0000
0000
0000
0013
0000
2100
0000
0000
0000
3010
0000
0100
0000
,
0010
1000
0010
1000
0001
0000
0011
0000
1000
0000
1010
0000
0001
0000
0101
0000
,
0100
0001
2000
0000
0000
0000
3010
0000
0102
0000
0000
0000
1003
0100
0010
0001
,
1000
0010
1000
0010
0100
0001
0100
0001
0010
0100
0010
0100
2000
0000
0000
0000
,
3001
0010
0100
1000
0000
0010
0000
0001
0010
1000
0100
0010
0000
0100
1000
0000
,
0001
0100
1000
0100
0010
1000
0001
0010
0000
0100
0000
2000
0000
0002
0000
0000
,
0000
0000
0000
0000
,
0000
0000
0000
0000
,
0000
0000
0000
0000
,
3003
0000
0000
0000
;
