#TITLE:百花繚乱花吹雪;
#SUBTITLE:;
#ARTIST:hololive IDOL PROJECT(白上フブキ, 百鬼あやめ, 大神ミオ);
#TITLETRANSLIT:Hyakkaryouran Hanafubuki;
#SUBTITLETRANSLIT:;
#ARTISTTRANSLIT:hololive IDOL PROJECT;
#GENRE:POP;
#CREDIT:;
#MUSIC:Hyakkaryouran Hanafubuki.ogg;
#BANNER:Hyakkaryouran Hanafubuki.png;
#BACKGROUND:Hyakkaryouran Hanafubuki-bg.png;
#CDTITLE:;
#SAMPLESTART:50.439;
#SAMPLELENGTH:11.657;
#SELECTABLE:YES;
#OFFSET:0.969;
#BPMS:0.000=175.000;
#STOPS:;
#BGCHANGES:3.000=Hyakkaryouran Hanafubuki.avi=1.000=0=0=0=StretchNoLoop====,
99999.000=-nosongbg-=1.000=0=0=0=StretchNoLoop====
;
#FGCHANGES:;

//--------------- dance-single - ----------------
#NOTES:
     dance-single:
     :
     Hard:
     12:
     0,0,0,0,0:
0000
0000
0000
0000
,
0110
0000
0010
0100
0010
1000
0000
1010
,
0000
1001
0000
0021
0000
0100
0130
0000
,
1100
0000
1001
0002
0000
0023
0000
0230
,
0000
1300
0001
0100
0001
1001
1001
0001
,
0010
0100
1000
0010
0100
0010
1000
1010
,
0000
0010
1000
0001
0200
0010
0310
0000
,
0000
0020
2030
3200
0320
0230
0302
0203
,
0000
1300
0001
1000
0110
0000
0110
0000
,
1000
0010
0100
0010
1000
0010
0100
0010
,
1000
0100
0010
0100
1000
0100
0010
0100
,
1001
0000
0000
1001
0000
0010
0001
2000
,
0000
0010
0000
0010
0000
0001
3001
0000
,
1000
0001
0000
0001
0010
0000
0010
0100
,
0000
1001
1001
0000
0000
0100
0001
0010
,
0000
0100
1000
0010
0000
0100
0001
1000
,
0000
1000
0001
0101
0000
0000
0100
0001
,
0011
0000
0000
1001
0000
0000
0011
0000
0000
0000
0000
0000
0001
0000
0100
0000
,
0010
0100
0001
0010
0200
0000
0000
1300
,
0100
1000
0100
0001
0100
0001
0100
1000
,
1010
0000
0000
0110
0000
0000
0102
0000
0000
0000
1000
0000
1003
0000
0000
0000
,
0001
0100
0010
0100
1000
0100
0010
0100
,
0100
1000
0100
0010
0100
0001
0100
1000
,
0000
1000
0100
0001
0000
0100
1000
0010
,
0000
0010
0100
0001
1001
0000
0001
0010
,
0100
0000
0000
0110
0000
0000
1001
0000
0000
0000
0000
0000
0001
0000
1000
0000
,
0010
0100
0010
1000
0200
0001
0301
0100
,
1000
0000
0001
0100
0010
0100
0010
1000
,
0100
0101
0000
1100
0000
1001
1002
0000
,
0203
0320
0032
0023
,
2030
0000
0000
3100
0010
0001
1000
0000
,
1001
0100
1001
0100
,
2001
0000
0000
0001
0000
0000
3001
0000
0010
0000
0100
0000
1000
0000
0000
0000
,
0001
0100
1000
0100
0001
0100
1000
0100
,
0001
0010
1000
0010
0001
0010
1000
0010
,
0011
1100
0000
1001
0000
0011
0000
1100
,
0000
0000
1000
0000
0001
0010
0001
0000
0010
0100
0010
0000
0100
1000
0001
0000
,
0000
1000
0100
0010
0002
0000
2003
0000
,
3010
0100
0001
0100
0010
1000
0000
1000
,
0100
0010
0000
1000
0010
0100
1000
0001
,
2000
0000
3001
0100
0000
0110
0000
2010
,
0000
0000
0001
0000
3001
0000
0001
0010
0100
0000
0000
0000
0110
0000
1000
0000
,
0001
0000
0000
0001
0010
0000
0100
0000
0110
0000
0000
1000
0001
0000
0100
0000
,
0110
0000
0000
0010
1000
0000
0001
0000
1001
0000
0010
0000
0100
0000
1000
0000
,
0001
0011
0000
1010
0000
0101
0000
0012
,
0000
1000
1003
0000
0110
0000
0110
0001
,
1000
0010
1000
0100
0001
1000
0000
1000
,
0010
0001
0000
0100
0010
0100
1000
0100
,
0002
0000
0013
0100
0000
1001
0000
0001
,
0020
0100
0130
0000
1100
1000
1001
0100
,
0010
0000
0000
1010
0000
0000
0101
0000
1001
0000
0000
0000
1000
0000
0010
0000
,
0110
0000
0000
0101
0000
0000
1100
0000
0000
0000
1001
0000
1001
0000
0001
0000
,
0010
1000
0001
0100
1000
0001
0100
1000
,
0001
0010
1000
0001
0010
1000
0010
0001
,
0220
0000
0000
0000
,
0000
0000
0330
0110
0000
1001
1001
0000
,
2000
0000
3020
0230
0000
0302
0000
2003
,
0000
3001
0010
0100
1000
0001
1001
0000
;

//--------------- dance-single - ----------------
#NOTES:
     dance-single:
     :
     Challenge:
     16:
     0.373466,0.297974,0,0,0,228,228,0,0,0,0,0.373466,0.297974,0,0,0,228,228,0,0,0,0:
0000
0000
0000
0000
,
1001
0000
0001
0100
0001
0100
0000
0110
,
0000
1010
0000
0102
0000
1000
1003
0000
,
1000
0000
0100
0010
0100
0000
0002
0000
0000
0000
0203
0000
0000
0000
2300
0000
,
0000
3010
0100
0010
1000
1100
0011
0001
,
0010
0000
0100
0001
1000
0000
0010
0000
0001
0000
0100
0000
0010
0000
1010
0000
,
0000
0000
0010
1000
0001
0000
0100
0000
0010
0000
0110
0000
1010
0000
0000
0000
,
1000
0000
1100
0000
0001
0000
0101
0000
0010
0000
0100
0001
0010
0000
0110
0000
,
0000
2000
0010
3010
0110
0000
0110
0000
,
1000
0011
0100
0011
1000
0011
0100
0011
,
0001
1010
0100
1010
0001
1010
0100
1010
,
1001
0000
0000
1001
0000
0010
0001
0200
,
0000
1000
0001
1000
0301
1001
1001
0000
,
1100
0101
0000
0000
0000
0000
0000
1001
,
0000
0011
1100
0000
0000
0000
0000
0101
,
0101
0011
1010
1100
,
0101
0110
0000
0110
0000
0010
1000
0100
,
0011
0000
0000
0011
0000
0010
1100
0000
,
0101
0000
0000
0000
0000
0000
0101
0000
0001
0000
1001
0000
0000
0000
1000
0100
,
0010
0000
1000
0000
0010
0000
0001
0100
0010
0000
0001
0000
0010
0000
1000
0000
,
1010
0000
0000
1001
0000
0000
0102
0000
0000
0000
1000
0000
1003
0000
0000
0000
,
0001
0000
0100
0010
0100
0000
1000
0000
0100
0000
0010
1000
0100
0000
0010
0000
,
0100
1000
0010
0000
0001
0010
0100
0000
0010
0000
1000
0100
1000
0100
0010
0000
,
1000
0000
0010
0100
1000
0000
0001
0000
0100
0000
0010
0100
0010
0000
1000
0000
,
0001
0000
0010
0001
0010
0000
0100
0000
1100
0000
1000
0000
0001
0100
0010
0100
,
0001
0000
0000
0110
0000
0000
1001
0000
0000
0000
1000
0100
1000
0000
0001
0000
,
0010
0000
1000
0000
0010
0000
0001
0000
0200
0000
0010
0000
0310
0000
0100
0001
,
0010
0000
0000
0000
0010
0000
0001
0000
1000
0100
0000
0100
1000
0000
0001
0000
,
0011
0011
0000
1100
0000
1001
2001
0000
,
3020
0000
0230
0000
0301
0010
2000
0000
,
3020
0000
0000
0001
0000
0000
0031
0000
0001
0010
0100
0000
1000
0000
0001
0000
,
0011
0000
0000
1100
0000
0000
0101
0000
,
1002
0000
0000
1000
0000
0000
1003
0000
0011
0000
0010
0001
0010
0000
0100
0000
,
0110
0000
0100
1000
0001
0000
0100
0000
0010
0000
0001
0010
0100
0000
0001
0000
,
0010
0000
0100
0001
0100
0000
1000
0000
0001
0000
0010
0000
1000
0000
0001
0000
,
0101
1100
0000
1001
0000
1010
0000
0101
,
0000
0000
0001
0100
0001
0100
0010
0100
0010
1000
0010
1000
0100
0010
0002
0000
,
0000
0000
1000
0000
0010
0000
1003
0000
1000
0100
0010
0001
1000
0010
1000
0100
,
0010
0000
0010
0001
0100
0000
1000
0000
0100
0000
0100
0001
0010
0000
0011
0000
,
1100
0000
0011
0000
0000
0000
1001
0000
0001
0100
0001
0000
0100
0000
1000
0000
,
0002
0000
0000
0000
1003
0000
0100
0001
0010
0000
1000
0000
0001
0000
0100
1000
,
0010
0000
0110
0000
0110
0000
0100
0010
1001
0000
0000
0000
1002
0000
0010
0000
,
0103
0000
0010
1000
0001
0000
0011
0000
0010
0000
0100
1000
0001
0000
0101
0000
,
0100
0000
0010
1000
0100
0000
0110
0000
0010
0000
0011
0000
0001
0000
0101
0000
,
1100
1100
0000
1010
0000
0101
0000
0011
,
0000
1100
1001
0000
0110
0000
0110
0001
,
1000
0000
0100
0010
1000
0000
0010
0000
0001
0000
0100
0001
1000
0000
0100
1000
,
0010
0000
0100
0000
0010
0000
0100
0001
0010
0000
0100
0000
0001
0000
0100
0000
,
2000
0000
0000
0000
3010
0000
0100
0001
0000
0001
0010
0000
0100
0000
0001
0000
,
0200
0000
1000
0000
1300
0000
0000
0000
0010
0100
0010
0000
0110
0000
0100
0000
,
0110
0000
0000
1010
0000
0000
0101
0000
1001
0000
0000
0000
0011
0000
0010
0000
,
0110
0000
0000
1100
0000
0000
0101
0000
0000
0000
1001
0000
1001
0000
0001
0000
,
1000
0000
0000
1000
0100
0000
0010
0000
1000
0000
0010
0000
0001
0000
0100
0000
,
0010
0000
1001
0000
0100
0000
0001
0100
0010
0001
0010
0000
0110
0000
1000
0000
,
2002
0000
0000
0000
,
0000
0000
3003
0011
0000
1100
0101
0000
,
1010
0000
0100
0001
0010
0000
1100
0000
0000
0000
0011
0000
0000
0000
1001
0000
,
0000
0000
0110
0000
1001
0000
0001
0010
0100
0001
0100
1000
1001
0000
0000
0000
;
