#VERSION:0.83;
#TITLE:百花繚乱;
#SUBTITLE:;
#ARTIST:幾田りら;
#TITLETRANSLIT:Hyakka Ryouran;
#SUBTITLETRANSLIT:;
#ARTISTTRANSLIT:Ikuta Rira;
#GENRE:ANIME;
#CREDIT:;
#MUSIC:Hyakka Ryouran.ogg;
#BANNER:Hyakka Ryouran.png;
#BACKGROUND:Hyakka Ryouran-bg.png;
#CDTITLE:;
#SAMPLESTART:33.035;
#SAMPLELENGTH:12.800;
#SELECTABLE:YES;
#OFFSET:0.565;
#BPMS:0.000=150.000
,116.000=300.000
,122.000=150.000
;
#STOPS:122.021=0.400;
#WARPS:116.021=6.000;
#DISPLAYBPM:150.000;
#BGCHANGES:1.250=Hyakka Ryouran.avi=1.000=0=0=0=StretchNoLoop====,
99999.000=-nosongbg-=1.000=0=0=0=StretchNoLoop====
;
#FGCHANGES:;

//--------------- dance-single - ----------------
#NOTEDATA:;
#STEPSTYPE:dance-single;
#DESCRIPTION:;
#DIFFICULTY:Hard;
#METER:12;
#RADARVALUES:0,0,0,0,0;
#NOTES:
0000
0000
0000
0000
,
0001
0100
1000
0100
0001
0000
1000
0100
,
0001
0100
1000
0000
0010
0000
0010
1000
,
0001
0010
0100
1000
0001
0000
1000
0010
,
0100
0001
1000
0000
0100
0010
0100
0000
,
0010
0001
1000
0001
0200
0000
1300
0100
,
0001
0010
0100
0000
1000
0001
0000
0200
,
0000
0000
0310
1000
0001
0000
0010
0100
,
1000
0000
0001
0000
1000
0010
0100
0000
,
0101
0000
0101
2000
0000
0010
0000
3020
,
0100
0000
1030
0001
0000
0001
0010
0100
,
1100
0000
1100
0002
0000
0010
0000
0013
,
0100
1000
0001
0100
0010
0100
1001
0000
,
0101
0000
0000
0001
0000
0001
0010
0100
,
1000
0001
0000
1000
0000
1000
0001
0100
,
0000
0010
1000
0100
0010
0100
1000
0001
,
0000
0100
0000
0010
1000
0001
1000
0000
,
0001
0010
0100
1000
0000
1000
0100
0010
,
0000
0002
1000
0000
1003
0020
0000
1030
,
0001
0010
0001
0010
0100
1000
0100
1000
,
0020
0000
0030
0110
,
1001
0000
0001
0010
0100
0001
0100
0010
,
0001
0100
1000
0002
0000
0013
1000
0002
,
0000
0013
0100
0020
0000
0130
1000
0002
,
0000
0013
0100
2000
0000
3001
0100
0020
,
0000
0000
0130
0000
0001
0000
0000
1000
0100
0000
0010
0000
0100
0000
2000
0000
,
0000
3001
0000
0001
0100
1000
0100
0010
,
0000
0010
1000
0100
0010
0100
1000
0100
,
0001
0100
1000
0010
0000
0010
0100
0001
,
2002
3003
0000
0000
0000
0000
0000
0000
0000
0000
0000
0000
0000
0000
0000
0000
0000
0000
0000
0000
0000
0000
0000
0000
0000
0000
0000
0000
0000
0000
0000
0000
0000
0000
0000
0000
0000
0000
0000
0000
0000
0000
0000
0000
0000
0000
0000
0000
0000
0000
0000
0000
0000
0000
0000
0000
0000
0000
0000
0000
0000
0000
0000
0000
0000
0000
0000
0000
0000
0000
0000
0000
0000
0000
0000
0000
0000
0000
0000
0000
0000
0000
0000
0000
0000
0000
0000
0000
0000
0000
0000
0000
0000
0000
0000
0000
0000
0000
0000
0000
0000
0000
0000
0000
0000
0000
0000
0000
0000
0000
0000
0000
0000
0000
0000
0000
0000
0000
0000
0000
0000
0000
0000
0000
0000
0000
0000
0000
0000
0000
0000
0000
0000
0000
0000
0000
0000
0000
0000
0000
0000
0000
0000
0000
0000
0000
0000
0000
0000
0000
0000
0000
0000
0000
0000
0000
0000
0000
0000
0000
0000
0000
0000
0000
0000
0000
0000
0000
0000
0000
0000
0000
0000
0000
0000
0000
0000
0000
0000
0000
0000
0000
0000
0000
0000
0000
0000
0000
0000
0000
0000
0000
,
0000
0000
0000
0000
0000
0001
0010
0100
,
1000
0001
0100
1000
0100
0002
0000
1003
,
0100
0002
0000
1003
0010
0002
0000
1003
,
0010
0200
0000
1300
0100
0002
0000
1003
,
0000
0000
0001
0000
0010
0000
0000
0100
1000
0000
0001
0000
0100
0000
0010
0000
,
1000
0001
0000
0001
0010
0000
0100
1000
,
0001
0200
0000
0310
1000
0002
0000
0013
,
0100
1000
0000
1100
0000
0101
0000
0001
,
0010
0100
1200
0000
0001
0000
1000
0000
,
0301
0000
0000
0100
0000
0000
1000
0000
0001
0000
0000
0000
0001
0000
1000
0000
,
0000
0010
0000
0000
0200
0000
0000
0000
1000
0000
0000
0000
0301
0000
0010
0000
,
0100
1000
0000
1000
0001
0100
0000
0100
,
0010
0000
1000
0000
0001
0000
0000
1000
0100
0000
0000
0010
0001
0000
1000
0000
,
0001
0100
0000
0100
0010
0000
1000
0001
,
1000
0010
0000
0010
1000
0001
0000
0001
,
0020
0100
0000
1000
0000
0100
0000
0031
,
0010
0100
1100
0000
1100
0002
0000
0100
,
0000
0103
0010
1000
0001
0010
0000
0010
,
0001
0100
0101
0000
0101
2000
0000
0100
,
0000
0000
3100
0000
0010
0000
0001
0000
0100
0000
0001
1000
0001
0000
0100
0000
,
0010
1000
0001
0010
1000
0010
0001
0000
,
1000
0010
0001
0010
1000
0000
0001
0010
,
0100
1000
0100
0010
0001
1000
0001
0000
,
0100
0010
1000
0001
1000
0000
0100
0010
,
0100
0000
1000
0001
1000
0010
0002
0000
,
1003
0100
0010
1000
0001
0000
0001
1000
,
0000
0020
1000
0000
0001
0000
1030
0000
,
0001
0010
0000
0000
0000
0000
0000
0000
;

//--------------- dance-single - ----------------
#NOTEDATA:;
#STEPSTYPE:dance-single;
#DESCRIPTION:;
#DIFFICULTY:Challenge;
#METER:16;
#RADARVALUES:0.696972,0.52662,0,0,0,440,440,0,0,0,0,0.696972,0.52662,0,0,0,440,440,0,0,0,0;
#NOTES:
0000
0000
0000
0000
,
2100
3001
1200
0310
1100
0000
0102
1003
,
0201
0310
0101
2000
0000
3001
0010
0100
,
2100
0100
0001
3010
0110
0000
0102
0100
,
1000
0013
0110
2000
0000
3001
0200
0000
,
0301
0000
0100
0000
1000
0000
0100
0000
0010
0000
1000
0001
0010
0000
0100
1000
,
0001
0000
0100
0000
0101
0000
0000
0000
1010
0000
1000
0000
0010
0000
0100
0001
,
1000
0000
0000
0000
0000
0000
0100
0000
0000
0010
0000
0000
0001
0000
0000
0000
0000
0000
0100
0000
0000
0001
0000
0000
1000
0000
0000
0100
0000
0000
0010
0000
0000
0001
0000
0000
1000
0000
0000
0100
0000
0000
0010
0000
0001
0000
1000
0000
,
0010
0000
0000
0000
0000
0000
0100
0000
0000
0010
0000
0000
0100
0000
0000
0000
0000
0000
0010
0000
1000
0000
0001
0000
0010
0000
0000
0100
0000
0000
1000
0000
0000
0000
0000
0000
1100
0000
0000
0000
0000
0000
1000
0000
0000
0001
0000
0000
,
0102
0000
0010
0000
0013
0000
1100
0000
0000
0000
0101
0000
0001
0000
1000
0100
,
0010
0000
0010
0100
1000
0000
0020
0000
0000
0000
0130
0001
1000
0000
0001
1000
,
2100
0000
0010
0000
3010
0000
0101
0000
0000
0000
1100
0000
1000
0000
0001
0100
,
0010
0000
0000
0000
0000
0000
0010
0000
1000
0000
0001
0000
0010
0000
0100
0000
0010
0000
0100
0000
0000
1000
0000
0000
0001
0000
0000
0000
0000
0000
0100
0000
0000
0000
0000
0000
0110
0000
0000
0000
0000
0000
0000
0000
0000
0000
0000
0000
,
1001
0000
0000
0000
0001
0000
0110
0000
0000
0000
1001
0000
1000
0000
0001
0010
,
0100
0000
0010
0000
0001
0000
0101
0000
0000
0000
0101
0000
1010
0000
1000
0010
,
0100
0000
0001
0000
1000
0000
1100
0000
0001
0000
0100
0000
0001
0000
1000
0100
,
0010
0000
0000
1001
0000
0000
0000
0000
0000
1100
0000
0000
0000
0000
0000
0011
0000
0000
1001
0000
0000
1000
0100
0010
,
0001
0000
0100
0000
0001
0000
0020
0000
1000
0000
0130
1000
0010
0000
0001
0010
,
0100
0010
2000
0000
0001
0000
3100
0010
0001
0000
0010
0000
0100
0000
1000
0000
,
0101
0001
1100
1000
0110
0100
1001
0100
,
0020
0000
0000
0000
0000
0000
0000
0000
0000
0000
0000
0000
1030
0100
0010
0001
,
1001
0000
0000
1000
0010
0000
0100
0001
1000
0000
0001
0010
0100
0000
0010
0000
,
0001
0000
0010
0100
1000
0010
0002
0000
0010
0000
0013
1000
0001
0010
2000
0000
,
0010
0000
3010
0100
1000
0001
0200
0000
0010
0000
0310
1000
0001
0000
0010
0100
,
1000
0000
0001
0010
0100
0000
1000
0010
0100
0000
0010
0100
0001
0000
0102
0000
,
0000
0000
1003
0001
0010
0000
0000
0010
0100
0000
1000
0000
0001
0000
0101
0000
,
0000
0000
1010
0000
1000
0000
0001
0010
1000
0000
0010
0001
0100
0000
2000
0000
,
0000
0000
3100
0000
0001
0000
1000
0100
0010
0000
0001
0010
0100
0000
1000
0000
,
0001
0000
1000
0010
0100
0000
0010
1000
0001
1000
0001
1000
0001
1000
0001
0010
,
0220
0330
0000
0000
0000
0000
0000
0000
0000
0000
0000
0000
0000
0000
0000
0000
0000
0000
0000
0000
0000
0000
0000
0000
0001
0000
0000
0000
0000
0000
0000
0000
0000
0000
0000
0000
0000
0000
0000
0000
0000
0000
0000
0000
0000
0000
0000
0000
0010
0000
0000
0000
0000
0000
0000
0000
0000
0000
0000
0000
0000
0000
0000
0000
0000
0000
0000
0000
0000
0000
0000
0000
0100
0000
0000
0000
0000
0000
0000
0000
0000
0000
0000
0000
0000
0000
0000
0000
0000
0000
0000
0000
0000
0000
0000
0000
1000
0000
0000
0000
0000
0000
0000
0000
0000
0000
0000
0000
0000
0000
0000
0000
0000
0000
0000
0000
0000
0000
0000
0000
0010
0000
0000
0000
0000
0000
0000
0000
0000
0000
0000
0000
0000
0000
0000
0000
0000
0000
0000
0000
0000
0000
0000
0000
1000
0000
0000
0000
0000
0000
0000
0000
0000
0000
0000
0000
0000
0000
0000
0000
0000
0000
0000
0000
0000
0000
0000
0000
0010
0000
0000
0000
0000
0000
0000
0000
0000
0000
0000
0000
0000
0000
0000
0000
0000
0000
0000
0000
0000
0000
0000
0000
,
0001
0000
1000
0000
0001
0000
0000
0000
0000
0000
0001
0100
0010
1000
0100
0010
,
1000
0000
0010
0001
1000
0000
0010
0100
0001
0000
1000
0200
0001
0000
0010
0000
,
1300
0000
0001
0200
1000
0000
0010
0000
0301
0000
1000
0100
0010
0000
0100
0000
,
1000
0010
0100
0001
1000
0001
0010
0100
0010
0001
1000
0010
0100
0000
0010
1000
,
0001
0000
0010
0100
1000
0000
0000
1000
0001
0000
0000
0001
0100
0000
1000
0000
,
0100
0000
0002
0000
0000
0000
1003
0000
2100
0000
0000
0000
3001
0000
0010
0100
,
0010
0000
0001
0000
1001
0000
1000
0010
0100
0000
0001
0000
1001
0000
0001
0010
,
0100
0000
1000
0000
1001
0000
1000
0010
0100
0000
1000
0100
0001
1000
0100
0010
,
0001
1000
0001
0010
1000
0000
0010
0001
0100
0000
0001
0010
1000
0000
0010
0001
,
0200
0000
0000
1000
0000
0000
0310
1000
0001
0000
1000
0100
0001
0000
0200
0000
,
0000
0010
0000
0000
1300
0000
0001
0010
0100
0000
1000
0000
0100
0000
0010
0000
,
0001
0000
0000
0010
0000
0000
0100
0000
1000
0000
0001
0000
0010
0000
0000
0000
0000
0000
0100
0000
0000
1000
0000
0000
0001
0000
0000
0000
0000
0000
0100
0000
0000
0000
0000
0000
0010
0000
0000
0000
0000
0000
0110
0000
0000
0000
0000
0000
,
0000
0000
1000
0001
0100
0000
0000
0100
0010
0000
0000
0010
1000
0000
0001
0000
,
0010
0000
1000
0000
0010
0000
0100
1000
0010
0000
0100
0000
0001
0000
1000
0000
,
0100
0000
0010
0000
0110
0000
1000
0010
0100
0000
0001
0000
1001
0000
1000
0100
,
0010
0000
0000
0000
0000
0000
0100
0000
1000
0000
0100
0000
1000
0000
0000
0000
0000
0000
0001
0000
0010
0000
0001
0000
0010
0000
0000
0100
0000
0000
2000
0000
0000
0000
0000
0000
0000
0000
0000
0000
0000
0000
3001
0000
0000
0000
0000
0000
,
0010
0100
2100
0010
3010
0101
0000
1100
,
1000
0000
0001
0100
0010
0000
0010
0100
0001
0000
0020
0000
0000
0000
0130
1000
,
0001
0000
1000
0001
0102
0000
0010
0000
0013
0000
1100
0000
0000
0000
0101
0000
,
0001
0000
0000
0000
0000
0000
0000
0000
0000
0000
0000
0000
1000
0000
0000
0000
0000
0000
0100
0000
0000
0000
0000
0000
0010
0000
0000
0000
0000
0000
0000
0000
0000
0000
0000
0000
0100
0000
0000
0000
0000
0000
1000
0000
0000
0000
0000
0000
0001
0000
0000
0000
0000
0000
0000
0000
0000
0000
0000
0000
1000
0000
0000
0000
0100
0000
0000
0000
0010
0000
0000
0000
0001
0000
0000
0000
0000
0000
1000
0000
0000
0000
0000
0000
0001
0000
0000
0010
0000
0000
0100
0000
0000
1000
0000
0000
,
0001
0100
2010
3001
1020
0130
1010
0000
,
0012
0000
1003
0000
0021
0000
0130
0000
0110
0000
2000
0000
0000
0000
3001
0010
,
0100
0000
0010
0000
0012
0000
0010
0000
1000
0000
0100
0003
0110
0000
0000
0000
,
2010
0010
0001
3100
0010
0110
0000
0110
,
0001
0000
1000
0000
0110
0000
0010
1000
0001
0000
0010
0000
0100
0000
0000
1000
,
0010
0100
0001
1000
1200
0000
1300
0002
,
0000
0000
1003
0010
0100
0000
1000
0000
0100
0000
0001
0000
0201
0000
0000
0000
,
0301
1000
0000
0000
0000
0000
0000
0000
;
