#TITLE:星の旅人;
#SUBTITLE:;
#ARTIST:渡辺さらさ×奈良田 愛;
#TITLETRANSLIT:Hoshi No Tabibito;
#SUBTITLETRANSLIT:;
#ARTISTTRANSLIT:Sarasa Watanabe & Ai Narata;
#GENRE:ANIME;
#CREDIT:;
#MUSIC:Hoshi No Tabibito.ogg;
#BANNER:Hoshi No Tabibito.png;
#BACKGROUND:Hoshi No Tabibito-bg.png;
#CDTITLE:;
#SAMPLESTART:49.911;
#SAMPLELENGTH:13.151;
#SELECTABLE:YES;
#OFFSET:1.048;
#BPMS:0.000=146.000
,203.000=117.000
,206.667=105.000
,206.833=76.000
;
#STOPS:;
#LASTBEATHINT:0.116800;
#BGCHANGES:2.750=Hoshi No Tabibito.avi=1.000=0=0=0=StretchNoLoop====,
99999.000=-nosongbg-=1.000=0=0=0=StretchNoLoop====
;
#FGCHANGES:;

//--------------- dance-single - ----------------
#NOTES:
     dance-single:
     :
     Hard:
     13:
     0,0,0,0,0:
0000
0000
0000
0000
,
0000
0000
0000
0000
,
1001
0000
0001
0100
0001
0000
0010
0000
0100
0000
1000
0000
0001
0000
0100
0000
,
0110
0000
0010
1000
0010
0000
0100
0000
0001
0000
1000
0000
0001
0000
0010
0000
,
1001
0000
1000
0100
1000
0000
0010
0000
0100
0000
0010
0000
0100
0000
0001
0000
,
1000
0100
0010
0001
0010
0100
2000
3000
,
1001
0000
0001
0010
0001
0000
0100
0000
0010
0000
1000
0000
0001
0000
0010
0000
,
0110
0000
0100
1000
0100
0000
0010
0000
0001
0000
1000
0000
0001
0000
0100
0000
,
1001
0000
1000
0010
1000
0000
0100
0000
0010
0000
0100
0000
0010
0000
0001
0000
,
1000
0010
0100
0001
0100
0010
2000
0000
,
3001
0000
0100
0001
0100
0000
0010
0100
0010
0000
1000
0010
1000
0000
0001
1000
,
0001
0000
0000
1001
0000
0000
1001
0000
0000
0000
0000
0000
0000
0000
0000
0000
,
0011
0000
0000
1000
0100
0000
0010
0000
0001
0000
0010
0000
0100
0000
0000
0000
,
1010
0000
0000
0001
0100
0000
0010
0000
1000
0000
0010
0000
0100
0000
0000
0000
,
0110
0000
0000
0010
1000
0000
0100
0000
0010
0000
0100
0000
1000
0000
0001
0000
,
0200
0000
0320
0000
2030
0000
3002
0003
,
1001
0000
0000
0001
0010
0000
0100
0000
0001
0000
0100
0000
1000
0000
0010
0000
,
1001
0000
0000
1000
0010
0000
0100
0000
1000
0000
0100
0000
0001
0000
0010
0000
,
1001
0000
0010
0100
0000
0000
0001
0000
1000
0000
0100
0010
0000
0000
0001
0000
,
1000
0000
0100
0000
1000
0000
0001
0000
0100
0000
0010
0000
1000
0100
1000
0100
,
1000
0100
0010
0001
0000
0001
0100
0010
,
1000
0010
0100
0001
0000
0001
0010
1000
,
0010
0000
0000
0010
0000
0000
0001
0000
0100
0000
0000
0100
0000
0000
1000
0000
,
0100
0000
0001
0000
0010
0000
0001
0000
0100
0000
0001
0010
0100
0000
1000
0100
,
0010
0000
0000
0110
0000
0000
0001
0000
1000
0000
0000
1010
0000
0000
0100
0000
,
0001
0000
0000
0010
0100
0000
1000
0000
0001
0000
1000
0000
0001
0100
0000
0100
,
0001
0000
0000
0011
0000
0000
1000
0000
0100
0000
0000
0110
0000
0000
0001
0000
,
1000
0000
0000
0010
0100
0000
0001
0000
0010
0000
0001
0000
1000
0010
0000
0010
,
1000
0000
0000
1001
0000
0000
0001
0000
0010
0000
0000
0110
0000
0000
1000
0000
,
0001
0000
1000
0100
1000
0000
0001
0100
0001
0000
1000
0100
1000
0000
0001
0100
,
0001
0000
0000
0000
0110
0000
0000
0000
1000
0001
0000
0011
0000
0100
1000
0000
,
0010
0000
0000
1000
0100
0000
0001
0000
0100
0000
1000
0000
0010
0000
0100
0000
,
0110
0000
0000
0001
0100
0000
1000
0000
0100
0000
0001
0000
0010
0000
0100
0000
,
0110
0000
0000
0010
0001
0000
0100
0000
0110
0000
0000
0010
1000
0000
0100
0000
,
0110
0011
1100
1001
,
1001
0000
0000
0001
0010
0000
1000
0000
0001
0000
0100
0010
0100
0000
1000
0000
,
1001
0000
0000
1000
0010
0000
0001
0000
1000
0000
0100
0010
0100
0000
0001
0000
,
1001
0000
0000
0001
0010
0000
0100
1000
0010
0000
0000
0100
0001
0000
1000
0000
,
1001
0000
1001
0000
0001
0010
0100
1000
,
0001
0000
0000
1000
0010
0000
0100
0001
0100
0000
0010
0100
0010
0000
1000
0000
,
1001
0000
0000
0001
0010
0000
0100
1000
0100
0000
0010
0100
0010
0000
0001
0000
,
1000
0000
0000
0010
0100
0000
0001
0100
0001
0000
1000
0010
1000
0000
0100
0000
,
0010
0000
0001
0000
1000
0000
0001
0010
0001
0000
1000
0100
1000
0000
0100
0000
,
0110
0000
0000
0011
0000
0000
0110
0000
1100
0000
0000
1010
0000
0000
0110
0000
,
0101
0000
0000
1001
0000
0000
0101
0000
0110
0000
0000
1010
0000
0000
1001
0000
,
1000
0100
0010
0001
1000
0001
0010
0100
,
1000
0000
0001
0100
0001
0000
1000
0010
1000
0010
0100
0000
0001
0000
1000
0000
,
1001
0000
1000
0100
1000
0000
0010
0000
0100
0000
0001
0000
1000
0000
0100
0000
,
0110
0000
0010
0001
0010
0000
0100
0000
1000
0000
0001
0000
1000
0000
0010
0000
,
1001
0000
0001
0100
0001
0000
0010
0000
0100
0000
0010
0000
0100
0000
1000
0000
,
0001
0100
0010
1000
0010
0100
2002
3003
,
0220
0000
0000
0000
,
0000
0000
0000
0000
0000
0330
0000
0000
;

//--------------- dance-single - ----------------
#NOTES:
     dance-single:
     :
     Challenge:
     16:
     0.6382,0.492329,0,0,0,403,403,0,0,0,0,0.6382,0.492329,0,0,0,403,403,0,0,0,0:
0000
0000
0000
0000
,
0000
0000
0000
0000
,
0110
0000
0010
1000
0100
0000
0010
0000
0100
0000
1000
0000
0001
0000
0010
0000
,
0110
0000
0010
0001
0100
0000
0010
0000
1000
0000
0010
0100
1000
0100
0010
0000
,
1001
0000
1000
0100
0010
0000
0100
0000
0010
0000
0001
0000
1000
0000
0100
0000
,
0001
0000
0100
1000
0100
0010
0001
0010
0100
0000
1000
0000
1010
0000
0000
0000
,
0110
0000
0100
0001
0010
0000
0100
0000
0010
0000
0001
0000
1000
0000
0100
0000
,
0110
0000
0100
1000
0010
0000
0100
0000
0001
0000
0100
0010
0001
0010
0100
0000
,
1001
0000
0001
0010
0100
0000
0010
0000
0100
0000
1000
0000
0001
0000
0010
0000
,
1000
0000
0010
0001
0010
0100
1000
0100
0010
0000
0001
0000
0101
0000
0000
0000
,
0001
0010
0100
1000
0001
0100
0001
1000
0100
0010
0001
1000
0010
1000
0001
0100
,
0101
0000
0000
1100
0000
0000
1001
0000
0000
0000
0000
0000
0000
0000
0000
0000
,
1001
0000
0000
1000
0100
0000
0010
0100
1000
0001
0010
0100
1000
0000
0001
0000
,
1001
0000
0000
0001
0100
0000
0010
1000
0001
0100
0010
1000
0001
0000
0010
0000
,
0110
0000
0000
0010
0001
0010
0100
1000
0100
0000
0010
0000
0001
0000
1000
0000
,
0010
0000
0100
0000
0001
0100
0010
1000
0001
0000
0100
0000
1000
0000
0100
0000
,
1001
0000
0000
1000
0010
0000
0100
0001
0010
0000
0100
0000
1000
0000
0100
0000
,
1001
0000
0000
0001
0010
0000
0100
1000
0010
0000
0100
0000
0001
0000
0100
0000
,
1001
0000
0010
1000
0000
0010
0001
0010
1000
0000
0001
0010
0100
0000
0010
0000
,
0001
0010
1000
0001
0100
0001
1000
0010
0001
1000
0010
1000
0001
0100
1000
0100
,
0020
0000
0100
0001
0000
1000
0100
0001
,
0230
0000
0010
1000
0000
0001
0010
1000
,
0320
0000
0001
0100
2030
0100
3002
0010
,
1003
0000
0010
0100
0010
1000
0001
0010
0100
0010
0001
1000
0001
0100
0010
0100
,
0001
0000
0000
1000
0100
0000
0001
0000
1000
0000
0000
0001
0100
0000
1000
0000
,
1000
0010
0000
0100
0010
0000
0001
0010
0000
0100
0010
0000
0010
1000
0000
1000
,
0001
0000
0000
0001
0010
0000
1000
0000
0001
0000
0000
1000
0010
0000
0001
0000
,
0001
0100
0000
0010
0100
0000
1000
0100
0000
0010
0100
0000
0001
0010
0000
0010
,
0100
0010
0100
1000
0100
0010
0001
1000
0100
1000
0100
0010
0001
1000
0010
0100
,
0001
0010
0100
0010
0001
0010
0100
0010
1000
0010
0001
0100
1000
0100
0001
0010
,
1100
0000
0010
0000
0101
0000
0010
0000
1000
0001
0000
0110
0000
0001
1000
0000
,
0010
1000
0000
1000
0100
0000
0010
0001
0100
0010
1000
0001
0010
0000
0010
1000
,
0010
0001
0000
0001
0100
0000
0010
1000
0100
0010
0001
1000
0010
0000
0010
0001
,
0010
1000
0000
1000
0100
0000
0010
0001
1000
0100
0010
0001
1000
0000
1000
0010
,
0100
0001
0000
0001
0010
0000
0010
0100
0000
0100
1000
0000
1000
0010
0100
1000
,
0100
0001
0000
0001
0010
0000
0100
1000
0010
0100
0001
1000
0100
0000
0100
0001
,
0100
1000
0000
1000
0010
0000
0100
0001
0010
0100
1000
0001
0100
0000
0100
1000
,
0100
0001
0000
1000
0100
0000
0001
0100
1000
0010
0100
0010
1000
0000
0001
0010
,
0100
1000
0000
1000
0010
0000
0010
0100
0000
0100
0001
0000
0001
0010
0100
0010
,
0001
1000
0000
1000
0100
0010
0001
1000
0100
1000
0001
0010
0100
0000
1000
0000
,
1000
0001
0000
0001
0100
0010
1000
0001
0100
0001
1000
0010
0100
0000
0001
0000
,
0001
0010
0000
0010
0100
1000
0001
0010
0001
1000
0100
0010
0001
0000
1000
0000
,
1000
0010
0000
0010
0100
0001
1000
0010
1000
0001
0100
0010
1000
0000
0001
0000
,
1001
0000
0000
0001
0010
0000
0100
0000
0110
0000
0000
0100
1000
0000
0001
0000
,
1001
0000
0000
1000
0010
0000
0100
0000
0110
0000
0000
0100
0001
0000
1000
0000
,
0100
0010
1000
0001
0100
0001
1000
0010
0001
0100
0001
0100
1000
0100
1000
0001
,
0010
0001
0010
1000
0010
1000
0001
0100
0001
0010
1000
0000
1000
0010
0001
0100
,
0110
0000
0010
1000
0100
0000
0010
0000
0100
0000
1000
0000
0001
0000
0010
0000
,
0110
0000
0010
0001
0100
0000
0010
0000
1000
0000
0010
0100
1000
0100
0010
0000
,
1001
0000
1000
0100
0010
0000
0100
0000
0010
0000
0001
0000
1000
0000
0100
0000
,
0001
0000
0100
1000
0100
0010
0001
0010
0100
0000
1000
0000
2010
0000
0000
0000
,
3020
0000
0000
0130
0001
0100
0001
1000
0100
1000
0100
0010
0001
1000
0100
0010
0001
0010
0100
2000
0002
0000
0000
0000
,
0000
0000
0000
0000
0000
3003
0000
0000
;
