#TITLE:ホイホイ☆幻想ホロイズム;
#SUBTITLE:;
#ARTIST:宝鐘マリン with ホロイズムファンタジー;
#TITLETRANSLIT:HoiHoi Gensou Holoism;
#SUBTITLETRANSLIT:;
#ARTISTTRANSLIT:Houshou Marine;
#GENRE:POP;
#CREDIT:;
#MUSIC:HoiHoi Gensou Holoism.ogg;
#BANNER:HoiHoi Gensou Holoism.png;
#BACKGROUND:HoiHoi Gensou Holoism-bg.png;
#CDTITLE:;
#SAMPLESTART:63.873;
#SAMPLELENGTH:10.327;
#SELECTABLE:YES;
#OFFSET:0.776;
#BPMS:0.000=162.000
,24.000=160.000
,32.000=150.000
,36.000=130.000
,39.000=120.000
,40.000=131.000
,44.000=195.000
;
#STOPS:;
#DISPLAYBPM:130.000:195.000;
#BGCHANGES:;
#FGCHANGES:;

//--------------- dance-single - ----------------
#NOTES:
     dance-single:
     :
     Medium:
     13:
     0,0,0,0,0:
0000
0000
0000
0000
,
0000
0000
0000
0000
0000
0001
0010
0001
,
0010
0000
0000
0100
1000
0100
0010
0001
,
1000
0000
0000
0000
0000
0001
1000
0010
,
0100
0000
0000
0001
1000
0000
0010
0100
,
0010
0000
0000
0000
0000
0000
0000
0000
0000
0000
0000
1000
0000
0100
0000
0010
,
0000
0001
0000
0000
0000
0000
0000
0000
0000
0000
0000
0001
0000
0100
0000
0010
,
0000
1000
0000
0000
0000
0000
0000
0000
0000
0000
0000
0001
0000
0010
0000
0100
,
0000
1000
0000
0000
0000
0000
0000
0000
0000
0000
0000
0000
0002
0000
0000
0000
,
0023
0000
0000
0230
0000
0000
2300
0000
,
0000
0002
0000
0000
0000
0000
0000
0000
0000
0000
0000
0000
3003
0000
0000
0000
,
0001
0100
0000
1000
0100
0000
0001
0100
,
0110
0000
1001
0000
,
1000
0100
0010
0001
0010
0100
1000
0000
,
1001
0000
1001
0000
1000
0001
0000
0010
,
0000
0010
0000
0100
1000
0000
0010
0000
,
1001
0000
1001
0000
0001
1000
0000
0010
,
0000
0010
0000
0100
0001
0000
0010
0000
,
1100
0000
0101
0000
0001
0010
0000
1010
,
0000
0011
0000
1000
0100
0000
0010
0001
,
1000
1000
0001
0001
0100
0010
0100
0010
,
0000
1000
0001
1000
0001
0000
1001
0000
,
0001
0010
0100
0010
0001
0100
0010
0000
,
1000
0100
0010
0100
1000
0010
0100
0000
,
0010
1000
1001
0000
0001
0100
0000
1010
,
0000
0101
0000
1010
0020
0000
0230
0000
,
0301
0000
0000
0000
1001
0000
0000
0000
1000
0000
0000
0010
0000
0000
0100
0000
,
0001
0000
0000
0000
0100
0000
0000
0000
0100
0000
0000
0001
0000
0000
0010
0000
,
0100
1000
0001
0100
0010
1000
0100
0010
,
0001
0000
0011
0011
0000
1001
0000
0000
,
0100
0000
1000
0000
0010
0000
0100
0000
0001
0010
0000
0001
0100
0000
0010
0000
,
1000
0000
0100
0000
0010
0000
0100
0000
1000
0010
0000
1000
0100
0000
0010
0000
,
0001
0010
0011
0000
1001
1001
0000
1010
,
0000
1100
0000
0101
0001
0010
0100
0010
,
0001
0000
0010
0000
0100
0000
1000
0000
0001
0010
0000
0001
0100
0000
0001
0000
,
1000
0000
0100
0000
1000
0000
0001
0000
1000
0100
0000
1000
0010
0000
1000
0000
,
0001
0100
0010
1000
0001
0001
1000
1000
,
1010
1001
0000
0000
0011
1001
0000
0000
,
1100
0000
1100
0000
1000
0001
0000
0100
,
0000
0001
0010
0100
0010
0000
0001
0100
,
0010
1000
1010
0000
0011
0000
0000
1001
,
0000
1000
0001
1000
0001
0000
1100
0000
,
0010
0001
1000
0100
0010
0001
0000
1000
,
0000
0001
0100
0010
1000
0000
0001
0010
,
0001
0001
0010
0010
0100
0100
1000
1000
,
0001
1000
0100
0010
0001
0000
1001
0000
,
1000
0001
1000
0001
1000
0001
1001
0000
,
0001
1000
0001
1000
0001
1000
1001
0000
,
1000
0100
0010
0001
0010
0100
1000
0100
,
0010
0000
0001
0100
0010
1000
0001
0100
,
1000
0100
0010
0100
0010
1000
0100
0010
,
0001
0000
0011
0000
0011
0001
0010
0100
,
0010
0001
1000
0010
0000
0100
0100
0001
,
1000
1100
0000
0101
0000
1100
0100
0010
,
0001
0000
0011
0000
1010
1000
0010
0100
,
0001
0000
0101
0000
1100
1000
0100
0010
,
0001
0000
0101
0000
1001
1001
0000
0110
,
0000
0100
0010
0100
0010
0000
0110
0000
,
1001
0000
1001
1000
0100
0010
0100
1000
,
0001
0000
1000
0001
1001
0000
0001
0100
,
0010
0100
0000
1010
0000
0101
0001
0100
,
0010
0100
0001
0001
1000
1000
0010
0010
,
1000
0000
1010
0000
0011
0001
0010
0100
,
1000
0000
1001
0000
1001
1000
0100
0010
,
0001
0100
0001
0100
0010
0100
0010
0100
,
1000
0100
1000
0100
0001
1000
0001
1000
,
0001
0010
0100
1000
0001
0010
0100
1000
,
0100
0010
0001
1000
0000
0001
1000
0001
,
0010
0001
1000
0010
0100
0001
1000
0100
,
0010
0001
1000
0010
0100
0010
1000
0001
,
1000
0100
1000
0001
0010
0001
0010
0100
,
1000
0001
1000
0001
1000
0001
1000
0001
,
1001
0000
0000
0000
0001
0010
0100
1000
,
0100
0000
1000
0100
1000
0000
0000
0000
0001
0000
0100
0001
0100
0000
0000
0000
,
0010
0000
0100
0000
0010
0000
0100
0000
0010
0100
0010
0100
0010
0000
0000
0000
,
0101
0000
0101
0000
0001
1000
0000
1100
,
0000
1100
0000
1000
0001
0000
0110
0000
,
1010
0000
1010
0000
1000
0001
0000
0011
,
0000
0011
0000
0001
0010
0100
1000
0000
,
1100
0000
0101
0000
1001
1001
0000
0110
,
0000
1001
0000
0011
1010
0000
1000
0100
,
1000
0000
0001
0010
0000
0100
1000
0100
,
0000
0010
0100
1000
0001
0000
0110
0000
,
0001
1000
0010
1000
0001
0010
0100
1000
,
0010
1000
0100
0010
0100
1000
0010
0100
,
0001
1000
0010
0100
0001
1000
0010
1000
,
0010
0100
0001
1000
0100
0010
0001
0000
,
1000
0010
0100
0010
0100
0001
1000
0010
,
1000
0100
0010
0001
1000
0010
0100
0010
,
0100
0001
0010
0100
1000
0100
1000
0001
,
0010
0000
0001
0000
1000
0000
0010
0000
0100
0000
0001
0000
0010
0000
0100
1000
,
0010
0000
0011
0000
0001
1000
0000
0010
,
0000
1000
0100
0010
0001
0000
1001
0000
;

//--------------- dance-single - ----------------
#NOTES:
     dance-single:
     :
     Hard:
     16:
     0,0,0,0,0:
0000
0000
0000
0000
,
0000
0000
0000
0000
0000
0001
0100
0001
,
0100
0000
0000
0010
1000
0100
0010
0001
,
1000
0000
0000
0000
0000
0100
1000
0010
,
0100
0000
0000
0001
1000
0000
0001
1000
,
0001
0000
0000
0000
0000
0000
0000
0000
0000
0000
0000
0010
0100
0010
0000
0001
,
0000
1000
0000
0000
0000
0000
0000
0000
0000
0000
0000
0010
0100
0010
0000
1000
,
0000
0001
0000
0000
0000
0000
0000
0000
0000
0000
0000
0001
0000
0100
0000
1000
,
0000
0100
0000
0000
0000
0000
0000
0000
0000
0000
0000
0000
0002
0000
0000
0000
,
0023
0000
0000
0230
0000
0000
2300
0000
,
0002
0000
0000
3003
,
0001
0100
0100
1000
0100
0100
0001
0100
,
0010
0000
1000
1000
0100
0000
0001
0001
,
1000
0100
1000
0000
0001
0100
0001
0000
1000
0100
0010
0001
1000
0000
0000
0000
,
1100
0000
0101
0000
1000
0001
0000
1001
,
0000
1001
0000
0001
1000
0000
0110
0000
,
0011
0000
1010
0000
1000
0001
0000
0110
,
0000
0110
0000
1000
0001
0010
0100
1000
,
0100
0010
0100
0000
1000
0001
1000
0000
0001
0000
0010
0000
0000
0000
0010
0100
,
0010
0000
0001
1000
0001
0000
1000
0000
0100
0000
1000
0000
0001
0000
0100
0000
,
0010
1000
0010
0000
0100
0001
0100
0000
1001
0000
1001
0000
1001
0000
1001
0000
,
0000
0101
1100
0101
1100
0000
1001
0000
,
0001
0010
0100
0010
0001
0100
0010
0100
,
0001
1000
0100
0010
0100
1000
0010
0100
,
0010
1000
1001
0000
1100
1010
0000
0011
,
0000
1100
0000
0011
0020
0000
0230
0000
,
2300
0000
3000
0000
1001
0000
0000
0000
0001
0000
0000
0010
0000
0000
0100
0000
,
1000
0000
0001
0000
0100
0000
1000
0000
0100
0000
0000
0010
0000
0000
0010
0000
,
1000
0000
0100
0000
0001
0000
0100
0000
1000
0000
0010
0000
0100
0001
0100
0001
,
1000
0000
1010
1010
0000
1001
0001
0010
,
0100
0000
1000
0100
1000
0000
0001
0000
0100
0000
0010
1000
0010
0000
0100
0000
,
0001
0000
0010
0100
0010
0000
0100
0000
1000
0000
0100
0001
0100
0000
0010
0000
,
0001
0010
1100
0000
0110
0110
0000
1001
,
0000
0000
1010
0000
0000
0000
0101
0000
0001
0000
0010
0001
0100
0000
1000
0000
,
0100
0000
0010
1000
0100
0000
0001
0000
0100
0000
0010
0001
1000
0000
0001
0000
,
0100
0000
1000
0100
0001
0000
0010
0000
0100
0000
1000
0100
0010
0000
1000
0000
,
0010
0000
0001
0100
0010
0000
1000
0100
0010
0000
0001
0100
0001
0000
1000
0010
,
1000
1010
0000
0000
0011
0011
0000
0000
,
1100
0000
1100
0000
1010
0001
0000
0100
,
0000
0001
0010
1000
0010
0000
0001
0100
,
0010
0100
1010
0000
0011
0000
0000
1001
,
0000
0000
1100
0000
0101
0000
1100
0000
0101
0000
0001
0010
0001
0000
1000
0010
,
1000
0100
0001
0100
1000
0001
0000
0001
,
0100
1000
0100
0001
0010
1000
0010
0001
,
0010
0000
0001
0010
0001
0000
0010
0100
0010
0000
0100
1000
0100
0000
0010
0100
,
0010
0000
0001
0010
0001
0000
1000
0100
1000
0000
0001
0100
0001
0000
0100
0001
,
1000
0000
0001
0000
1000
0000
0001
0000
1000
0000
0001
0000
1000
0000
0100
0010
,
0001
1000
0001
1000
0001
1000
0001
1000
,
0100
0010
0100
0010
0001
0000
0100
0010
0100
0010
1000
0000
0001
0010
0100
1000
,
0001
0000
0000
0000
1000
0100
0010
0100
1000
0100
0010
0001
0010
0000
0100
0000
,
1000
0000
0100
1000
0010
0000
0100
0001
0010
0000
0001
0100
0010
0000
1000
0100
,
0010
0000
1001
0000
1001
0001
0010
1000
,
0010
0000
0001
0010
0100
0000
0100
1000
0001
0000
1000
0010
0100
0000
0100
0001
,
1000
1100
0000
0101
0000
1100
1000
0001
,
0010
0100
1100
0000
0101
0001
0010
0100
,
1000
0001
1010
0000
0011
0010
0100
0100
,
1001
0000
0101
0000
1001
1001
0000
0110
,
0000
0000
1010
0000
0101
0000
1010
0000
0101
0000
0001
0100
0001
0000
1000
0100
,
1000
0000
1001
1000
0100
0001
1000
0010
,
0001
0000
0001
1000
1001
0000
0001
0100
,
1000
0100
0000
1010
0000
0101
0001
0010
,
0100
0000
1000
0010
0100
0000
0001
0010
0100
0000
1000
0100
0010
0000
0010
0100
,
1000
0000
0100
0000
1001
0000
0000
0000
1001
0000
0001
0100
0010
0000
0010
0100
,
0001
0000
1001
0000
1001
1000
0100
1000
,
0001
0100
1000
0100
1000
0100
0001
0100
,
0001
0010
1000
0010
1000
0010
0001
1000
,
0001
0010
0001
0000
1000
0100
1000
0000
0001
0100
0001
0100
0010
1000
0010
1000
,
0001
0010
0100
1000
0000
0001
0010
0100
,
0010
0000
0001
0100
0010
0000
1000
0000
0100
0000
0010
0000
0100
0000
1000
0000
,
0100
0000
0010
0001
0100
0000
0001
0000
0100
0000
0010
0000
0001
0000
0010
0000
,
0100
0000
0001
0000
0010
0000
0100
0000
1000
0100
0010
0001
1000
0100
0010
0001
,
1000
0001
1000
0001
1000
0001
1000
0001
,
1001
0000
0000
0000
0001
0010
0100
1000
,
0001
0100
0001
0100
0010
0000
0000
0000
1000
0100
1000
0100
0010
0000
0000
0000
,
0001
0010
0001
0010
0100
1000
0100
1000
0001
0010
0100
0010
0001
0000
0000
0000
,
1001
0000
1001
0000
1100
0101
0000
0110
,
0000
0110
0000
1100
0101
0000
0110
0000
,
1001
0000
1001
0000
1010
0011
0000
0110
,
0000
0110
0000
1010
0011
0001
0010
0100
,
0110
0000
0110
0000
1100
0101
0000
1001
,
0000
1001
0000
0101
1100
0000
1000
0001
,
1000
0000
0001
0010
0000
0100
1000
0100
,
0010
0001
0100
0010
0001
0010
0100
0001
0010
0100
0010
0001
0100
0000
0000
0000
,
0001
0001
0010
0010
0100
0100
1000
1000
,
0010
0010
0100
0100
0001
0001
1000
1000
,
0001
0001
0100
0100
0010
0010
1000
1000
,
0010
0000
1000
0100
1000
0000
0100
0010
0100
0000
0010
0001
0010
0000
0100
0000
,
0010
0001
0100
0000
0010
1000
0100
0000
0010
0001
0100
0010
1000
0000
0100
1000
,
0010
0000
0100
0001
0010
0000
0100
1000
0010
0100
0001
0000
0010
0100
1000
0000
,
0010
0100
0001
0000
0010
0100
1000
0000
0010
0100
0001
0010
0100
0000
1000
0100
,
1000
0100
0010
0001
0010
0001
1000
0100
0010
0001
0010
0100
1000
0010
1000
0100
,
0010
0000
0011
0000
0001
1000
0000
0010
,
0000
1000
0100
0010
0001
0000
1001
0000
;

//--------------- dance-single - ----------------
#NOTES:
     dance-single:
     :
     Challenge:
     18:
     0,0,0,0,0:
0000
0000
0000
0000
,
0000
0000
0000
0000
,
0001
0000
0001
0000
,
1000
0000
1000
0100
,
0010
0000
0001
0000
,
0001
0000
0010
0000
0001
0000
0010
0000
0100
1000
0000
0000
0000
0000
0000
0000
,
0001
0000
1000
0001
0000
0000
0000
0000
,
1000
0000
0000
0001
0000
0000
0001
0000
,
0001
0100
0010
1000
0001
0010
0100
1000
,
0010
0100
0001
0010
0100
1000
0010
1000
,
0001
0000
0000
0000
,
0001
1000
1000
0001
1000
1000
0001
0100
,
0001
0000
0000
0000
0001
0010
0001
0010
0100
0000
0000
0000
1000
0100
1000
0100
,
0010
0001
1000
0100
1000
0100
0010
0001
0010
0100
0010
0001
1000
0000
0000
0000
,
0101
0000
1100
0000
1100
0101
0000
1100
,
0000
0000
1100
0000
0000
0000
0101
0000
1100
0000
0001
0010
0100
0000
1000
0000
,
1010
0000
0011
0000
0011
1010
0000
0011
,
0000
0000
0011
0000
0000
0000
1010
0000
0011
0000
0001
0010
0100
0000
1000
0010
,
0100
0000
0001
0100
0001
0000
1000
0100
1000
0000
1100
0000
0000
0000
0001
0010
,
0100
0000
0010
0100
1000
0000
1100
0000
0101
0000
0001
0100
0001
0000
0010
0000
,
0100
1000
0010
0000
0100
0001
0010
0000
1001
0000
1001
0000
0110
0000
0110
0000
,
0000
0101
1010
1100
0011
0000
1001
0000
,
0001
0000
0100
0010
0100
0000
0001
0000
1000
0100
1000
0010
1000
0000
0100
0000
,
0010
0000
0001
0010
0100
0000
0010
0000
0100
1000
0001
0100
0001
0000
0010
0000
,
0100
1000
1100
0000
0101
0011
0010
1100
,
0000
1001
1000
1010
0001
0100
0010
0100
,
0001
0010
1100
0010
0001
0010
0100
1000
,
0100
0000
0001
0000
0100
0000
1000
0000
0010
0000
0000
0110
0000
0000
0010
0000
,
1001
0000
0100
0000
1001
0000
0010
0000
1001
0000
0100
0000
0001
0010
0100
1000
,
0001
0000
0000
0000
0011
0000
0101
0000
0000
0000
1001
0000
0001
0000
1000
0010
,
0100
0010
1000
0010
0100
0000
0001
0000
0100
0001
0010
0001
0100
0000
0010
0000
,
1000
0100
0010
0100
1000
0000
0001
0000
0010
0001
0100
0010
1000
0000
0100
0000
,
0010
0001
0011
0000
0110
0110
0001
1001
,
0000
0000
0011
0000
0010
0000
1100
0000
0001
0100
0010
1000
0001
0000
1000
0000
,
0001
0010
0100
1000
0001
0000
0001
0000
1000
0100
0010
0001
1000
0000
0001
0000
,
1000
0010
0100
0001
1000
0000
0001
0000
0100
0010
1000
0100
0010
0000
0001
0000
,
0100
0000
0010
1000
0100
0000
0010
0001
0100
0000
0010
1000
0001
0000
0010
0001
,
1000
1010
0000
0000
0101
0101
0000
0000
,
2000
3100
2000
3100
2000
3001
2000
3001
,
2000
3010
2000
3010
2000
3100
2000
3100
,
2000
3010
1010
0000
0011
0101
0000
0011
,
0000
0000
0011
0000
1010
0000
0011
0000
1010
0000
1000
0010
0100
0000
0010
0100
,
0002
0103
0002
0103
0002
1003
0002
1003
,
0002
0013
0002
0013
0002
1003
0002
1003
,
1001
0000
1000
0100
1000
0000
0010
0100
0010
0000
0100
0001
0100
0000
0010
0100
,
0010
0000
1000
0100
1000
0000
0001
0010
0100
0000
1000
0010
0100
0000
0100
0001
,
0010
0000
0100
0000
0010
0000
0100
0000
0010
0000
0100
0000
0010
0000
0100
0010
,
0001
0000
0000
1000
0000
0000
0001
0000
0000
1000
0000
0000
0001
0000
0000
1000
0000
0000
0001
0100
0001
0100
0001
0100
,
0001
0010
0100
0010
0001
0010
0100
0010
0001
0100
0010
1000
0010
0100
0010
1000
,
0010
0000
0000
0000
1000
0100
0010
0001
1000
0100
0010
0000
0001
0000
0010
0000
,
0001
0000
0010
0100
1000
0000
0010
1000
0001
0000
0100
0010
1000
0000
0010
0100
,
0001
0100
0101
0001
1001
0001
0010
0100
,
1000
0000
0001
0100
1000
0000
1000
0100
0001
0000
1000
0100
0001
0000
0001
0100
,
1000
0000
1100
0000
0000
0000
0101
0000
0000
0000
1100
0000
0100
0010
0001
0000
,
0010
0000
0100
0000
1100
0000
0000
0000
0101
0000
0100
0010
1000
0000
0001
0100
,
0010
0000
1000
0000
1010
0000
0000
0000
0011
0000
0001
0100
0001
0000
0010
0000
,
0011
0000
0101
0000
1100
0101
0000
1001
,
0000
0000
0011
0000
1100
0000
0011
0000
1100
0000
0001
0100
0001
0000
1000
0100
,
1000
0000
1001
0001
0100
1000
0001
0010
,
1000
0000
0110
0110
0110
0000
1000
0100
,
0001
0100
0000
0011
0000
1100
0001
0010
,
0100
0000
1000
0100
0010
0000
1000
0010
0100
0000
0001
0100
0010
0000
0001
0010
,
0100
0000
1000
0000
1001
0000
0000
0000
0101
0000
0001
0100
0010
0000
1000
0010
,
0100
0000
0101
0000
0101
1000
0100
1000
,
0001
0100
1000
0100
1000
0100
0001
0100
,
0001
0010
1000
0010
1000
0001
0100
1000
,
0001
0010
0100
0010
0001
1000
0100
1000
0100
0010
0100
0010
0001
0100
0001
0100
,
0010
1000
0001
1000
0000
0001
0010
0001
,
0010
0000
0001
0010
0100
0000
0100
1000
0001
0000
0001
0100
0010
0000
0010
1000
,
0100
0000
0100
1000
0001
0000
0001
0010
0100
0000
0100
1000
0001
0000
0001
0010
,
0100
0010
0001
0100
0010
0100
0001
0010
0100
1000
0001
0100
0001
0100
0010
0100
,
1000
0100
0001
0100
1000
0100
0001
0100
,
0010
0000
0000
0000
,
0001
0100
0010
0100
0001
0000
0000
0000
1000
0100
0010
0100
1000
0000
0000
0000
,
0001
0100
0010
1000
0100
0010
0001
0100
0001
0010
0001
1000
0100
0000
0000
0000
,
0101
0000
1100
0000
1100
0101
0000
1100
,
0000
0000
0101
0000
0000
0000
1100
0000
0101
0000
0001
0010
0100
0000
0010
0000
,
0011
0000
1010
0000
1010
0011
0000
1010
,
0000
0000
1010
0000
0000
0000
0011
0000
1010
0000
0001
0010
0100
0000
0010
0100
,
1000
0000
0010
0000
0100
0000
0001
0000
0010
0001
0100
0010
1000
0000
0100
0000
,
0010
0000
0100
0000
0001
0000
0100
0000
1000
0010
0100
0001
0010
0100
1000
0100
,
0010
0000
0011
0011
0000
1100
1100
1001
,
0001
0100
0010
0100
0001
0010
0100
1000
0100
0010
0100
1000
0001
0000
0000
0000
,
0001
0010
0001
0000
0010
0100
0010
0000
0001
0010
0100
1000
0100
0000
0010
0100
,
0010
0000
0100
1000
0100
0000
1000
0000
0100
1000
0100
0010
0001
0000
0100
0000
,
0001
0100
0001
0000
0100
0010
0100
0000
0001
0100
0010
1000
0010
0000
1000
0000
,
0010
1000
0100
0000
0010
0001
0100
0000
0010
1000
0100
0000
0010
0001
0100
0000
,
0001
1000
0010
1000
0100
0010
0001
0010
0001
0100
0010
1000
0001
0100
0010
0100
,
0001
0100
0010
1000
0010
0100
0001
0100
0001
1000
0001
0100
0010
1000
0001
0010
,
0100
1000
0001
0010
0100
1000
0010
0100
0010
1000
0001
0010
0100
1000
0001
0010
,
0100
1000
0010
0100
0010
1000
0100
0010
0001
1000
0010
0100
0001
0010
0100
1000
,
0001
0000
0011
0000
0001
1000
0000
0010
,
0000
1000
0100
0010
0001
0000
1001
0000
;
