#TITLE:光のすみか;
#SUBTITLE:;
#ARTIST:安田レイ;
#TITLETRANSLIT:Hikari no Sumika;
#SUBTITLETRANSLIT:;
#ARTISTTRANSLIT:yasuda rei;
#GENRE:ANIME;
#CREDIT:;
#MUSIC:Hikari no Sumika.ogg;
#BANNER:Hikari no Sumika.png;
#BACKGROUND:Hikari no Sumika-bg.png;
#CDTITLE:;
#SAMPLESTART:45.758;
#SAMPLELENGTH:17.500;
#SELECTABLE:YES;
#OFFSET:3.171;
#BPMS:0.000=112.000;
#STOPS:;
#LASTBEATHINT:4.013992;
#BGCHANGES:6.000=Hikari no Sumika.avi=1.000=0=0=0=StretchNoLoop====,
99999.000=-nosongbg-=1.000=0=0=0=StretchNoLoop====
;
#FGCHANGES:;

//--------------- dance-single - ----------------
#NOTES:
     dance-single:
     :
     Hard:
     11:
     0.565498,0.545539,0.321558,0.24394,1.058923,357,328,29,22,0,0,0.565498,0.545539,0.321558,0.24394,1.058923,357,328,29,22,0,0:
0000
0000
0000
0000
,
0000
0000
0000
0000
,
0110
0000
0000
1000
0001
0000
0020
0000
0130
1000
0010
0000
,
0110
0000
0001
1000
0001
0000
0200
0000
0302
0000
0023
0030
,
0110
0000
1000
0010
0100
0000
0002
0000
0010
0000
2003
0000
,
3020
0000
0130
0001
1000
0001
0010
0000
0000
0100
1000
0000
,
1010
0000
0000
0010
0000
0100
0001
0000
0010
0000
0100
0000
,
1100
0000
0000
0011
0000
0001
1000
0000
0010
0000
0100
0000
,
0101
0000
0000
1001
0000
0001
0100
0000
0010
0000
0100
0000
,
0110
0000
1000
0001
0100
1000
0100
0000
0010
1000
0001
0000
,
0011
0000
0000
1100
0000
1000
0010
0000
0100
0000
0001
0000
,
1001
0000
0000
1001
0000
1000
0010
0000
0100
0000
0001
0000
,
0011
0000
0000
1100
0000
1000
0010
0000
0100
0000
0001
1000
,
0100
0000
0010
0001
1000
0001
1000
0000
0000
0000
1000
0010
,
0200
0000
0302
0000
0023
0000
0230
0000
0000
1300
0001
0000
,
0200
0000
0310
1000
0001
0000
0010
0000
0100
1000
0010
1000
,
0002
0000
0013
0100
2000
0000
3020
0000
0130
0001
0010
0000
,
0011
0000
0001
0010
0100
1000
0002
0000
2003
0000
3010
0100
,
0020
0000
0130
0001
1000
0000
1100
0000
0100
1000
0001
0000
,
0101
0000
0100
0001
0010
0000
0110
0000
0000
0000
0110
0000
,
1001
0000
1000
0001
0010
0100
2000
0000
3002
0000
0203
0000
,
1300
0000
0100
0000
0010
1000
0001
0000
0020
0000
0230
0000
,
1300
0000
1000
0001
0010
0100
0110
0000
0110
0000
1000
0001
,
0010
0000
0010
0100
1000
0000
0001
1000
0010
0100
0010
0000
,
1000
0001
0100
0000
0100
0010
1000
0010
0001
0010
0100
0010
,
1000
0000
0001
0010
0100
0000
0001
0000
0100
1000
0001
0000
,
0110
0000
1000
0010
0000
0100
0001
0010
0100
0000
0100
1000
,
0001
0000
0010
0000
0100
1000
0010
0000
0100
0000
0001
1000
,
0001
0000
0010
0100
1000
0001
0100
0000
1000
0100
0001
0010
,
0100
0000
0010
0001
1000
0000
1100
0000
0100
1000
0001
0000
,
0101
0000
0100
0001
0010
0000
0010
0001
0100
1000
0001
0010
,
0100
0000
0001
0010
0100
1000
0010
0000
0100
0001
1000
0100
,
0001
0000
0100
1000
0010
0100
0001
0010
0100
1000
0001
0010
,
1000
0000
0010
0001
1000
0010
0100
0000
1000
0000
0100
0001
,
0010
0000
0010
0100
0000
0100
1000
0010
0001
1000
0100
0001
,
0010
0000
0010
0100
1000
0100
0010
0000
0100
1000
0001
0010
,
0100
0000
0100
1000
0001
0100
1000
0000
0100
0001
0010
0100
,
1000
0000
0001
1000
0010
0000
0110
0000
0100
0001
0010
0001
,
0100
0000
0000
0000
0000
0000
0000
0000
0010
0000
0000
0000
1000
0000
0000
0000
0100
0000
0000
0000
1000
0000
0000
0000
0001
0000
0000
0010
0000
0000
0100
0000
0000
1000
0000
0000
0001
0000
0000
0000
0010
0000
0000
0000
0100
0000
0000
0000
,
1000
0000
0001
0100
0001
0000
1001
0000
1000
0100
1000
0010
,
0100
0010
0000
0010
1000
0001
0010
0100
0010
0001
1000
0010
,
0110
0000
0000
0000
;

//--------------- dance-single - ----------------
#NOTES:
     dance-single:
     :
     Challenge:
     16:
     0.738157,0.818309,0.465704,0.620939,1.391569,466,424,42,56,0,0,0.738157,0.818309,0.465704,0.620939,1.391569,466,424,42,56,0,0:
0000
0000
0000
0000
,
0000
0000
0000
0000
,
0010
0000
0000
1000
0001
0000
0020
0000
0130
1000
0001
0000
,
0200
0000
0000
0310
1000
0000
0002
0000
0023
0000
0230
0000
,
1300
0000
0010
0100
0010
0000
2000
0000
3001
0010
0200
0000
,
2300
0000
3001
0100
0010
0100
0010
1000
0000
0001
1000
0000
,
0210
0000
0301
0010
0000
0100
2000
0000
3001
0100
0010
1000
,
0002
0000
0000
2003
0000
3010
0200
0000
0301
1000
0100
0010
,
0002
0000
0000
2003
0000
3010
0100
0000
0100
0001
1000
0000
,
2001
0000
3001
0010
0100
0010
0100
0000
1000
0010
0100
0010
,
0200
0000
0301
1000
0000
1000
0200
0000
0310
0001
1000
0001
,
0020
0000
0000
0230
0000
1300
0002
0000
0103
0010
0100
0001
,
2000
0000
0000
3200
0000
1300
0002
0000
0203
0000
0310
1000
,
0002
0000
0000
0000
0103
0000
0010
0000
1000
0000
0001
0000
1000
0000
0000
0000
0000
0000
0000
0000
0001
0010
0100
1000
,
2100
0000
3010
0100
0001
0000
1002
0000
1003
0010
0100
0000
,
0201
0000
0000
0000
0301
0000
1000
0000
0010
0000
0100
0000
0010
0000
0000
0000
1000
0000
0001
0000
1000
0010
0100
0001
,
0102
0000
1003
0100
0010
0000
0012
0000
1003
0100
0001
0000
,
0201
0000
0000
0000
1300
0000
0001
0000
0010
0000
0100
0000
2000
0000
0000
0000
3020
0000
0000
0000
0130
0001
1000
0100
,
0210
0000
0310
0001
1000
0000
1020
0000
1030
0001
0100
0000
,
0110
0000
0010
1000
0001
0000
1001
0000
0000
1000
0010
0000
,
0110
0000
0100
0001
0010
0100
2000
0000
3002
0000
0203
0000
,
0310
0000
0110
0000
0110
0010
1001
0100
0020
1000
0230
0010
,
0302
0000
0000
0000
1003
0000
0010
0000
0110
0000
0100
0000
1001
0000
0000
0000
1001
0000
0000
0000
0001
0010
0100
1000
,
2001
0000
0000
0000
3010
0000
0100
0000
0201
0000
0000
0000
0301
0000
0010
0000
0100
0000
0000
0000
1000
0100
0010
0001
,
0011
0000
0010
0000
0100
0000
1000
0000
0100
0000
0001
0000
0100
0000
1000
0001
0100
0010
1000
0001
1000
0010
0100
0001
,
1002
0000
1003
0010
0100
0001
0101
0000
0100
0001
1000
0100
,
0110
0000
0000
0000
0010
0000
0001
0000
1000
0000
0001
0000
0100
0010
1000
0010
0100
0001
0100
0010
1000
0001
1000
0100
,
0002
0000
0000
0000
0103
0000
1000
0000
0001
0000
0000
0000
0011
0000
0000
0000
0010
0000
0100
0000
1000
0010
0100
0001
,
0020
0000
0000
0000
0130
0000
1000
0001
1000
0000
0010
0000
0110
0000
0100
0001
1000
0100
0010
0100
1000
0001
0010
0100
,
2000
0000
3001
0100
1000
0000
1100
0000
0100
0001
0010
0000
,
0011
0000
0001
0000
1100
0000
1000
0000
0110
0000
1000
0000
0001
1000
0001
0010
0100
1000
0010
0100
0001
1000
0001
0010
,
2000
0000
0000
0000
3010
0000
0001
0000
0100
0010
0100
0001
2000
0000
0000
0000
3010
0000
0100
0000
0001
0010
0100
0010
,
0002
0000
0000
0000
0013
0000
0100
0000
1000
0000
0001
0000
0101
0000
0100
0000
0001
1000
0100
0010
0100
1000
0001
0100
,
2000
0000
3100
0001
0010
0100
1200
0000
1300
0010
0100
0001
,
0101
0000
0000
0000
0100
0000
0001
0000
0110
0000
1000
0000
0001
0100
0010
0100
1000
0100
0001
0010
0100
1000
0001
0010
,
2000
0000
3010
0001
0100
0000
1010
0000
1000
0001
0010
0100
,
1001
0000
0000
0000
1000
0001
0010
0100
0010
1000
0001
0100
2000
0000
0000
0000
3001
0100
0010
0100
1000
0001
0010
1000
,
0200
0000
0310
0001
1000
0000
1001
0000
0001
0100
0010
1000
,
1010
0000
0000
0000
0000
0000
0000
0000
0000
0000
0000
0000
0000
0000
0000
0000
0010
0000
0000
0000
0000
0000
0000
0000
1000
0000
0000
0000
0000
0000
0000
0000
0001
0000
0000
0000
0000
0000
0000
0000
0100
0000
0000
0000
0000
0000
0000
0000
0001
0000
0000
1000
0000
0000
0001
0000
0000
1000
0000
0000
0001
0000
0000
0000
0010
0000
0000
0000
0100
0000
0000
0000
1000
0000
0000
0000
0001
0000
0000
0000
1000
0000
0000
0000
0100
0000
0000
0000
0000
0000
0010
0000
0000
0000
0000
0000
,
0001
0000
0010
0100
0010
0000
1001
0000
1000
0010
0100
0001
,
0110
0000
1000
0000
0000
0000
1000
0000
0100
0000
0010
0000
0001
1000
0001
0010
0100
1000
0001
0100
0010
0000
1000
0000
,
1001
0000
0000
0000
;
