#TITLE:Heaven Or Hell;
#SUBTITLE:;
#ARTIST:ポプテピピック;
#TITLETRANSLIT:Heaven Or Hell;
#SUBTITLETRANSLIT:;
#ARTISTTRANSLIT:pop team epic;
#GENRE:ANIME;
#CREDIT:;
#MUSIC:Heaven Or Hell.ogg;
#BANNER:Heaven Or Hell-.png;
#BACKGROUND:Heaven Or Hell-bg.png;
#CDTITLE:;
#SAMPLESTART:0.643;
#SAMPLELENGTH:17.667;
#SELECTABLE:YES;
#OFFSET:0.690;
#BPMS:0.000=180.000;
#STOPS:;
#BGCHANGES:;
#FGCHANGES:;

//--------------- dance-single - ----------------
#NOTES:
     dance-single:
     :
     Beginner:
     13:
     0,0,0,0,0:
0000
0000
0000
0000
,
0001
0100
0100
1000
0100
0100
0001
1000
,
0001
0010
0010
1000
0010
0010
0001
1000
,
0100
0100
0001
0010
0010
1000
0001
1000
,
0010
0010
0001
0100
0100
1000
0001
1000
,
0100
0100
0001
1000
0100
0100
0001
1000
,
0001
0100
0100
1000
0001
0010
0010
1000
,
0001
0100
0100
1000
0001
0010
0010
1000
,
0001
1000
0100
0100
0001
1000
0010
0010
,
0001
0100
0100
0100
0001
0010
0010
0010
,
0001
0100
0100
1000
0100
0100
0100
1000
,
0010
0100
0100
1000
1000
1000
0010
0010
,
0010
0100
0100
0100
0001
0001
0001
0001
,
0000
0000
1001
0000
;

//--------------- dance-single - ----------------
#NOTES:
     dance-single:
     :
     Easy:
     15:
     0,0,0,0,0:
0000
0000
0000
0000
,
0001
1000
0001
1000
0001
1000
0001
1000
,
0001
1000
0001
1000
0001
1000
0001
1000
,
0001
1000
0001
1000
0001
1000
0001
1000
,
0001
1000
0001
1000
0001
1000
0001
1000
,
0001
1000
0001
1000
0001
1000
0001
1000
0001
1000
0001
1000
0001
1000
0001
1000
,
0001
1000
0001
1000
0001
1000
0001
1000
0001
1000
0001
1000
0001
1000
0001
1000
,
0001
1000
0001
1000
0001
1000
0001
1000
0001
1000
0001
1000
0001
1000
0001
1000
,
0001
1000
0001
1000
0001
1000
0001
1000
0001
1000
0001
1000
0001
1000
0001
1000
,
0001
1000
0001
1000
0001
1000
0001
1000
0001
1000
0001
1000
0001
1000
0001
1000
,
0001
1000
0001
1000
0001
1000
0001
1000
0001
1000
0001
1000
0001
1000
0001
1000
,
0001
1000
0001
1000
0001
1000
0001
1000
0001
1000
0001
1000
0001
1000
0001
1000
,
0001
1000
0001
1000
0001
1000
0001
1000
0001
1000
0001
1000
0001
1000
0001
1000
,
0001
0000
1001
0000
;

//--------------- dance-single - ----------------
#NOTES:
     dance-single:
     :
     Medium:
     16:
     0,0,0,0,0:
0000
0000
0000
0000
,
0001
0010
0001
0010
0001
0010
0001
0010
,
0100
1000
0100
1000
0100
1000
0100
1000
,
0001
0100
0001
0100
0001
0100
0001
0100
,
0010
1000
0010
1000
0010
1000
0010
1000
,
0001
0010
0001
0010
0001
0010
0001
0010
0100
0010
0100
0010
0100
0010
0100
0010
,
0100
1000
0100
1000
0100
1000
0100
1000
0010
1000
0010
1000
0010
1000
0010
1000
,
0010
0100
0010
0100
0010
0100
0010
0100
0001
0100
0001
0100
0001
0100
0001
0100
,
0001
0010
0001
0010
0001
0010
0001
0010
0100
0010
0100
0010
0100
0010
0100
0010
,
0100
1000
0100
1000
0100
1000
0100
1000
0010
1000
0010
1000
0010
1000
0010
1000
,
0010
0100
0010
0100
0010
0100
0010
0100
0001
0100
0001
0100
0001
0100
0001
0100
,
0001
0010
0001
0010
0001
0010
0001
0010
0100
0010
0100
0010
0100
0010
0100
0010
,
0100
1000
0100
1000
0100
1000
0100
1000
0010
1000
0010
1000
0010
1000
0010
1000
,
0010
0000
1001
0000
;

//--------------- dance-single - ----------------
#NOTES:
     dance-single:
     :
     Hard:
     17:
     0,0,0,0,0:
0000
0000
0000
0000
,
0001
0100
0010
0100
0001
0010
0100
1000
,
0100
0010
0001
0010
0100
1000
0010
0100
,
0001
0010
0001
1000
0010
1000
0100
0010
,
0100
0010
0001
1000
0010
0100
0001
0100
,
0001
0010
0001
1000
0010
1000
0010
0100
0010
0100
0001
0100
0010
1000
0100
1000
,
0100
0010
0100
0010
0001
1000
0100
1000
0001
1000
0010
0100
0010
0100
0001
1000
,
0100
0010
0100
0010
0100
1000
0001
0100
0001
0100
0001
1000
0100
1000
0100
0010
,
0100
0010
0001
0010
0001
0100
0010
1000
0010
1000
0001
1000
0010
0100
0010
0100
,
0001
0100
0010
1000
0001
0010
0001
0010
0100
1000
0001
0100
0010
1000
0010
0100
,
0010
1000
0100
0010
0001
1000
0010
0100
0010
1000
0010
1000
0100
1000
0001
0010
,
0100
1000
0001
0010
0001
1000
0100
0010
0001
1000
0010
0100
0001
1000
0010
0100
,
0001
0100
0001
0100
0010
1000
0001
0010
0100
0010
0100
1000
0100
0010
0001
0010
,
0100
0000
1001
0000
;

//--------------- dance-single - ----------------
#NOTES:
     dance-single:
     :
     Challenge:
     18:
     0,0,0,0,0:
0000
0000
0000
0000
,
0100
0100
0100
0100
0100
0100
0100
0100
,
0100
0100
0100
0100
0100
0100
0100
0100
,
0100
0100
0100
0100
0100
0100
0100
0100
,
0100
0100
0100
0100
0100
0100
0100
0100
,
0100
0100
0100
0100
0100
0100
0100
0100
0100
0100
0100
0100
0100
0100
0100
0100
,
0100
0100
0100
0100
0100
0100
0100
0100
0100
0100
0100
0100
0100
0100
0100
0100
,
0100
0100
0100
0100
0100
0100
0100
0100
0100
0100
0100
0100
0100
0100
0100
0100
,
0100
0100
0100
0100
0100
0100
0100
0100
0100
0100
0100
0100
0100
0100
0100
0100
,
0100
0100
0100
0100
0100
0100
0100
0100
0100
0100
0100
0100
0100
0100
0100
0100
,
0100
0100
0100
0100
0100
0100
0100
0100
0100
0100
0100
0100
0100
0100
0100
0100
,
0100
0100
0100
0100
0100
0100
0100
0100
0100
0100
0100
0100
0100
0100
0100
0100
,
0100
0100
0100
0100
0100
0100
0100
0100
0100
0100
0100
0100
0100
0100
0100
0100
,
0100
0000
0110
0000
;
