#TITLE:ハートサーモグラフィー;
#SUBTITLE:;
#ARTIST:周防パトラ;
#TITLETRANSLIT:Heart Thermography;
#SUBTITLETRANSLIT:;
#ARTISTTRANSLIT:Suou Patra;
#GENRE:POP;
#CREDIT:;
#MUSIC:Heart Thermography.ogg;
#BANNER:Heart Thermography.png;
#BACKGROUND:Heart Thermography-bg.png;
#CDTITLE:;
#SAMPLESTART:45.359;
#SAMPLELENGTH:12.000;
#SELECTABLE:YES;
#OFFSET:1.308;
#BPMS:0.000=180.000;
#STOPS:;
#LASTBEATHINT:0.901263;
#BGCHANGES:7.500=Heart Thermography.avi=1.000=0=0=1,
99999.000=-nosongbg-=1.000=0=0=0=StretchNoLoop====
;
#FGCHANGES:;

//--------------- dance-single - ----------------
#NOTES:
     dance-single:
     :
     Medium:
     12:
     0,0,0,0,0:
0000
0000
0000
0000
,
0000
0000
0000
0000
,
0000
0000
0000
0000
,
1000
1000
0010
1000
,
0001
0100
0100
1000
0001
0000
0010
0000
,
0100
0000
0010
0000
0100
0000
0010
0001
,
1000
0000
0010
0100
0001
1000
0100
0010
,
0100
0000
0000
1000
0100
0000
0000
0001
,
0100
0000
0000
1000
0100
0000
1001
0000
,
0001
0100
0001
0100
0001
0100
0001
1000
,
0200
0320
0032
2003
,
3001
0101
1000
1100
,
1000
0100
0100
0001
1000
0000
0010
0000
,
0100
0001
0010
0000
0100
1000
0010
0100
,
0001
0010
0100
1000
0001
0010
0100
1000
,
0010
0000
0010
0100
0010
0000
0010
0100
,
0010
0000
0010
1000
0001
0000
0100
0000
,
0001
1000
0001
1000
0001
1000
0100
0010
,
0001
0000
0001
0010
0100
1000
0001
1000
,
0010
0000
0010
1000
0001
0000
1000
0100
,
0010
0100
1000
0001
0101
0000
0101
0000
,
0100
0001
1000
0000
0001
0010
0100
1000
,
0001
0100
0010
0100
0001
0000
1001
0000
,
1000
0100
0001
0100
1000
0000
1001
0000
,
0001
0100
1000
0100
0001
0000
1001
0000
,
1010
0000
0101
0000
0001
0010
0000
0010
,
0100
0000
0100
1000
0000
1000
0001
0000
,
0002
0000
0000
0100
0000
0000
1000
0000
0013
0000
0000
0000
0010
0000
0001
0000
,
1000
0100
0010
0000
0100
0000
0100
0000
,
2000
0000
0000
0100
0000
0000
0001
0000
3010
0000
0000
0000
0010
0000
0100
0000
,
0001
1000
0001
0000
0100
0000
0100
0001
,
0020
0000
0000
1000
0000
0000
0100
0000
0031
0000
0000
0000
0001
0000
0010
0000
,
0200
2300
3002
0103
,
0010
1010
0100
0101
,
0001
0100
0001
0010
0100
1000
0010
1000
,
0001
0100
0010
0100
0001
0000
0101
0000
,
0001
0100
0001
0100
0001
0100
0001
0100
,
1000
0100
0001
0100
1000
0100
0001
0000
,
1000
0100
1000
0100
1000
0100
1000
0100
,
0001
0100
1000
0100
0010
0100
1000
0010
,
0001
0000
0110
0000
0010
1000
0100
0010
,
0001
0000
1001
0000
1000
0010
0100
0001
,
0010
0010
0100
0100
,
1000
0100
0010
0001
1000
0000
1001
0000
,
0001
0010
0001
0010
0001
0010
0001
0010
,
1000
0010
0001
0010
1000
0010
0001
0000
,
1000
0010
1000
0010
1000
0010
0001
0010
,
1000
0000
1000
0001
0010
0100
1000
0001
,
0100
0000
0010
1000
0100
0000
0010
0001
,
0100
0000
0010
1000
0001
0000
0001
0000
,
1000
0100
0001
0100
1000
0100
0001
0100
,
1000
0000
0010
0000
0010
1000
0001
0010
,
0100
1000
0010
1000
0100
1000
0010
1000
,
0001
0100
0100
1000
0001
0100
0100
1000
,
0001
0010
1000
0010
0001
0100
1000
0100
,
0001
0000
1001
0000
1000
0010
1000
0010
,
0100
0001
0010
0001
0100
0001
0010
0001
,
1000
0100
0100
0001
1000
0100
0100
0001
,
1000
0100
0001
0100
1000
0010
0001
0010
,
1000
0000
1001
0000
1000
0010
0100
0001
,
1000
0100
0001
0100
1000
0100
0001
0100
,
1000
0100
0100
0001
1000
0000
1001
0000
,
0001
0100
1000
0100
0001
0100
1000
0100
,
0001
0000
0001
0010
0100
1000
0100
1000
,
0001
0010
0100
0010
0001
0000
1100
0000
,
1000
0010
0100
0010
1000
0000
0101
0001
,
0010
0100
0001
0100
0010
0001
1000
0010
,
0100
1000
0100
0010
1000
0100
0010
0001
,
1000
0001
1000
0001
,
1000
0100
0100
0001
1000
0000
0001
0000
,
0100
0000
0010
0000
0100
0000
0010
1000
,
0100
0100
0001
0010
0100
1000
0001
0010
,
0100
0000
1000
0000
0100
0000
1000
0001
,
0100
0000
0010
1000
0001
0000
0010
0000
,
0100
1000
0100
1000
0001
0100
0001
0100
,
0010
1000
0100
0010
,
0220
0000
0000
0000
,
0330
0000
0000
0000
;

//--------------- dance-single - ----------------
#NOTES:
     dance-single:
     :
     Hard:
     16:
     0,0,0,0,0:
0000
0000
0000
0000
,
0000
0000
0000
0000
,
0000
0000
0000
0000
,
0100
1001
0100
1001
,
0001
0010
0100
1000
0001
0000
0100
0000
,
0010
0000
1001
0000
0010
0000
1001
0001
,
0010
0000
0100
1000
0010
0100
0001
1000
,
1100
0000
0000
0001
0100
0000
0000
1000
,
0100
0000
0000
0001
0100
0000
1001
0000
,
0001
0100
0001
0100
0001
0100
1000
0100
,
0001
0010
0100
1000
0001
0000
0100
0000
0010
1000
0000
0010
0100
0000
0001
0100
,
0001
0000
1000
0010
1000
0000
0001
0100
0001
0000
1000
0010
1000
0000
0001
0000
,
1000
0100
0100
0001
0010
0100
1000
0001
,
1000
0000
0001
0010
0001
0000
1000
0100
1000
0000
0001
0010
0001
0000
1000
0000
,
0100
0000
0100
0000
0001
0000
1000
0000
0010
0000
0100
0000
0001
0010
0100
1000
,
0001
0000
0101
0001
0010
0000
1100
1000
,
0010
0000
0000
0000
0100
0000
0001
0000
1000
0000
0100
0000
0010
0001
0010
0001
,
1000
0010
0001
0010
1000
0010
0001
0010
,
1000
0001
1000
0001
1000
0000
0001
0000
0010
0000
0100
0000
1000
0000
0001
0100
,
0010
0000
0010
1000
0001
0000
0010
0000
,
0110
0000
1000
0001
1001
0000
1001
0000
,
1000
0100
0010
0100
1000
0001
0010
0100
,
1100
1000
0001
0100
0110
0000
0110
0000
,
0001
0100
1000
0100
0001
0000
1010
0000
,
1000
0100
0001
0100
1000
0000
0011
0000
,
1100
0000
0011
0000
0001
1000
0100
1000
,
0001
0000
0100
0000
0001
0000
1000
0000
0010
0100
0000
0001
1000
0000
0010
0000
,
0100
0000
0000
0101
0000
0000
1010
0000
0100
0000
0001
0000
0000
0000
0001
0000
,
1000
0000
0100
0010
0100
0000
1000
0000
0001
0000
0000
0000
0010
0000
0100
0000
,
1000
0000
0000
1100
0000
0000
0011
0000
0100
0000
1000
0000
0000
0000
1000
0000
,
0001
0000
0100
0010
0100
0000
0001
0000
1000
0000
0100
0010
0100
0000
1000
0000
,
0001
0000
0000
0011
0000
0000
1100
0000
0001
0000
1000
0000
0000
0000
1000
0000
,
0020
0100
0230
0001
0302
1000
0023
0000
,
0130
0000
1000
0001
0101
0000
0001
1000
,
1100
0000
0000
0000
0100
0000
1000
0000
0001
0000
1000
0100
0010
0000
0100
0000
,
1000
0001
0010
0100
1000
0000
1001
0000
,
1000
0000
0001
0100
0001
0000
1000
0100
1000
0000
0001
0100
0001
0000
1000
0100
,
0010
0100
1000
1000
0001
0100
0001
0010
,
0100
0000
1000
0100
1000
0000
0001
0100
0001
0000
1000
0100
1000
0000
0001
0100
,
0010
0000
1000
0000
0001
0000
0010
0000
0100
0000
1000
0001
1000
0000
0010
0000
,
0110
0000
0010
1000
0101
1000
0010
0100
,
1010
0000
0011
0000
0001
0010
0100
1000
,
1001
1001
0110
0110
,
0001
0000
1000
0010
0100
0000
0010
0000
1000
0001
1000
0001
1000
0000
0001
0100
,
0001
0000
0010
0001
0010
0000
0001
0100
0001
0000
0010
0001
0010
0000
0001
1000
,
0100
0000
0001
0000
0100
0000
1000
0000
0100
0000
0001
0000
0100
0000
1000
0100
,
1000
0000
0010
1000
0010
0000
1000
0100
1000
0000
0010
1000
0010
0000
0100
0001
,
1000
0100
0011
0100
1000
0010
0101
0010
,
1001
0000
2000
0001
3100
0010
0002
1000
,
0103
0000
0010
0000
1000
0000
0001
1000
0001
0000
0010
0000
0100
0000
0000
0000
,
0100
1000
0010
0001
0010
1000
0001
0010
,
0100
1000
0010
1000
0001
0100
0001
0010
0100
0000
1000
0001
1000
0000
0001
0100
,
0001
0000
0010
0100
0010
0000
0001
0100
0001
0000
0010
0100
0010
0000
0001
1000
,
0100
0000
0010
0000
0100
0000
1000
0000
0001
0000
0100
0010
1000
0001
0010
0100
,
1000
0000
0001
0000
0110
0000
1000
0000
0001
0000
1000
0000
0110
0000
0001
1000
,
0010
0000
0000
0000
1001
0000
0000
0000
0001
0100
0001
0010
0100
1000
0010
1000
,
0001
0000
1000
0100
1000
0000
0010
0100
0010
0000
1000
0100
1000
0000
0010
0100
,
0010
0000
1000
0000
0001
0000
0010
0000
0100
0000
1000
0001
1000
0000
0001
0000
,
1001
1000
1100
1000
1001
0001
0101
0001
,
1001
0000
1000
0010
0100
0000
0001
0010
0100
0000
1000
0010
0100
0001
1000
0010
,
0100
0000
0001
0100
0001
0000
0100
1000
0100
0000
0001
0100
0001
0000
0100
1000
,
0100
0001
0001
0010
0100
1000
1000
0010
,
0101
1000
1100
0001
0101
1000
1100
0001
,
1001
0100
0100
0010
1000
0001
0010
0100
,
1100
1000
0010
0100
0002
0100
1003
0000
,
0101
0001
0010
0100
2000
0100
3001
0010
,
0100
0000
1000
0100
1000
0000
0100
0001
0100
0000
1000
0100
1000
0000
0001
0000
,
0101
0000
0000
0000
1010
0000
0010
0000
1000
0000
0001
0000
1000
0100
0010
0001
,
1000
0001
0100
0001
,
1000
0100
0001
0100
1000
0000
0001
0000
,
0100
0000
0010
0000
0100
0000
0010
1000
,
0100
0100
0001
0010
0100
1000
0001
0100
,
0010
0000
1000
0000
0001
0000
1000
0010
,
0100
0000
0001
0010
0100
0000
1000
0000
,
0001
0100
0001
0100
0001
0100
1000
0100
,
0001
0100
0010
1000
,
1000
0100
0010
0001
0000
0000
0000
0000
;

//--------------- dance-single - ----------------
#NOTES:
     dance-single:
     :
     Challenge:
     18:
     0.974352,1.267869,0.142291,0,0.849001,719,704,15,0,0,0,0.974352,1.267869,0.142291,0,0.849001,719,704,15,0,0,0:
0000
0000
0000
0000
,
0000
0000
0000
0000
,
0000
0000
0000
0000
,
0101
0101
1100
1100
,
0001
0010
0100
1000
0001
0000
0010
0000
,
1100
0000
0011
0000
0101
0000
1010
1000
,
0001
0000
0010
0100
1000
0001
0100
0010
,
0110
0000
0000
1000
1100
0000
0000
0001
,
0101
0000
0000
0100
0110
0000
1001
0000
,
0001
0100
0001
0100
0001
0100
0001
1000
,
0001
0010
0100
1000
0001
0010
0100
1000
0010
0100
0010
0100
0001
1000
0100
0010
,
0001
0000
1000
0010
0100
0000
0001
0010
0100
0000
1000
0010
0100
0000
0001
0000
,
1000
0010
0100
0001
0100
0001
0010
0001
0100
0010
1000
0100
1000
0100
0010
0100
,
1000
0000
0001
0100
0010
0000
1000
0100
0010
0000
0001
0100
0010
0000
1000
0000
,
0001
0100
0010
1000
0100
1000
0100
0010
0001
0100
0001
0100
0010
1000
0100
0010
,
0001
0000
1000
0000
0001
0100
0010
0000
0010
0100
0001
0000
0001
0010
0100
0000
,
1000
0100
0010
0000
0010
0100
1000
0000
1000
0010
0100
0000
0001
0010
0100
1000
,
0001
0000
0011
0000
1000
0000
1100
0000
0001
0000
0101
0000
1000
0000
0001
1000
,
0001
0000
1000
0000
0001
0000
0010
0000
0100
0000
1000
0000
0001
0000
0000
0000
0000
0000
1000
0000
0010
0000
1000
0000
0010
0000
0000
0000
0000
0000
0100
0000
0001
0000
0100
0000
0001
0000
0000
0000
0000
0000
1000
0000
0000
0100
0000
0000
,
0010
0000
0000
0001
0100
0000
0000
0000
,
0110
0000
0000
1000
1001
0000
1001
0000
,
0110
0000
0000
0101
0000
1000
0100
1000
,
0011
0000
0000
0000
0000
0000
1000
0100
0010
0001
0000
0000
1001
0000
0000
0000
0000
0000
0110
0000
0000
1000
0000
0000
,
0001
0100
1000
0100
0001
1000
0100
0000
,
0100
1000
0001
0010
0011
0000
1100
0000
,
1000
0000
0010
0000
0001
0000
1000
0000
0100
0000
0010
1000
0100
0000
0010
0000
,
0001
0000
0100
0000
0001
0000
1000
0000
0100
0010
0000
1000
0010
0001
0100
0010
,
0100
0000
0000
0000
0000
0000
0000
0000
0000
0010
0000
0000
0000
0000
0000
0000
0000
0000
1000
0000
0100
0000
1000
0000
0100
0000
0000
0000
0000
0000
0010
0000
0000
0000
0000
0000
0000
0000
0000
0000
0000
0000
0010
0000
0000
0000
0000
0000
,
0001
0010
0100
0010
1000
0000
0010
0000
0001
0000
1000
0000
0010
0000
0100
0000
,
0010
0000
0000
1000
0000
0000
0010
0000
0000
0100
0001
0100
0001
0000
0000
0010
0000
0000
0000
0000
0000
0100
0000
0000
,
1000
0000
0000
0010
0000
0000
0100
0000
0000
0010
0000
0000
0001
0000
0000
0000
0000
0000
0010
0000
0000
0000
0000
0000
1000
0000
0001
0000
1000
0000
0001
0000
0000
0000
0000
0000
0010
0000
0000
0000
0000
0000
0010
0000
0000
0100
0000
0000
,
1000
0000
0000
0000
0000
0000
0010
0000
0000
0100
0001
0010
0100
0000
0000
0010
0000
0000
0000
0000
0000
0010
0000
0000
,
0001
1000
0000
1000
0001
0000
0100
0000
0110
0000
0000
0000
0110
0000
0000
0000
,
0010
0000
0000
0010
1000
0000
0001
0000
1000
0000
0100
0000
0001
0000
0100
0000
,
1000
0000
0010
0000
0001
0000
0010
0000
1000
0000
0001
0100
0010
0000
0100
0000
,
0101
0000
1000
0000
0010
0000
0110
0000
1000
0000
0001
0000
0101
0000
0001
1000
,
0100
0010
0001
0010
0100
0010
0001
0010
0100
0010
0001
0010
0100
0010
0001
0010
,
0100
0000
1000
0000
0101
0000
0001
0000
1100
0000
1000
0000
0101
0000
1000
0001
,
0100
0010
1000
0010
0100
0010
1000
0010
0100
0010
1000
0010
0100
0010
1000
0010
,
0100
0000
0001
0000
1100
0000
0100
1000
0001
0000
0100
0001
1000
0000
0100
1000
,
0010
0000
0100
0000
0010
0000
0100
0001
0010
0000
0100
0000
0010
0000
0100
1000
,
0010
0000
0000
0100
0000
0000
0001
0010
0001
0010
0000
0000
0100
1000
0100
1000
0000
0000
0010
0000
0000
0100
0000
0000
,
1001
0100
1001
0100
1001
0010
1001
0010
,
0001
0000
0000
0000
0000
0000
0010
0000
0000
0100
0000
0000
1000
0000
0000
0000
0000
0000
0010
0000
0000
0100
0000
0000
0001
0000
1000
0000
0001
0000
1000
0000
0001
0000
1000
0000
0001
0000
0000
0000
0000
0000
1000
0000
0000
0001
0000
0000
,
0010
0100
1000
0100
0010
0100
1000
0100
0010
0100
1000
0100
0010
0100
1000
0100
,
0010
0000
0000
0000
0000
0000
0100
0000
0000
1000
0000
0000
0001
0000
0000
0000
0000
0000
0100
0000
0010
0000
0100
0000
0010
0000
0000
0000
0000
0000
1000
0000
0000
0000
0000
0000
0001
0000
0000
0000
0000
0000
1000
0000
0000
0000
0000
0000
,
0001
1000
0010
0100
0001
0100
0010
0100
0001
0100
0010
0100
0001
0100
0010
0100
,
0001
0000
1000
0000
1001
0000
0001
0010
1000
0000
0001
0100
1000
0000
0010
0000
,
0100
0000
0001
0000
1000
0000
1010
0000
0101
0000
0001
0010
0100
0000
0011
0000
,
1100
0000
0000
0000
0000
0000
1000
0000
0000
0010
0000
0000
0100
0000
0000
0000
0000
0000
0001
0000
0010
0000
0100
0000
1000
0000
0000
0000
0000
0000
0001
0000
0000
0010
0000
0000
0100
0000
0000
0000
0000
0000
1000
0000
0000
0000
0000
0000
,
1100
1000
0101
0001
1100
1000
0101
0001
,
1000
0000
0000
0010
0000
0000
0100
0000
0000
0010
0000
0000
1000
0000
0000
0001
0000
0000
0010
0000
0000
0100
0000
0000
1000
0000
0001
0000
1000
0000
0001
0000
0000
0100
0000
0000
0001
0000
1000
0000
0001
0000
1000
0000
0000
0100
0000
0000
,
0010
0001
0100
0001
0010
0001
0100
0001
0010
0001
0100
0001
0010
0001
0100
0001
,
1000
0000
0000
0000
0000
0000
0010
0000
0000
0000
0000
0000
0100
0000
0000
0000
0000
0000
0001
0000
0010
0000
0001
0000
0010
0000
0000
0000
0000
0000
0100
0000
0000
1000
0000
0000
0001
0000
0000
0010
0000
0000
0100
0000
0000
1000
0000
0000
,
0001
0000
0000
0000
0000
0000
0010
0000
0000
0000
0000
0000
0100
0000
0000
0000
0000
0000
1000
0000
0001
0000
1000
0000
0001
0000
0000
0000
0000
0000
0100
0000
0000
0000
0000
0000
0010
0000
0000
0000
0000
0000
1000
0000
0000
0001
0000
0000
,
1000
0000
0000
0000
0000
0000
0100
0000
0000
0000
0000
0000
1000
0000
0000
0001
0000
0000
1000
0000
0000
0000
0000
0000
0001
0000
0100
0000
0001
0000
0100
0000
0000
0010
0000
0000
1000
0000
0100
0000
1000
0000
0100
0000
0000
0010
0000
0000
,
0100
1000
0010
1000
0100
1000
0010
1000
0100
1000
0010
1000
0100
1000
0010
1000
,
0001
0000
0010
0000
0100
0000
1000
0100
0010
0000
0100
1000
0100
1000
0001
0100
,
1000
0000
1000
0100
0001
0000
1000
0100
0001
0000
0001
0100
1000
0000
0010
0000
,
1000
0000
0000
0000
0000
0000
0001
0000
0100
0000
0001
0000
0100
0000
0000
0000
0000
0000
0001
0000
1000
0000
0001
0000
1000
0000
0000
0000
0000
0000
0001
0000
0010
0000
0001
0000
0010
0000
0000
0100
0000
0000
1000
0000
0000
0100
0000
0000
,
0010
0001
0100
0010
0100
0001
0010
0100
0010
0001
0100
0010
0100
0001
0010
0100
,
0010
0001
0101
0001
1100
0001
0101
0001
,
1100
0000
0100
1000
0010
0000
0100
0001
0010
0000
0100
1000
0010
0000
0100
0001
,
0010
0100
1100
1000
0101
1000
1100
1000
,
0011
0000
0001
1000
0100
0000
0010
0000
0011
0000
0110
0000
1100
0000
0001
0000
,
1010
0000
1000
0001
0100
0000
0010
0000
1010
0000
0110
0000
0101
0000
0100
0001
,
0010
0100
1000
0100
1000
0001
0010
0100
1000
0001
0100
0001
0100
0010
1000
0001
,
0011
0000
0000
0000
0000
0000
0010
0000
0000
0000
0000
0000
1001
0000
0000
0000
0000
0000
0010
0000
0000
0000
0000
0000
1100
0000
0000
0000
0000
0000
1000
0000
0000
0001
0000
0000
1000
0000
0100
0000
0010
0000
0001
0000
1000
0000
0100
0000
,
0010
0001
0100
0001
,
1000
0100
1000
0100
0010
0000
0100
0000
,
1000
0000
0001
0000
1000
0000
0001
0100
,
0010
0100
0001
0010
0100
1000
0001
0100
,
0010
0000
0010
0000
0100
0000
0001
0010
,
0100
0000
1000
0010
0100
0000
0001
0000
,
1000
0100
1000
0100
0001
0100
1000
0010
,
0100
0001
0010
0100
,
1000
0100
0010
0001
0000
0000
0000
0000
;
