#TITLE:ハザードシンボル;
#SUBTITLE:;
#ARTIST:遊遊;
#TITLETRANSLIT:Hazard symbol;
#SUBTITLETRANSLIT:;
#ARTISTTRANSLIT:yuyu;
#GENRE:ANIME;
#CREDIT:;
#MUSIC:Hazard symbol.ogg;
#BANNER:Hazard symbol.png;
#BACKGROUND:Hazard symbol-bg.png;
#CDTITLE:;
#SAMPLESTART:55.228;
#SAMPLELENGTH:12.115;
#SELECTABLE:YES;
#OFFSET:0.926;
#BPMS:0.000=156.000;
#STOPS:;
#BGCHANGES:2.250=Hazard symbol.avi=1.000=0=0=0=StretchNoLoop====,
99999.000=-nosongbg-=1.000=0=0=0=StretchNoLoop====
;
#FGCHANGES:;

//--------------- dance-single - ----------------
#NOTES:
     dance-single:
     :
     Hard:
     13:
     0,0,0,0,0:
0000
0000
0000
0000
,
0000
0000
0000
0000
,
0000
0000
0000
0000
,
0110
0000
0000
0000
0001
0000
1000
0000
0100
0000
0000
0100
0000
0000
0100
0000
,
0000
0100
1000
0001
0101
0000
1010
0000
,
1000
0000
0010
0000
0100
0000
0001
0000
0010
0000
0000
0100
0000
0000
0110
0000
,
0000
0100
1000
0001
0000
1001
0000
0000
,
0110
0000
0000
0000
1000
0000
0001
0000
0100
0000
0000
0100
0000
0000
0100
0000
,
0000
0100
0001
1000
1100
0000
0011
0000
,
0001
0000
0010
0000
0100
0000
1000
0000
0010
0000
0000
0100
0000
0000
0110
0000
,
0000
0000
0010
0000
1000
0000
0001
0000
0000
0000
1001
0000
0000
0000
1000
0100
,
1000
0000
0000
0000
0010
0000
0100
0000
0001
0000
0000
0001
0000
0000
1000
0000
,
0000
0001
1000
1000
0010
0010
0100
0001
,
1000
0000
0000
0000
0001
0000
0010
0000
0100
0000
0000
0100
0000
0000
0011
0000
,
0000
0000
1100
0000
0000
0000
2000
0000
0000
0000
3010
0100
0010
0000
1000
0000
,
0000
0001
0010
0100
1000
0001
1000
0010
,
0000
0100
0001
0001
1000
1000
0100
0010
,
0001
0000
0000
0000
0001
0000
0010
0000
1100
0000
0000
0101
0000
0000
1001
0000
,
0000
0001
0100
0010
1000
0000
0100
0000
,
0010
0000
0000
0000
0001
0000
1000
0000
0001
0000
0100
0010
0000
0100
0001
0000
,
0000
0000
0001
0000
1000
0100
1000
0000
0001
0000
1000
0100
1000
0000
0010
0000
,
0100
0000
0000
0000
0001
0000
0010
0000
0100
0000
1000
0100
0000
0010
0100
0000
,
0000
0010
0001
1000
0000
0010
0100
0010
,
1000
0001
0010
1000
0001
0100
1000
0010
,
0000
0010
0010
1000
1000
0001
0010
0100
,
1000
0000
0000
0000
0020
0000
0000
0000
1030
0000
0001
0000
0010
0100
0020
0000
,
0000
0031
1000
0010
1000
0001
0101
0000
,
1000
0000
0002
0003
0200
0000
0300
0000
,
0002
0003
2000
0000
3000
0000
0002
0003
,
0020
0000
0030
0000
0100
1000
0001
0000
,
1000
0100
0010
0001
0010
0100
1000
0001
,
0100
1010
0101
0011
,
1100
0000
0011
0000
1100
0000
0001
0010
,
0100
0000
1000
0000
0001
0000
0200
0000
1000
0000
0000
0010
0000
0000
0302
0000
,
0000
1003
0100
1000
0100
0000
0010
0000
,
0100
0000
1100
0000
0001
1000
0001
1000
,
0000
0010
0100
0010
1000
0100
0010
0001
,
0000
0001
0010
0100
2000
0000
0001
3002
,
0000
0103
0010
0200
0000
1300
0100
0002
,
0000
0000
1003
0100
1000
0000
0001
0100
0001
0000
0010
0000
0100
0000
2000
0000
,
0000
3010
0100
0001
0010
0000
0010
0100
,
1100
0000
0000
0000
0011
0000
0001
1000
0100
0000
0000
0100
0000
0000
1100
0000
,
0000
1000
0010
0100
0001
0010
1000
0001
,
0200
0000
1300
0010
0001
2000
0000
3200
,
0000
0001
0301
0020
0000
0130
1000
0002
,
0000
1003
0010
0100
0002
0000
1000
2003
,
0000
3010
0100
0020
0000
1030
0100
0002
,
0000
1003
0010
0002
0000
1003
0010
0002
,
0000
0013
0100
0000
0101
0000
1010
0000
,
1000
0001
0010
0110
0000
1100
1000
0001
,
0100
0101
0000
1100
0000
0001
1000
0020
,
0000
0100
0000
1030
0001
0010
0100
1000
,
0001
0000
0100
0001
0000
1000
0001
0000
0010
0100
0010
0000
0000
0000
0000
0000
,
0001
0000
0100
0010
0000
0100
0001
0000
0100
0010
0000
0100
1000
0000
0100
0010
,
0000
1000
0000
1000
0001
0010
0000
0100
1000
0000
0100
0010
0100
0000
0010
0001
,
0000
0010
0100
0000
1100
0000
0000
1001
0000
0000
0101
0000
0000
0000
0000
0000
,
1000
0000
0100
0010
0000
0100
1000
0000
0100
0010
0000
0100
0001
0000
0100
0010
,
0000
0001
0000
0001
0100
0000
0010
0000
1010
0000
0000
1001
0000
0000
0101
0000
,
0000
0011
0000
0000
0110
0000
0000
1100
0000
0000
1001
0000
0000
0000
0000
0000
;

//--------------- dance-single - ----------------
#NOTES:
     dance-single:
     :
     Challenge:
     17:
     0.945095,1.04225,0.420213,0.150846,1.109794,614,575,39,14,0,0,0.945095,1.04225,0.420213,0.150846,1.109794,614,575,39,14,0,0:
0000
0000
0000
0000
,
0000
0000
0000
0000
,
0000
0000
0000
0000
,
0001
0000
1000
0100
1000
0000
0001
0010
0100
0000
1000
0010
0000
0100
0010
0000
,
0001
0010
0100
0000
0001
0000
1000
0000
0001
1000
0100
0010
0001
0000
1000
0001
,
1000
0000
0001
0000
0100
0000
1000
0000
0100
0000
0001
0010
0000
0100
0010
0000
,
1000
0010
0100
1000
0001
0100
0010
0000
0000
0000
1001
0000
0001
0010
0100
1000
,
0010
0000
0100
0001
0100
0000
0010
1000
0001
0000
0010
0100
0000
1000
0010
0000
,
0100
0001
1000
0010
0100
0000
0010
0100
0001
1000
0100
0010
0001
0000
0100
0010
,
0100
0000
1000
0000
0100
0000
0001
0000
0010
0000
1000
0010
0000
0100
0010
0000
,
0001
0100
0010
0100
0001
0100
0010
0000
1000
0000
1001
0000
0010
0100
0010
0100
,
0010
0000
0000
0000
1001
0000
0001
0010
0100
0000
0000
0100
0000
0000
1000
0000
,
0000
0000
1000
0000
0100
0000
0100
0000
0010
0000
0010
0000
0001
0000
1000
0100
,
1000
0000
0001
0000
0100
0000
0010
1000
0001
0000
0000
0101
0000
0000
1001
0000
,
0000
0000
1100
0000
0000
0000
0001
0000
0000
0000
1000
0100
0010
0000
0100
0000
,
1100
0000
0000
0000
0011
0000
0001
1000
0010
0000
0000
0100
0000
0000
0110
0000
,
0000
0000
0010
0000
0010
0000
0010
0100
0010
0100
0010
0100
0010
0100
0001
0010
,
0100
0000
1000
0000
0100
0010
0100
1000
0001
0000
0000
0101
0000
0000
1010
0000
,
0000
0000
1000
0001
1000
0001
1000
0000
0010
0100
0020
0000
0000
0000
1030
0001
,
0010
0000
0010
0100
0010
0000
0010
0001
1000
0000
0010
0100
0000
0010
1000
0000
,
0001
1000
0010
0000
0100
0001
0100
0001
1000
0100
1000
0100
0010
0100
1000
0001
,
0100
0000
0100
0010
0100
0000
0100
0001
1000
0000
0010
0100
0000
0010
1000
0000
,
0100
0000
0010
0100
1000
0001
0010
0001
1000
0100
0010
0100
1000
0001
0010
0100
,
1000
0000
0001
0000
0100
0000
1000
0000
0100
0001
0010
0000
1000
0000
0010
0000
,
0100
1000
0010
0000
0100
0000
0001
0010
0100
1000
0000
1000
0001
0000
0100
0000
,
1000
0000
0100
0001
0020
0000
0000
0000
0130
1000
0001
1000
0100
1000
0020
0000
,
0000
0000
0130
0000
0100
0001
0010
0100
1000
0000
0001
0000
0101
0000
0000
0000
,
2000
0000
0002
0003
0200
0000
0300
0000
,
0002
0003
0200
0000
0300
0000
0002
0003
,
0200
0000
0300
0000
3001
0100
0001
0000
,
0001
0010
0100
1000
0100
0010
0001
1000
,
0010
0101
1010
1100
,
0011
0000
0000
0000
1100
0000
0000
0000
0011
0000
0000
0000
0001
0000
1000
0100
,
0010
0000
0100
1000
0001
0100
0001
0100
1000
0000
0100
0010
0000
0100
0002
0000
,
0000
0000
1003
0000
0100
0000
0010
0100
0010
0000
0001
0000
1000
0100
0010
0000
,
0001
0000
1000
0000
1100
0000
0100
0010
0100
0010
0001
0000
0100
0000
0110
0000
,
0000
0000
1001
0000
1001
0000
1001
0000
0001
1000
0100
0010
0001
1000
0100
0010
,
0001
0000
1000
0000
1100
0000
0100
1000
0010
0100
0010
1000
0100
0000
0100
1000
,
0001
0000
0000
0000
0000
0000
0010
0000
0000
0000
0000
0000
1000
0000
0000
0000
0000
0000
0010
0000
0000
0000
0000
0000
0001
0000
0010
0000
0001
0000
0010
0000
0000
0100
0000
0000
1000
0000
0000
0100
0000
0000
0010
0000
0000
0001
0000
0000
,
0100
0000
0000
0000
0000
0000
0010
0000
0000
0000
0000
0000
0110
0000
0000
0000
0000
0000
0100
0000
0000
0001
0000
0000
1000
0000
0000
0001
0000
0000
0010
0000
0000
0000
0000
0000
0100
0000
1000
0000
0100
0000
1000
0000
0000
0100
0000
0000
,
0010
0000
0000
0000
0000
0000
0001
0000
0000
0000
0000
0000
1000
0000
0000
0000
0000
0000
0010
0000
0000
0000
0000
0000
0100
0000
0000
0001
0000
0000
0100
0000
0000
0001
0000
0000
1000
0000
0010
0000
1000
0000
0010
0000
0000
0100
0000
0000
,
0001
0000
0000
0000
0000
0000
1000
0000
0000
0100
0000
0000
0001
0000
0000
0000
0000
0000
0100
0000
0000
1000
0000
0000
0001
0000
0000
0000
0000
0000
0100
0000
0000
0010
0000
0000
0100
0000
0001
0000
1000
0000
0100
0000
0000
0010
0000
0000
,
0001
0000
0000
0000
0000
0000
0001
0000
0000
1000
0000
0000
0010
0000
0000
0000
0000
0000
0100
0000
0000
0010
0000
0000
0100
0000
0001
0000
1000
0000
0100
0000
0000
0010
0000
0000
0001
0000
0000
0010
0000
0000
0100
0000
0000
1000
0000
0000
,
0010
0100
1000
0100
0010
0001
0010
0100
0001
0010
0100
1000
0100
0010
0002
0000
,
0000
0000
0103
0000
0100
0010
0200
0000
0000
0000
0301
0000
1000
0001
1000
0000
,
0001
0000
0010
0000
1000
0000
0010
0000
0001
0100
1000
0100
0001
0000
1000
0000
,
0001
0000
0000
0000
0000
0000
1000
0000
0000
0100
0000
0000
0010
0000
0000
0000
0000
0000
0010
0000
0000
0100
0000
0000
1000
0000
0001
0000
1000
0000
0001
0000
0000
0000
0000
0000
0100
0000
0000
0000
0000
0000
1000
0000
0000
0000
0000
0000
,
0100
0000
0000
0000
0000
0000
0010
0000
0000
0000
0000
0000
0110
0000
0000
0000
0000
0000
0100
0000
0000
0001
0000
0000
0010
0000
0000
0100
0000
0000
0000
0000
0000
0100
0000
0000
1000
0000
0100
0000
0010
0000
0001
0000
0000
1000
0000
0000
,
0001
0010
0100
1000
0010
0000
0010
0100
0010
0100
0000
0100
0001
0010
0100
1000
,
1100
0000
0000
0000
0000
0000
1001
0000
0000
0000
0000
0000
0000
0000
0000
0000
0000
0000
0110
0000
0000
0000
0000
0000
0000
0000
0000
0000
0000
0000
0001
0000
0000
1000
0000
0000
0010
0000
0100
0000
0010
0000
0100
0000
0000
0000
0000
0000
,
0010
0000
0000
1000
0000
0000
0001
0000
0000
0010
0000
0000
0100
0000
0000
0000
0000
0000
1100
0000
0000
0000
0000
0000
1000
0000
0100
0000
0010
0000
0001
0000
0000
0000
0000
0000
1000
0000
0000
0000
0000
0000
0110
0000
0000
0000
0000
0000
,
0000
0000
0000
0000
0000
0000
0000
0000
0000
0000
0000
0000
0001
0000
0000
1000
0100
1000
0100
0000
0000
0010
0000
0000
,
0001
0100
0010
1000
0000
1000
0010
0100
0001
0000
0101
0000
0000
0000
0000
0000
,
0001
0100
0001
1000
0100
1000
0001
0100
0001
1000
0100
1000
0001
0100
0001
1000
,
0000
1000
0100
0100
0001
1000
0010
1000
0001
0100
0100
1000
0001
0100
0001
1000
,
0100
1000
0001
0100
0020
0000
0000
1000
0000
0000
0031
0000
0000
0000
0000
0000
,
1000
0010
1000
0001
0010
0001
1000
0010
1000
0001
0010
0001
1000
0010
1000
0001
,
0000
0001
0100
0100
1000
0001
0100
0001
0101
0000
0000
1100
0000
0000
1010
0000
,
0000
0011
0000
0000
1001
0000
0000
0110
0000
0000
1001
0000
0000
0000
0000
0000
;
